<?xml version="1.0" standalone="no"?>
<!DOCTYPE svg PUBLIC "-//W3C//DTD SVG 1.1//EN" "http://www.w3.org/Graphics/SVG/1.1/DTD/svg11.dtd" >
<svg xmlns="http://www.w3.org/2000/svg">
<metadata>Generated by IcoMoon</metadata>
<defs>
<font id="icomoon" horiz-adv-x="1024">
<font-face units-per-em="1024" ascent="960" descent="-64" />
<missing-glyph horiz-adv-x="1024" />
<glyph unicode="&#x20;" horiz-adv-x="512" d="" />
<glyph unicode="&#xe900;" glyph-name="icon-unlocked" d="M381.088 483.648v89.696c0 72.16 53.696 130.656 119.904 130.656h35.104c66.208 0 119.904-58.496 119.904-130.656v-7.616h-69.312c-4.416 36.704-33.248 65.056-68.128 65.056-37.952 0-68.736-33.536-68.736-74.88v-72.288h221.184c18.208 0 32.992-15.552 32.992-34.72v-222.24c0-19.104-14.784-34.656-32.992-34.656h-318.016c-18.208 0-32.992 15.552-32.992 34.72v222.24c0 19.168 14.784 34.72 32.992 34.72h28.096z" />
<glyph unicode="&#xe901;" glyph-name="icon-locked" d="M671.008 483.648h-14.976v89.632c0 72.256-53.76 130.72-120.064 130.72h-35.136c-66.304 0-119.744-58.464-119.744-130.72v-89.632h-28.096c-18.336 0-32.992-15.424-32.992-34.688v-222.272c0-18.944 14.656-34.688 32.992-34.688h318.016c18.336 0 32.992 15.744 32.992 34.688v222.272c0 19.264-14.656 34.688-32.992 34.688zM449.824 555.936c0 41.44 30.56 74.848 68.736 74.848 34.816 0 63.552-33.728 68.128-70.336v-76.768h-136.864v72.256z" />
<glyph unicode="&#xe902;" glyph-name="icon-eject" d="M276 192h471.968c11.072 0 20.032 9.76 20.032 21.824v75.968c0 12.064-8.96 21.824-20 21.824h-472c-11.040 0-20-9.76-20-21.824v-75.968c0-12.064 8.96-21.824 20-21.824zM503.552 699.808l-231.232-288.128c-6.368-7.904-1.184-20.32 8.448-20.32h462.496c9.664 0 14.816 12.384 8.448 20.32l-231.232 288.128c-4.512 5.6-12.448 5.6-16.928 0z" />
<glyph unicode="&#xe903;" glyph-name="icon-refresh" d="M347.392 486.688c17.28 82.24 90.4 142.336 173.92 142.336 31.648 0 61.92-8.704 88.576-24.416 6.656-3.936 12.8-8.672 18.944-13.504l-68.832-68.736 192-33.056-32 198.272-38.4-42.016c-5.92 5.024-12.064 9.728-18.336 14.144-40.928 28.672-89.92 44.288-141.92 44.288-121.664 0-225.12-89.312-245.984-210.368l-3.36-20.896h72.672l2.72 13.952zM676.608 409.312c-17.28-82.24-90.4-142.336-173.92-142.336-31.648 0-61.92 8.704-88.576 24.416-6.624 3.936-12.8 8.672-18.944 13.504l68.832 68.736-192 33.056 32-198.272 38.4 42.016c5.92-5.024 12.032-9.696 18.336-14.144 40.928-28.672 89.92-44.288 141.952-44.288 121.664 0 225.12 89.312 245.984 210.368l3.328 20.864h-72.672l-2.72-13.92z" />
<glyph unicode="&#xe904;" glyph-name="icon-info" d="M693.024 629.056c-99.968 99.936-262.080 99.936-362.048 0s-99.968-262.112 0-362.080c99.968-100 262.144-99.936 362.048 0 99.968 99.904 99.968 262.176 0 362.080zM507.904 659.808c27.008 0 48.992-21.984 48.992-49.088 0-27.296-21.984-49.472-48.992-49.472-27.264 0-49.536 22.176-49.536 49.472 0 27.552 21.728 49.088 49.536 49.088zM586.656 299.2c0-10.304-4.96-15.328-15.264-15.328h-126.464c-10.304 0-15.328 5.024-15.328 15.328v32.256c0 10.304 5.024 15.264 15.328 15.264h23.36v136.064h-23.872c-10.304 0-15.264 5.024-15.264 15.328v32.224c0 10.304 4.96 15.264 15.264 15.264h88.288c10.304 0 15.264-4.96 15.264-15.264v-183.648h23.424c10.304 0 15.264-4.96 15.264-15.264v-32.224z" />
<glyph unicode="&#xe905;" glyph-name="icon-chat" d="M580.992 704h-137.984c-103.296 0-187.008-85.952-187.008-192 0-96.608 69.536-176.32 160-189.792v-130.208l128 128h36.992c103.296 0 187.008 85.952 187.008 192s-83.712 192-187.008 192z" />
<glyph unicode="&#xe906;" glyph-name="icon-skip" d="M512 704c-141.376 0-256-114.656-256-256 0-141.408 114.624-256 256-256s256 114.592 256 256c0 141.344-114.624 256-256 256zM529.056 328.544v68.256c-102.4 34.144-136.544 0-170.656-68.256 0 170.656 102.4 204.8 170.656 204.8v68.256l136.544-136.544-136.544-136.512z" />
<glyph unicode="&#xe907;" glyph-name="icon-cog" d="M739.552 497.856h-71.328c-4.256 13.664-10.208 26.56-17.472 38.56l47.264 47.424c11.2 11.008 11.2 29.056 0 40.192l-20.064 20.032c-11.136 11.104-29.152 11.040-40.192 0l-48.128-48.032c-12.992 7.392-27.072 13.152-42.080 16.992v62.496c0 15.68-12.672 28.48-28.448 28.48h-28.448c-15.68 0-28.416-12.8-28.416-28.48v-62.464c-16.352-4.128-31.68-10.656-45.728-19.2l-40.288 40.224c-11.072 11.040-29.184 11.104-40.288 0l-20.096-20.096c-11.104-11.072-10.976-29.152 0.064-40.288l40.992-40.992c-8.672-15.136-15.168-31.648-18.88-49.152h-53.504c-15.776 0-28.544-12.736-28.544-28.48v-28.416c0-15.68 12.768-28.416 28.544-28.416h57.152c5.184-17.152 12.992-32.928 23.008-47.328l-38.656-38.656c-11.136-11.136-11.136-29.216-0.064-40.288l20.064-20.096c11.2-11.040 29.248-11.040 40.32 0.032l43.232 43.2c14.528-7.232 30.336-12.48 46.944-15.2v-59.488c0-15.68 12.736-28.448 28.448-28.48h28.448c15.68 0.032 28.448 12.8 28.448 28.48v66.816c14.336 5.088 27.904 11.872 40.224 20.544l45.76-45.888c11.104-11.072 29.12-11.072 40.224 0l20.096 20.128c11.168 11.072 11.168 29.056-0.096 40.288l-50.144 50.24c6.144 12.512 10.944 25.792 13.92 39.904h67.776c15.744 0 28.448 12.672 28.48 28.448v28.448c-0.096 15.68-12.8 28.512-28.544 28.512zM504.928 376.928c-39.264 0-71.072 31.776-71.072 71.104 0 39.264 31.808 71.040 71.072 71.040 39.296 0 71.136-31.776 71.136-71.040 0-39.328-31.84-71.104-71.136-71.104z" />
<glyph unicode="&#xe908;" glyph-name="icon-warning" d="M795.616 224.992l-264.896 465.44c-10.272 18.080-27.168 18.080-37.504 0l-264.864-465.44c-10.272-18.176-1.696-32.992 19.040-32.992h529.184c20.8 0 29.376 14.816 19.040 32.992zM549.76 286.88c0-10.464-8.48-18.976-18.912-18.976h-37.792c-10.336 0-18.912 8.512-18.912 18.976v37.952c0 10.464 8.576 18.976 18.912 18.976h37.792c10.4 0 18.912-8.544 18.912-18.976v-37.952zM549.76 400.736c0-10.464-8.48-18.976-18.912-18.976h-37.792c-10.336 0-18.912 8.512-18.912 18.976v113.856c0 10.464 8.576 18.976 18.912 18.976h37.792c10.4 0 18.912-8.544 18.912-18.976v-113.856z" />
<glyph unicode="&#xe909;" glyph-name="icon-arrow-down" d="M757.216 539.072l-219.616-237.44c-8.128-8.576-19.296-13.632-31.040-13.632-11.744 0.288-23.2 5.056-31.040 13.664l-208.768 227.040c-15.36 16.928-14.176 43.040 3.008 58.176 16.864 15.424 43.392 13.952 59.040-2.656l177.76-193.504 188.608 203.904c7.52 8 18.080 12.768 29.216 13.344 11.456 0.608 21.696-3.264 30.112-10.688 16.896-15.456 18.080-41.568 2.72-58.208z" />
<glyph unicode="&#xe90a;" glyph-name="icon-close" d="M754.816 270.080c17.6-17.6 17.6-46.72 0-64.64-8.96-8.64-20.48-13.44-32.64-13.44s-23.68 4.8-32.32 13.44l-177.888 177.92-177.888-177.92c-16.32-16.96-47.040-17.6-64.64 0-17.92 17.92-17.92 47.040 0 64.64l178.208 177.92-178.208 177.92c-17.92 17.92-17.92 46.72 0 64.64 17.28 17.28 47.36 17.28 64.64 0l177.888-177.92 177.888 177.92c17.92 17.92 47.040 17.92 64.96 0 17.6-17.92 17.6-46.72 0-64.64l-178.24-177.92 178.24-177.92z" />
<glyph unicode="&#xe90b;" glyph-name="icon-arrow-up" d="M757.216 356.928l-219.616 237.44c-8.128 8.576-19.296 13.632-31.040 13.632-11.744-0.288-23.2-5.056-31.040-13.664l-208.768-227.040c-15.36-16.928-14.176-43.040 3.008-58.176 16.864-15.424 43.392-13.952 59.040 2.656l177.76 193.504 188.608-203.904c7.52-8 18.080-12.768 29.216-13.344 11.456-0.608 21.696 3.264 30.112 10.688 16.896 15.456 18.080 41.568 2.72 58.208z" />
<glyph unicode="&#xe90c;" glyph-name="icon-arrow-right2" d="M420.928 202.784l237.44 219.616c8.576 8.128 13.632 19.296 13.632 31.040-0.288 11.744-5.056 23.2-13.664 31.040l-227.040 208.768c-16.928 15.36-43.040 14.176-58.176-3.008-15.424-16.864-13.952-43.392 2.656-59.040l193.504-177.76-203.904-188.608c-8-7.52-12.768-18.080-13.344-29.216-0.608-11.456 3.264-21.696 10.688-30.112 15.456-16.896 41.568-18.080 58.208-2.72z" />
<glyph unicode="&#xe90d;" glyph-name="icon-plus" d="M768 448c0-22.080-17.92-40-40-40h-176v-176c0-22.080-17.92-40-40-40s-40 17.92-40 40v176h-176c-22.080 0-40 17.92-40 40s17.92 40 40 40h176v176c0 22.080 17.92 40 40 40s40-17.92 40-40v-176h176c22.080 0 40-17.92 40-40z" />
<glyph unicode="&#xe90e;" glyph-name="icon-arrow-right" d="M420.928 202.784l237.44 219.616c8.576 8.128 13.632 19.296 13.632 31.040-0.288 11.744-5.056 23.2-13.664 31.040l-227.040 208.768c-16.928 15.36-43.040 14.176-58.176-3.008-15.424-16.864-13.952-43.392 2.656-59.040l193.504-177.76-203.904-188.608c-8-7.52-12.768-18.080-13.344-29.216-0.608-11.456 3.264-21.696 10.688-30.112 15.456-16.896 41.568-18.080 58.208-2.72z" />
<glyph unicode="&#xe90f;" glyph-name="icon-help" d="M693.024 629.056c-99.968 99.936-262.080 99.936-362.048 0s-99.968-262.112 0-362.080c99.968-100 262.144-99.936 362.048 0 99.968 99.904 99.968 262.176 0 362.080zM501.216 242.048c-27.808 0-50.496 22.464-50.496 50.048 0 28.32 22.176 50.528 50.496 50.528 27.616 0 50.048-22.656 50.048-50.528 0.032-27.168-22.88-50.048-50.048-50.048zM536.416 417.536v-27.744c0-13.504-5.28-18.784-18.784-18.784h-36.224c-13.504 0-18.72 5.28-18.72 18.784v61.984c0 15.68 16.064 20.352 30.208 24.48 3.456 1.056 7.040 2.080 10.496 3.264 18.336 6.592 29.696 14.816 29.696 35.296 0 6.656 0 26.816-32.832 26.816-20.224 0-38.624-7.776-49.6-12.416-6.208-2.624-9.28-3.904-12.384-3.904-6.336 0-12.32 5.088-13.248 10.304l-12.608 32.96c-1.824 3.776-1.824 6.784-1.824 9.216 0 24.288 75.552 37.664 100.608 37.664 63.104 0 105.504-40.672 105.504-101.152 0.032-65.44-49.12-85.952-80.288-96.768z" />
<glyph unicode="&#xe910;" glyph-name="icon-dashboard" d="M768 672v-160c0-17.6-14.4-32-32-32h-160c-17.6 0-32 14.4-32 32v160c0 17.6 14.4 32 32 32h160c17.6 0 32-14.4 32-32zM480 384v-160c0-17.6-14.4-32-32-32h-160c-17.6 0-32 14.4-32 32v160c0 17.6 14.4 32 32 32h160c17.6 0 32-14.4 32-32zM480 672v-160c0-17.6-14.4-32-32-32h-160c-17.6 0-32 14.4-32 32v160c0 17.6 14.4 32 32 32h160c17.6 0 32-14.4 32-32zM768 384v-160c0-17.6-14.4-32-32-32h-160c-17.6 0-32 14.4-32 32v160c0 17.6 14.4 32 32 32h160c17.6 0 32-14.4 32-32z" />
<glyph unicode="&#xe911;" glyph-name="icon-eye-crossed" d="M768 456.64c-20.16-34.88-44.48-63.68-71.68-86.72l-64.64 64.64c0.64 4.16 0.96 8.64 0.96 12.8 0 60.16-51.84 108.8-115.84 108.8-2.24 0-4.16 0-6.4-0.32l-33.92 33.92c12.16 1.6 24 2.24 36.16 2.24 98.88 0 197.44-45.12 255.36-135.36zM348.8 646.080c-8.96 8.96-23.68 8.96-32.64 0l-3.52-3.52c-8.96-8.96-8.96-23.68 0-32.64l53.76-53.76c-43.52-22.4-81.6-56.32-110.4-100.8 83.84-130.56 226.88-177.6 348.48-137.28l57.6-57.6c9.28-9.28 23.68-9.28 32.96 0l3.2 3.2c8.96 8.96 8.96 23.68 0 32.64l-349.44 349.76zM516.8 338.56c-64-0.32-115.84 48.64-115.84 108.48-0.32 21.12 6.080 40.64 17.28 57.28l42.56-42.56c-1.92-5.76-2.56-12.16-1.92-18.88 2.88-30.080 30.72-52.16 62.72-49.92 2.24 0.32 4.8 0.64 7.040 0.96l42.56-42.56c-16.32-8.32-34.56-12.8-54.4-12.8z" />
<glyph unicode="&#xe912;" glyph-name="icon-T1" d="M603.2 694.4h-6.4c-25.494 5.341-54.79 8.398-84.8 8.398s-59.305-3.058-87.592-8.879l2.792 0.48h-6.72c-30.053-5.643-52.489-31.68-52.489-62.956 0-0.367 0.003-0.733 0.009-1.099l-0.001 0.055v-234.88c0.075-40.921 11.238-79.22 30.643-112.071l-0.563 1.031 35.2-60.48c11.655-19.297 32.515-32.001 56.342-32.001 0.105 0 0.209 0 0.314 0.001h44.144c0.359-0.007 0.783-0.011 1.208-0.011 23.569 0 44.162 12.74 55.269 31.709l0.164 0.302 36.16 64c18.232 31.447 29.027 69.173 29.12 109.413v232.987c0.005 0.293 0.008 0.639 0.008 0.986 0 31.391-22.599 57.503-52.416 62.954l-0.392 0.059zM629.76 396.8c-0.193-35.364-9.792-68.446-26.418-96.923l0.498 0.923-35.84-64c-6.868-11.865-19.463-19.742-33.906-19.84h-44.174c-0.073 0-0.159-0.001-0.246-0.001-14.427 0-27.041 7.762-33.894 19.338l-0.1 0.183-34.88 59.84c-16.656 28.155-26.515 62.042-26.56 98.227v235.853c0.133 19.025 13.742 34.833 31.751 38.359l0.249 0.041h6.72c24.050 5.126 51.682 8.062 80 8.062s55.949-2.936 82.608-8.519l-2.608 0.457h6.72c18.258-3.568 31.867-19.375 32-38.386v-0.014zM422.4 606.080h179.2c3.535 0 6.4-2.865 6.4-6.4v-99.2c0-3.535-2.865-6.4-6.4-6.4h-179.2c-3.535 0-6.4 2.865-6.4 6.4v99.2c0 3.535 2.865 6.4 6.4 6.4z" />
<glyph unicode="&#xe913;" glyph-name="icon-T1-buttons" d="M603.2 694.4h-6.4c-25.494 5.341-54.79 8.398-84.8 8.398s-59.305-3.058-87.592-8.879l2.792 0.48h-6.72c-30.053-5.643-52.489-31.68-52.489-62.956 0-0.367 0.003-0.733 0.009-1.099l-0.001 0.055v-234.88c0.075-40.921 11.238-79.22 30.643-112.071l-0.563 1.031 35.2-60.48c11.655-19.297 32.515-32.001 56.342-32.001 0.105 0 0.209 0 0.314 0.001h44.144c0.359-0.007 0.783-0.011 1.208-0.011 23.569 0 44.162 12.74 55.269 31.709l0.164 0.302 36.16 64c18.152 31.468 28.933 69.175 29.12 109.385v233.015c0.005 0.293 0.008 0.639 0.008 0.986 0 31.391-22.599 57.503-52.416 62.954l-0.392 0.059zM629.76 396.8c-0.193-35.364-9.792-68.446-26.418-96.923l0.498 0.923-35.84-64c-6.868-11.865-19.463-19.742-33.906-19.84h-44.174c-14.469 0.112-27.111 7.827-34.139 19.343l-34.981 61.297c-16.687 28.041-26.553 61.827-26.56 97.918v234.882c0 19.072 13.676 34.95 31.757 38.362l0.243 0.038h6.72c24.050 5.126 51.682 8.062 80 8.062s55.949-2.936 82.608-8.519l-2.608 0.457h6.72c18.324-3.45 32-19.328 32-38.4v0zM422.4 606.080h179.2c3.535 0 6.4-2.865 6.4-6.4v-99.2c0-3.535-2.865-6.4-6.4-6.4h-179.2c-3.535 0-6.4 2.865-6.4 6.4v99.2c0 3.535 2.865 6.4 6.4 6.4zM531.2 469.76h70.4c3.535 0 6.4-2.865 6.4-6.4v-28.8c0-3.535-2.865-6.4-6.4-6.4h-70.4c-3.535 0-6.4 2.865-6.4 6.4v28.8c0 3.535 2.865 6.4 6.4 6.4zM422.4 468.8h70.4c3.535 0 6.4-2.865 6.4-6.4v-28.8c0-3.535-2.865-6.4-6.4-6.4h-70.4c-3.535 0-6.4 2.865-6.4 6.4v28.8c0 3.535 2.865 6.4 6.4 6.4z" />
<glyph unicode="&#xe914;" glyph-name="icon-T1-connect" d="M526.72 345.92h-29.44c-16.229 0.18-30.307 9.217-37.647 22.496l-0.113 0.224-23.36 41.92c-12.685 22.404-20.16 49.203-20.16 77.748 0 0.004 0 0.008 0 0.012v-0.001 164.16c-0.002 0.138-0.002 0.301-0.002 0.463 0 21.403 14.903 39.326 34.898 43.957l0.304 0.059h4.48c16.978 3.729 36.479 5.865 56.48 5.865s39.502-2.136 58.289-6.193l-1.809 0.327h4.48c20.14-4.81 34.883-22.655 34.883-43.943 0-0.189-0.001-0.377-0.003-0.565v0.029-163.52c0-0.064 0-0.139 0-0.214 0-28.079-7.233-54.468-19.937-77.407l0.417 0.821-24-43.84c-7.529-13.375-21.591-22.288-37.744-22.4h-0.016zM512 685.76c-0.097 0-0.212 0-0.327 0-18.693 0-36.923-1.981-54.492-5.745l1.699 0.305h-4.48c-12.188-2.865-21.122-13.645-21.122-26.512 0-0.129 0.001-0.258 0.003-0.387v0.020-164.48c0-0.094 0-0.204 0-0.315 0-25.018 6.525-48.512 17.966-68.873l-0.365 0.708 23.36-41.92c4.497-8.071 12.981-13.44 22.718-13.44 0.001 0 0.002 0 0.002 0h29.44c9.799 0.067 18.299 5.56 22.652 13.623l0.068 0.137 24 43.84c10.854 19.495 17.254 42.757 17.28 67.512v162.248c0.002 0.109 0.002 0.238 0.002 0.368 0 12.867-8.935 23.648-20.938 26.476l-0.184 0.037h-4.48c-15.736 3.739-33.906 6.053-52.557 6.396l-0.243 0.004zM452.48 635.52h119.040c2.474 0 4.48-2.006 4.48-4.48v-69.44c0-2.474-2.006-4.48-4.48-4.48h-119.040c-2.474 0-4.48 2.006-4.48 4.48v69.44c0 2.474 2.006 4.48 4.48 4.48zM540.48 303.68v-52.16h-18.24v-59.52h-19.84v59.52h-18.88v52.16h56.96z" />
<glyph unicode="&#xe915;" d="M551.36 178.24h-78.4c-0.225-0.006-0.489-0.010-0.754-0.010-10.242 0-19.207 5.468-24.135 13.643l-0.071 0.127-64 96c-29.426 43.619-46.99 97.353-47.040 155.187v233.613c0.36 22.875 18.988 41.281 41.915 41.281 0.114 0 0.228 0 0.342-0.001h263.342c0.097 0.001 0.211 0.001 0.325 0.001 22.927 0 41.555-18.406 41.915-41.248v-239.394c-0.289-59.994-19.423-115.463-51.779-160.855l0.579 0.855-60.48-86.080c-4.695-7.399-12.575-12.414-21.664-13.114l-0.096-0.006zM380.48 690.24c-0.1 0.003-0.217 0.004-0.334 0.004-7.552 0-13.716-5.946-14.064-13.413l-0.001-0.031v-233.92c0-0.010 0-0.023 0-0.036 0-52.093 15.777-100.502 42.813-140.708l-0.573 0.904 64-96h79.040l60.16 86.080c28.821 40.408 46.080 90.794 46.080 145.211 0 0.024 0 0.049 0 0.073v-0.004 238.4c-0.35 7.498-6.513 13.444-14.066 13.444-0.118 0-0.235-0.001-0.352-0.004h0.017z" />
<glyph unicode="&#xe916;" d="M407.040 624.32h209.92c4.595 0 8.32-3.725 8.32-8.32v-201.92c0-4.595-3.725-8.32-8.32-8.32h-209.92c-4.595 0-8.32 3.725-8.32 8.32v201.92c0 4.595 3.725 8.32 8.32 8.32z" />
<glyph unicode="&#xe917;" d="M539.52 352h-54.72c-6.578 0.052-12.387 3.298-15.96 8.261l-0.040 0.059-45.12 64c-20.029 28.726-32.002 64.366-32.002 102.802 0 0.309 0.001 0.617 0.002 0.925v-0.047 157.76c0.349 15.459 12.963 27.856 28.473 27.856 0.34 0 0.679-0.006 1.016-0.018l-0.049 0.001h184.32c0.288 0.010 0.627 0.016 0.967 0.016 15.51 0 28.124-12.398 28.473-27.824l0.001-0.032v-160c-0.074-40.641-13.522-78.128-36.176-108.308l0.336 0.468-42.24-57.28c-3.622-5.258-9.609-8.66-16.39-8.66-0.313 0-0.624 0.007-0.934 0.022l0.044-0.002zM419.84 694.4c-0.205 0.016-0.444 0.025-0.686 0.025-4.973 0-9.062-3.781-9.551-8.624l-0.003-0.040v-155.84c0.066-34.769 11.081-66.953 29.778-93.302l-0.338 0.502 45.12-64h56l42.24 57.28c19.839 26.468 31.828 59.817 32 95.96v160.040c-0.492 4.884-4.582 8.665-9.554 8.665-0.241 0-0.481-0.009-0.717-0.026l0.032 0.002z" />
<glyph unicode="&#xe918;" d="M438.4 650.88h146.88c3.181 0 5.76-2.579 5.76-5.76v-134.4c0-3.181-2.579-5.76-5.76-5.76h-146.88c-3.181 0-5.76 2.579-5.76 5.76v134.4c0 3.181 2.579 5.76 5.76 5.76z" />
<glyph unicode="&#xe919;" d="M541.12 300.48v-50.56h-18.56v-57.92h-20.48v57.92h-18.88v50.56h57.92z" />
<glyph unicode="&#xe91a;" glyph-name="icon-arrow-left" d="M603.072 202.784l-237.44 219.616c-8.576 8.128-13.632 19.296-13.632 31.040 0.288 11.744 5.056 23.2 13.664 31.040l227.040 208.768c16.928 15.36 43.040 14.176 58.176-3.008 15.424-16.864 13.952-43.392-2.656-59.040l-193.504-177.76 203.904-188.608c8-7.52 12.768-18.080 13.344-29.216 0.608-11.456-3.264-21.696-10.688-30.112-15.456-16.896-41.568-18.080-58.208-2.72z" />
<glyph unicode="&#xe91b;" glyph-name="icon-top" d="M677.44 346.24c-3.255-1.423-7.047-2.252-11.033-2.252-0.284 0-0.566 0.004-0.848 0.013l0.041-0.001c-8.323 0.531-15.657 4.371-20.77 10.206l-0.030 0.034-93.44 109.44c-0.378 0.735-1.131 1.229-1.999 1.229-1.237 0-2.24-1.003-2.24-2.24 0-0.209 0.029-0.412 0.083-0.605l-0.004 0.016v-233.28c0.102-0.987 0.16-2.132 0.16-3.291 0-18.733-15.187-33.92-33.92-33.92s-33.92 15.187-33.92 33.92c0 1.159 0.058 2.304 0.172 3.433l-0.012-0.142v236.16c0.050 0.177 0.079 0.379 0.079 0.589 0 1.237-1.003 2.24-2.24 2.24-0.868 0-1.621-0.494-1.993-1.216l-0.006-0.013-88.32-104.32c-5.204-6.343-13.042-10.358-21.819-10.358-7.711 0-14.699 3.099-19.784 8.121l0.003-0.003c-6.16 5.845-9.993 14.090-9.993 23.231 0 8.17 3.062 15.625 8.101 21.28l-0.028-0.032 146.56 173.44c5.311 6.15 13.061 10.069 21.731 10.24h0.029c8.727-0.036 16.523-3.991 21.724-10.196l0.036-0.044 152-178.56c5.441-6.124 8.764-14.234 8.764-23.121 0-12.698-6.785-23.81-16.927-29.911l-0.157-0.088zM329.28 667.2c-0.024 0.488-0.038 1.060-0.038 1.635 0 18.891 14.881 34.306 33.561 35.163l0.077 0.003h292.48c18.795-1.81 33.372-17.523 33.372-36.64s-14.577-34.83-33.222-36.628l-0.15-0.012h-292.48c-18.751 0.866-33.625 16.278-33.625 35.165 0 0.463 0.009 0.923 0.027 1.381l-0.002-0.066z" />
<glyph unicode="&#xe91c;" glyph-name="icon-check" d="M692.8 646.080l-1.92 1.92c-6.246 7.057-15.326 11.484-25.44 11.484s-19.194-4.427-25.409-11.448l-0.031-0.036-196.48-224-3.84-1.6-3.84 1.92-48.64 57.28c-7.010 7.905-17.193 12.862-28.533 12.862-21.031 0-38.080-17.049-38.080-38.080 0-7.495 2.165-14.485 5.905-20.377l-0.092 0.155 100.8-148.16c5.391-8.036 14.386-13.292 24.618-13.44h8.662c17.251 0.146 32.385 9.075 41.163 22.529l0.117 0.191 195.2 296.32c4.473 6.632 7.141 14.803 7.141 23.597 0 11.162-4.297 21.32-11.326 28.911l0.025-0.028z" />
<glyph unicode="&#xe91d;" glyph-name="icon-error" d="M693.12 629.12c-46.317 46.267-110.276 74.88-180.919 74.88-141.385 0-256-114.615-256-256s114.615-256 256-256c70.642 0 134.602 28.613 180.921 74.882l-0.002-0.002c46.387 46.337 75.081 110.377 75.081 181.12s-28.694 134.783-75.079 181.118l-0.002 0.002zM494.080 615.68h53.12c16 0 18.24-9.28 18.24-14.72v-10.24l-10.88-194.56c0-14.4-8-17.28-18.88-17.28h-28.16c-10.56 0-17.28 2.88-18.88 17.92l-10.88 193.92v10.56c-1.28 4.8 2.24 14.080 16.32 14.080zM521.28 242.24c-0.095-0.001-0.207-0.001-0.319-0.001-27.747 0-50.24 22.493-50.24 50.24s22.493 50.24 50.24 50.24c27.747 0 50.24-22.493 50.24-50.24 0-0.112 0-0.224-0.001-0.336v0.017c0 0 0-0.001 0-0.001 0-27.634-22.311-50.057-49.903-50.239h-0.017z" />
<glyph unicode="&#xe91e;" glyph-name="icon-eye" d="M512.64 592c-99.2 0-198.4-45.76-256.64-136.64 128.64-200 394.56-203.84 512 1.28-57.92 90.24-156.48 135.36-255.36 135.36zM516.8 338.56c-64-0.32-115.84 48.64-115.84 108.48-0.32 60.16 51.52 109.12 115.84 109.12 64 0 115.84-48.64 115.84-108.8 0.32-60.16-51.52-108.8-115.84-108.8zM574.72 451.84c2.56-30.080-21.12-56.32-53.12-58.88-32-2.24-59.84 19.84-62.72 49.92-2.56 30.080 21.44 56.32 53.12 58.56 32 2.56 59.84-19.84 62.72-49.6z" />
<glyph unicode="&#xe91f;" glyph-name="icon-back" d="M656.224 557.696l-66.848-66.176-66.848 66.176-50.144-49.6 66.912-66.176-66.912-66.176 50.176-49.632 66.848 66.176 66.848-66.176 50.112 49.632-66.816 66.176 66.816 66.176-50.144 49.6zM337.824 704h540.928c27.2 0 49.248-21.824 49.248-48.768v-414.464c0-26.944-22.048-48.768-49.248-48.768h-540.608c-13.856 0-27.072 5.792-36.416 15.936l-192.896 209.664c-17.248 18.752-17.088 47.488 0.352 66.048l192.576 204.8c9.344 9.92 22.4 15.552 36.064 15.552z" />
</font>
</defs>
</svg>
