<?xml version="1.0" standalone="no"?>
<!DOCTYPE svg PUBLIC "-//W3C//DTD SVG 1.1//EN" "http://www.w3.org/Graphics/SVG/1.1/DTD/svg11.dtd">
<svg xmlns="http://www.w3.org/2000/svg">
<defs >
<font id="RobotoMono" horiz-adv-x="1230" ><font-face
    font-family="Roboto Mono"
    units-per-em="2048"
    panose-1="0 0 0 0 0 0 0 0 0 0"
    ascent="2146"
    descent="-555"
    alphabetic="0" />
<glyph unicode=" " glyph-name="space" horiz-adv-x="1229" />
<glyph unicode="!" glyph-name="exclam" horiz-adv-x="1229" d="M690 471H504V1456H690V471ZM486 97Q486 145 514 177T600 209Q657 209 686 177T716 97Q716 51 687 20T600 -11Q543 -11 515 20T486 97Z" />
<glyph unicode="&quot;" glyph-name="quotedbl" horiz-adv-x="1229" d="M505 1427L484 1057H354L355 1411V1536H505V1427ZM862 1427L841 1057H712L713 1411V1536H863L862 1427Z" />
<glyph unicode="#" glyph-name="numbersign" horiz-adv-x="1229" d="M707 410H443L363 0H220L300 410H61V547H326L395 901H137V1040H422L504 1456H647L565 1040H829L911 1456H1054L972 1040H1177V901H945L876 547H1102V410H850L770 0H627L707 410ZM469 547H733L802
901H538L469 547Z" />
<glyph unicode="$" glyph-name="dollar" horiz-adv-x="1229" d="M907 375Q908 466 841 531T626 644Q533 673 458 711T330 801T247 922T218 1079Q218 1163 243 1231T315 1349T428 1431T576 1472V1692H725V1472Q893 1449 986 1331T1080 1008H896Q896 1075 880 1131T832
1228T754 1292T649 1315Q528 1315 466 1252T403 1082Q403 1032 419 993T469 922T558 863T690 809Q784 778 859 740T986 651T1065 533T1093 377Q1093 290 1066 221T988 103T867 23T708 -16V-208H559V-17Q481 -9 410 19T283 100T195 235T162 429H347Q347 345 372
290T436 201T526 154T627 140Q692 140 744 156T832 202T887 276T907 375Z" />
<glyph unicode="%" glyph-name="percent" horiz-adv-x="1229" d="M44 1194Q44 1251 61 1302T112 1393T196 1454T311 1477Q377 1477 427 1455T511 1393T562 1303T580 1194V1117Q580 1060 563 1009T512 920T428 859T313 836Q248 836 198 858T113 919T62 1009T44
1117V1194ZM182 1117Q182 1086 189 1058T212 1007T252 971T313 957Q348 957 372 970T412 1006T434 1057T442 1117V1194Q442 1225 435 1254T412 1306T372 1342T311 1356Q276 1356 252 1343T212 1307T189 1255T182 1194V1117ZM645 338Q645 395 662 446T714 536T798
597T913 620Q979 620 1029 598T1113 536T1164 446T1182 338V260Q1182 203 1165 152T1113 63T1030 2T915 -21Q849 -21 799 1T714 62T663 152T645 260V338ZM783 260Q783 229 790 200T813 149T854 113T915 99Q950 99 974 112T1014 148T1036 200T1043 260V338Q1043
369 1036 398T1014 449T973 485T913 499Q877 499 853 486T813 450T790 398T783 338V260ZM398 188L287 250L854 1287L965 1225L398 188Z" />
<glyph unicode="&amp;" glyph-name="ampersand" horiz-adv-x="1229" d="M107 373Q107 440 127 497T183 603T269 697T380 785Q313 876 274 957T234 1126Q234 1211 259 1276T332 1386T445 1454T593 1477Q664 1477 722 1452T820 1385T883 1286T905 1168Q905 1115
890 1072T847 990T781 918T699 851L605 771L912 368Q947 432 967 508T988 672H1155Q1155 544 1119 435T1012 237L1193 0H972L889 110Q815 47 726 14T539 -20Q440 -20 360 9T224 90T138 214T107 373ZM539 130Q610 130 676 156T799 230L476 661L448 637Q398 596 367
557T320 484T298 421T292 373Q292 322 308 278T355 201T432 149T539 130ZM420 1128Q420 1072 445 1014T515 890L632 983Q663 1004 683 1027T714 1073T729 1121T734 1168Q734 1198 725 1226T697 1276T652 1311T593 1325Q550 1325 518 1309T464 1266T431 1204T420
1128Z" />
<glyph unicode="&apos;" glyph-name="quotesingle" horiz-adv-x="1229" d="M653 1425L632 1057H494L495 1409V1536H653V1425Z" />
<glyph unicode="(" glyph-name="parenleft" horiz-adv-x="1229" d="M357 591Q357 734 379 860T440 1093T527 1290T631 1448T741 1566T846 1643L885 1521Q823 1474 762 1393T652 1197T573 931T542 593V579Q542 392 572 241T651 -26T761 -224T885 -357L846 -470Q796
-442 741 -394T631 -276T527 -118T440 78T380 312T357 581V591Z" />
<glyph unicode=")" glyph-name="parenright" horiz-adv-x="1229" d="M849 581Q849 438 827 312T766 79T679 -117T575 -275T465 -393T359 -470L320 -357Q382 -311 443 -229T553 -29T632 240T663 579V593Q663 780 631 932T549 1202T438 1402T320 1530L359 1643Q409
1615 464 1566T574 1448T678 1290T766 1094T826 860T849 591V581Z" />
<glyph unicode="*" glyph-name="asterisk" horiz-adv-x="1229" d="M537 683L160 779L214 954L579 803L554 1224H732L703 797L1066 947L1120 769L738 675L994 351L848 241L634 604L422 250L276 356L537 683Z" />
<glyph unicode="+" glyph-name="plus" horiz-adv-x="1229" d="M710 781H1117V597H710V146H525V597H119V781H525V1206H710V781Z" />
<glyph unicode="," glyph-name="comma" horiz-adv-x="1229" d="M643 43Q643 -4 632 -55T598 -157T543 -254T469 -336L354 -273Q402 -203 422 -124T442 40V219H643V43Z" />
<glyph unicode="-" glyph-name="hyphen" d="M983 561H218V713H983V561Z" />
<glyph unicode="." glyph-name="period" horiz-adv-x="1229" d="M496 120Q496 150 505 176T533 221T578 252T641 263Q677 263 704 252T750 222T778 176T788 120Q788 91 779 66T751 21T705 -8T641 -19Q605 -19 578 -9T533 21T506 65T496 120Z" />
<glyph unicode="/" glyph-name="slash" horiz-adv-x="1229" d="M418 -125H252L860 1456H1025L418 -125Z" />
<glyph unicode="0" glyph-name="zero" horiz-adv-x="1229" d="M1088 557Q1088 418 1056 311T964 130T817 18T618 -20Q507 -20 420 18T271 129T178 310T145 557V898Q145 1037 177 1144T269 1326T417 1438T616 1477Q728 1477 815 1439T963 1326T1056 1145T1088 898V557ZM331
594L898 1029Q882 1174 814 1249T616 1325Q470 1325 401 1227T331 939V594ZM902 852L336 419Q353 278 423 204T618 130Q765 130 833 230T902 518V852Z" />
<glyph unicode="1" glyph-name="one" horiz-adv-x="1229" d="M774 0H589V1220L208 1075V1244L759 1456H774V0Z" />
<glyph unicode="2" glyph-name="two" horiz-adv-x="1229" d="M1067 0H113V133L590 663Q654 734 697 789T766 890T803 978T814 1064Q814 1118 797 1165T746 1248T665 1303T557 1324Q484 1324 431 1303T342 1244T289 1150T271 1027H85Q85 1119 117 1200T209 1343T357
1440T557 1476Q660 1476 742 1446T882 1361T969 1233T1000 1072Q1000 1007 978 944T919 818T832 696T727 575L336 151H1067V0Z" />
<glyph unicode="3" glyph-name="three" horiz-adv-x="1229" d="M390 817H522Q592 817 645 836T735 888T791 967T810 1068Q810 1195 745 1259T555 1324Q496 1324 448 1307T365 1256T311 1177T292 1074H106Q106 1157 138 1230T230 1358T371 1444T555 1476Q653 1476
734 1450T873 1371T963 1242T995 1064Q995 1022 982 977T942 890T873 810T771 747Q842 724 889 687T965 604T1005 507T1017 406Q1017 304 982 225T885 92T739 9T556 -20Q460 -20 376 7T229 86T131 213T94 384H279Q279 327 298 280T354 200T441 149T556 131Q619
131 670 147T757 198T812 282T832 402Q832 470 810 519T747 602T649 651T522 667H390V817Z" />
<glyph unicode="4" glyph-name="four" horiz-adv-x="1229" d="M924 489H1127V338H924V0H739V338H75V447L727 1456H924V489ZM280 489H739V1210L709 1154L280 489Z" />
<glyph unicode="5" glyph-name="five" horiz-adv-x="1229" d="M240 730L313 1456H1060V1276H469L428 888Q471 913 531 932T670 951Q771 951 851 916T987 818T1073 664T1103 464Q1103 360 1075 271T991 118T848 17T646 -20Q557 -20 478 5T338 80T237 206T187 383H363Q380
259 454 195T646 131Q712 131 763 154T848 221T900 326T918 462Q918 530 899 589T842 691T751 760T627 785Q581 785 548 779T487 760T437 731T388 692L240 730Z" />
<glyph unicode="6" glyph-name="six" horiz-adv-x="1229" d="M856 1457V1291H840Q748 1291 676 1272T548 1220T454 1142T388 1042T348 929T330 809Q356 840 390 866T463 912T548 943T644 955Q753 955 832 914T962 804T1037 650T1061 475Q1061 373 1033 283T947
126T806 19T610 -20Q531 -20 466 3T348 65T257 159T193 275T154 404T141 538V625Q141 725 153 825T196 1018T277 1190T405 1330T590 1423T840 1457H856ZM614 801Q567 801 523 786T441 744T374 679T328 595V533Q328 437 351 363T413 237T503 160T610 133Q675 133
725 158T809 227T861 332T879 466Q879 530 863 590T814 698T731 773T614 801Z" />
<glyph unicode="7" glyph-name="seven" horiz-adv-x="1229" d="M1096 1352L493 0H299L900 1294H112V1456H1096V1352Z" />
<glyph unicode="8" glyph-name="eight" horiz-adv-x="1229" d="M1070 1076Q1069 967 1011 882T856 749Q912 725 957 690T1035 608T1085 508T1103 393Q1103 294 1067 217T968 88T821 8T641 -20Q543 -20 459 7T312 86T213 216T177 393Q177 454 194 508T243 608T320
690T421 750Q373 774 334 807T268 882T226 973T211 1076Q211 1171 243 1245T331 1371T466 1449T638 1476Q730 1476 809 1449T946 1371T1037 1246T1070 1076ZM918 397Q918 458 898 509T840 596T752 653T639 673Q576 673 525 653T438 597T383 509T363 397Q363 334
382 285T438 201T525 149T641 131Q702 131 753 149T840 201T897 284T918 397ZM884 1073Q884 1128 866 1174T815 1253T737 1305T638 1324Q584 1324 540 1307T464 1256T415 1177T397 1073Q397 1016 414 971T464 893T541 843T640 825Q693 825 738 842T815 892T866
971T884 1073Z" />
<glyph unicode="9" glyph-name="nine" horiz-adv-x="1229" d="M373 164Q472 164 547 181T677 231T770 306T830 402T865 513T879 633Q855 603 824 577T754 530T668 499T564 487Q456 487 378 529T248 641T173 797T149 972Q149 1075 177 1166T262 1326T403 1435T600
1476Q684 1476 751 1453T870 1388T959 1290T1019 1168T1054 1031T1065 887V820Q1065 727 1056 630T1021 441T946 270T821 129T634 34T373 -1H354V164H373ZM594 640Q641 640 685 655T767 699T834 766T881 852V912Q881 1009 859 1085T798 1213T709 1294T601 1322Q536
1322 486 1296T402 1225T349 1117T331 982Q331 918 347 857T395 747T477 670T594 640Z" />
<glyph unicode=":" glyph-name="colon" horiz-adv-x="1229" d="M546 120Q546 150 555 176T583 221T628 252T691 263Q727 263 754 252T800 222T828 176T838 120Q838 91 829 66T801 21T755 -8T691 -19Q655 -19 628 -9T583 21T556 65T546 120ZM546 996Q546 1026 555
1052T583 1097T628 1128T691 1139Q727 1139 754 1128T800 1098T828 1052T838 996Q838 967 829 942T801 897T755 868T691 857Q655 857 628 867T583 897T556 941T546 996Z" />
<glyph unicode=";" glyph-name="semicolon" horiz-adv-x="1229" d="M537 996Q537 1026 546 1052T574 1097T619 1128T682 1139Q718 1139 745 1128T791 1098T819 1052T829 996Q829 967 820 942T792 897T746 868T682 857Q646 857 619 867T574 897T547 941T537 996ZM775
43Q775 -4 764 -55T730 -157T675 -254T601 -336L486 -273Q534 -203 554 -124T574 40V219H775V43Z" />
<glyph unicode="&lt;" glyph-name="less" horiz-adv-x="1229" d="M406 663L353 646L406 628L1018 392V196L170 575V721L1018 1099V903L406 663Z" />
<glyph unicode="=" glyph-name="equal" horiz-adv-x="1229" d="M1066 780H173V941H1066V780ZM1066 365H173V525H1066V365Z" />
<glyph unicode="&gt;" glyph-name="greater" horiz-adv-x="1229" d="M178 909V1100L1061 722V576L178 197V389L825 633L885 650L825 669L178 909Z" />
<glyph unicode="?" glyph-name="question" horiz-adv-x="1229" d="M511 410Q512 482 517 528T538 611T584 681T664 761Q698 796 733 833T798 910T847 996T866 1091Q866 1200 803 1257T623 1315Q576 1315 532 1304T453 1268T397 1206T376 1116H191Q192 1200 226
1267T317 1380T453 1451T623 1476Q724 1476 803 1451T938 1376T1022 1257T1051 1097Q1051 1025 1026 962T962 842T875 736T779 645Q749 616 733 590T708 537T698 480T696 410H511ZM490 97Q490 145 518 177T604 209Q661 209 690 177T720 97Q720 51 691 20T604 -11Q547
-11 519 20T490 97Z" />
<glyph unicode="@" glyph-name="at" horiz-adv-x="1229" d="M1159 789Q1156 709 1140 626T1092 474T1008 363T883 320Q822 320 782 352T724 441Q689 385 638 353T524 320Q475 320 439 346T381 419T350 531T347 674Q356 785 384 874T456 1026T560 1122T690 1156Q757
1156 801 1130T871 1067L827 563Q824 522 829 497T843 457T867 437T897 432Q934 432 962 460T1010 537T1039 651T1050 789Q1054 916 1029 1017T953 1188T826 1295T655 1332Q554 1332 471 1285T326 1152T230 949T191 691Q186 555 210 449T287 270T422 158T617 119Q647
119 678 123T739 136T796 157T845 184L877 67Q852 48 820 34T753 11T682 -3T614 -8Q467 -8 362 43T190 188T94 409T69 691Q73 794 94 891T151 1074T239 1229T355 1351T495 1430T658 1458Q780 1458 875 1411T1034 1275T1131 1064T1159 789ZM470 674Q465 572 487
515T557 458Q606 458 646 485T716 575L755 1020Q727 1033 697 1033Q644 1033 605 1008T538 936T495 823T470 674Z" />
<glyph unicode="A" glyph-name="A" horiz-adv-x="1229" d="M869 377H383L266 0H81L551 1456H706L1168 0H984L869 377ZM433 538H820L628 1170L433 538Z" />
<glyph unicode="B" glyph-name="B" horiz-adv-x="1229" d="M172 0V1456H605Q695 1455 781 1433T934 1363T1041 1243T1080 1068Q1079 1011 1062 964T1014 880T942 814T855 766Q913 749 961 718T1045 642T1099 541T1119 420Q1120 318 1080 240T973 110T819 29T638
0H172ZM358 681V157H643Q701 158 753 176T845 228T908 309T932 418Q933 480 912 528T852 609T763 661T653 681H358ZM358 835H616Q668 836 718 851T807 896T870 969T894 1069Q894 1130 871 1173T808 1243T717 1284T611 1298H358V835Z" />
<glyph unicode="C" glyph-name="C" horiz-adv-x="1229" d="M1117 438Q1104 337 1065 253T964 108T816 14T625 -20Q535 -20 462 5T331 76T232 182T163 315T122 466T107 626V829Q108 910 121 989T162 1140T231 1273T330 1380T461 1450T625 1476Q734 1476 820 1443T968
1348T1067 1200T1117 1010H932Q923 1076 901 1133T842 1233T752 1300T625 1325Q559 1325 509 1304T422 1245T361 1159T321 1055T300 943T293 831V626Q293 572 299 515T321 402T360 297T421 211T508 152T625 130Q698 130 751 153T842 217T901 315T932 438H1117Z"
/>
<glyph unicode="D" glyph-name="D" horiz-adv-x="1229" d="M155 0V1456H492Q644 1454 763 1405T965 1267T1091 1055T1136 781V674Q1135 524 1092 401T966 189T764 51T492 0H155ZM343 1304V151H492Q610 152 696 192T838 303T922 468T951 674V783Q950 894 922 988T838
1152T696 1262T492 1304H343Z" />
<glyph unicode="E" glyph-name="E" horiz-adv-x="1229" d="M975 673H367V157H1076V0H182V1456H1067V1298H367V830H975V673Z" />
<glyph unicode="F" glyph-name="F" horiz-adv-x="1229" d="M984 643H378V0H191V1456H1085V1298H378V800H984V643Z" />
<glyph unicode="G" glyph-name="G" horiz-adv-x="1229" d="M1116 191Q1024 83 905 31T644 -20Q554 -19 479 7T343 80T238 190T163 326T117 480T100 643V812Q101 893 114 973T156 1128T226 1265T326 1375T459 1449T625 1476Q727 1476 813 1445T963 1355T1066 1214T1114
1029H931Q920 1092 897 1145T837 1237T747 1296T626 1318Q560 1318 509 1296T420 1235T357 1147T316 1040T293 926T286 814V643Q287 588 295 530T322 415T368 309T435 221T527 161T645 137Q683 136 724 140T805 156T878 188T935 242L937 569H641V725H1113L1116
191Z" />
<glyph unicode="H" glyph-name="H" horiz-adv-x="1229" d="M1087 0H912V673H315V0H141V1456H315V830H912V1456H1087V0Z" />
<glyph unicode="I" glyph-name="I" horiz-adv-x="1229" d="M174 1456H1054V1295H705V160H1054V0H174V160H515V1295H174V1456Z" />
<glyph unicode="J" glyph-name="J" horiz-adv-x="1229" d="M857 1456H1046V443Q1044 342 1008 257T908 111T760 15T573 -20Q471 -20 388 11T243 99T144 238T98 421H286Q289 360 310 308T369 218T457 158T573 137Q639 137 691 161T779 228T835 325T857 443V1456Z" />
<glyph unicode="K" glyph-name="K" horiz-adv-x="1229" d="M523 676L361 492V0H172V1456H361V745L502 921L929 1456H1154L645 819L1188 0H963L523 676Z" />
<glyph unicode="L" glyph-name="L" horiz-adv-x="1229" d="M383 157H1095V0H198V1456H383V157Z" />
<glyph unicode="M" glyph-name="M" horiz-adv-x="1229" d="M377 1456L614 728L870 1456H1100V0H920V581L935 1189L666 405H560L313 1168L328 581V0H148V1456H377Z" />
<glyph unicode="N" glyph-name="N" horiz-adv-x="1229" d="M1086 0H898L333 1088L330 0H143V1456H331L896 370L899 1456H1086V0Z" />
<glyph unicode="O" glyph-name="O" horiz-adv-x="1229" d="M1121 644Q1120 566 1108 487T1069 333T1003 195T906 83T778 8T615 -20Q525 -20 453 7T324 83T227 195T160 334T120 487T106 644V810Q107 888 119 967T158 1121T225 1259T322 1372T450 1448T613 1476Q703
1476 776 1449T905 1373T1001 1261T1068 1122T1107 968T1121 810V644ZM938 812Q937 864 931 920T911 1032T872 1138T812 1227T727 1288T613 1311Q549 1311 500 1288T415 1227T355 1138T317 1032T296 920T288 812V644Q289 593 295 536T317 424T356 317T416 228T501
166T615 143Q680 143 729 166T814 227T873 316T911 422T931 535T938 644V812Z" />
<glyph unicode="P" glyph-name="P" horiz-adv-x="1229" d="M376 584V0H191V1456H663Q761 1454 848 1425T1002 1341T1106 1205T1145 1019Q1145 914 1107 834T1002 698T849 614T663 584H376ZM376 736H663Q727 737 781 756T875 812T937 899T960 1017Q960 1083 938
1136T876 1226T782 1283T663 1304H376V736Z" />
<glyph unicode="Q" glyph-name="Q" horiz-adv-x="1229" d="M1134 663Q1133 582 1120 500T1081 342T1013 200T913 84L1164 -125L1037 -246L749 -2Q687 -20 615 -20Q522 -20 448 8T317 86T217 201T148 344T108 501T94 663V791Q95 871 108 953T148 1111T216 1253T314
1369T446 1447T614 1476Q707 1476 781 1448T913 1370T1012 1255T1080 1112T1120 954T1134 791V663ZM950 793Q949 848 944 907T924 1024T885 1134T823 1225T735 1288T614 1311Q546 1311 495 1288T407 1225T346 1133T306 1024T285 907T278 793V663Q278 609 284 550T306
432T345 322T407 230T495 167T615 143Q684 143 735 166T824 229T885 321T923 431T943 548T950 663V793Z" />
<glyph unicode="R" glyph-name="R" horiz-adv-x="1229" d="M656 594H365V0H181V1456H608Q710 1454 800 1427T957 1346T1063 1211T1102 1019Q1102 948 1082 889T1025 782T939 697T829 634L1138 12L1137 0H942L656 594ZM365 746H613Q675 747 730 765T826 819T892
904T916 1021Q916 1091 893 1143T829 1231T732 1285T608 1304H365V746Z" />
<glyph unicode="S" glyph-name="S" horiz-adv-x="1229" d="M936 368Q936 435 906 481T827 558T722 611T611 649Q534 674 455 709T310 795T203 915T161 1079Q161 1173 202 1247T311 1372T463 1449T634 1476Q729 1476 817 1445T973 1356T1082 1218T1125 1037H935Q927
1100 904 1151T843 1240T753 1297T634 1318Q581 1318 531 1303T441 1258T378 1184T354 1082Q355 1019 386 976T464 902T567 852T672 817Q726 800 781 779T887 729T982 666T1059 587T1110 489T1129 370Q1129 272 1086 199T973 78T817 5T643 -20Q546 -20 453 10T287
96T167 234T118 420H307Q316 352 344 300T416 211T517 156T643 137Q697 137 749 150T843 192T910 264T936 368Z" />
<glyph unicode="T" glyph-name="T" horiz-adv-x="1229" d="M1156 1298H706V0H526V1298H76V1456H1156V1298Z" />
<glyph unicode="U" glyph-name="U" horiz-adv-x="1229" d="M1088 1456L1090 470Q1088 368 1053 279T955 124T805 19T614 -20Q508 -20 421 18T272 122T175 278T139 470L141 1456H317L321 470Q322 405 341 345T397 239T488 165T614 137Q685 137 739 164T829 238T885
345T906 470L909 1456H1088Z" />
<glyph unicode="V" glyph-name="V" horiz-adv-x="1229" d="M610 298L954 1456H1151L692 0H531L71 1456H269L610 298Z" />
<glyph unicode="W" glyph-name="W" horiz-adv-x="1229" d="M896 394L1007 1456H1182L1005 0H816L629 1097L440 0H250L73 1456H249L360 394L547 1456H708L896 394Z" />
<glyph unicode="X" glyph-name="X" horiz-adv-x="1229" d="M625 885L939 1456H1157L734 734L1167 0H951L629 582L306 0H87L521 734L98 1456H315L625 885Z" />
<glyph unicode="Y" glyph-name="Y" horiz-adv-x="1229" d="M603 725L935 1456H1145L692 543L689 0H517L514 543L61 1456H272L603 725Z" />
<glyph unicode="Z" glyph-name="Z" horiz-adv-x="1229" d="M325 157H1079V0H116L114 144L839 1298H127V1456H1050L1052 1315L325 157Z" />
<glyph unicode="[" glyph-name="bracketleft" horiz-adv-x="1229" d="M822 1512H601V-160H822V-312H426V1664H822V1512Z" />
<glyph unicode="\" glyph-name="backslash" horiz-adv-x="1229" d="M231 1456H398L1006 -125H839L231 1456Z" />
<glyph unicode="]" glyph-name="bracketright" horiz-adv-x="1229" d="M405 1664H802V-312H405V-160H627V1512H405V1664Z" />
<glyph unicode="^" glyph-name="asciicircum" horiz-adv-x="1229" d="M403 677H231L551 1456H678L997 677H826L628 1163L613 1231L598 1163L403 677Z" />
<glyph unicode="_" glyph-name="underscore" horiz-adv-x="1229" d="M1072 -151H155V0H1072V-151Z" />
<glyph unicode="`" glyph-name="grave" horiz-adv-x="1229" d="M813 1215H663L415 1481H638L813 1215Z" />
<glyph unicode="a" glyph-name="a" horiz-adv-x="1229" d="M885 0Q874 21 868 52T858 118Q830 90 796 65T720 21T631 -9T531 -20Q445 -20 376 5T258 72T183 173T156 300Q156 389 191 456T292 567T448 634T653 656H855V741Q855 790 837 829T786 895T706 938T599
953Q544 953 501 939T427 902T381 848T364 782H178Q179 841 208 898T293 1000T428 1074T609 1102Q701 1102 780 1080T916 1012T1007 898T1040 739V236Q1040 182 1050 122T1078 16V0H885ZM558 141Q612 141 659 155T744 192T811 244T855 306V525H683Q521 525 431
477T341 326Q341 286 354 252T395 194T463 155T558 141Z" />
<glyph unicode="b" glyph-name="b" horiz-adv-x="1229" d="M1091 529Q1091 413 1063 313T981 138T848 22T665 -20Q561 -20 485 17T354 123L345 0H175V1536H360V966Q413 1032 488 1067T663 1102Q767 1102 847 1061T981 947T1063 773T1091 550V529ZM906 550Q906
629 891 700T841 826T752 913T617 945Q569 945 529 933T458 898T402 845T360 778V305Q378 269 402 239T459 185T531 150T619 137Q695 137 749 168T838 254T889 379T906 529V550Z" />
<glyph unicode="c" glyph-name="c" horiz-adv-x="1229" d="M635 130Q685 130 732 146T817 190T876 257T900 341H1075Q1074 269 1038 204T940 89T800 10T635 -20Q512 -20 420 24T267 142T174 314T143 520V562Q143 669 174 767T266 939T420 1058T635 1102Q731 1102
811 1072T950 989T1042 864T1075 710H900Q899 759 879 802T823 879T740 931T635 950Q549 950 491 916T396 826T345 701T329 562V520Q329 449 344 380T395 255T489 165T635 130Z" />
<glyph unicode="d" glyph-name="d" horiz-adv-x="1229" d="M139 550Q139 671 169 772T256 947T393 1061T572 1102Q669 1102 741 1070T867 975V1536H1052V0H882L874 114Q820 48 745 14T570 -20Q472 -20 393 22T257 138T170 312T139 529V550ZM324 529Q324 450 341
379T393 254T484 169T616 137Q663 137 701 148T770 179T825 228T867 292V794Q831 860 770 902T618 945Q540 945 485 913T394 827T341 701T324 550V529Z" />
<glyph unicode="e" glyph-name="e" horiz-adv-x="1229" d="M652 -20Q538 -20 443 19T279 128T173 294T135 503V545Q135 676 177 779T288 954T446 1064T628 1102Q745 1102 832 1062T978 950T1064 781T1093 571V488H320Q323 414 348 349T418 236T525 159T662 131Q761
131 838 171T966 277L1079 189Q1052 148 1012 111T918 44T798 -2T652 -20ZM628 950Q572 950 522 930T432 870T365 773T326 640H908V654Q905 708 888 761T836 856T751 924T628 950Z" />
<glyph unicode="f" glyph-name="f" d="M450 0V939H152V1082H450V1158Q450 1262 480 1340T566 1472T700 1552T874 1579Q940 1579 1002 1568T1131 1540L1109 1387Q1068 1401 1014 1411T897 1422Q767 1421 702 1356T636 1158V1082H1053V939H636V0H450Z" />
<glyph unicode="g" glyph-name="g" horiz-adv-x="1229" d="M140 550Q140 671 169 772T255 947T391 1061T572 1102Q672 1102 747 1067T876 964L885 1082H1053V23Q1053 -84 1020 -167T926 -308T781 -396T595 -426Q553 -426 499 -417T390 -386T283 -328T194 -239L290
-128Q324 -169 360 -197T433 -243T507 -267T581 -275Q647 -275 700 -256T790 -201T848 -110T868 14V107Q814 45 741 13T570 -20Q471 -20 391 22T256 138T170 312T140 529V550ZM325 529Q325 450 341 379T393 254T484 169T616 137Q664 137 702 148T771 181T826 231T868
295V791Q850 825 826 853T771 901T702 933T618 945Q540 945 485 913T394 827T342 701T325 550V529Z" />
<glyph unicode="h" glyph-name="h" horiz-adv-x="1229" d="M359 921Q417 1006 502 1053T693 1102Q778 1102 847 1078T966 1001T1041 870T1068 681V0H883V683Q883 816 820 881T638 945Q549 945 477 902T359 786V0H174V1536H359V921Z" />
<glyph unicode="i" glyph-name="i" horiz-adv-x="1229" d="M203 1082H756V160H1109V0H203V160H571V921H203V1082ZM547 1366Q547 1412 574 1443T658 1475Q713 1475 741 1444T769 1366Q769 1321 741 1291T658 1261Q602 1261 575 1291T547 1366Z" />
<glyph unicode="j" glyph-name="j" horiz-adv-x="1229" d="M299 1082H845V-7Q845 -111 817 -191T734 -325T601 -408T422 -437Q365 -437 316 -434T211 -420L224 -268Q241 -271 267 -273T319 -277T370 -279T409 -280Q461 -280 507 -267T587 -221T640 -137T660 -7V921H299V1082ZM634
1367Q634 1412 661 1443T744 1475Q800 1475 828 1444T856 1367Q856 1322 828 1292T744 1261Q688 1261 661 1291T634 1367Z" />
<glyph unicode="k" glyph-name="k" horiz-adv-x="1229" d="M498 505L362 374V0H176V1536H362V596L483 726L838 1082H1063L625 631L1130 0H895L498 505Z" />
<glyph unicode="l" glyph-name="l" horiz-adv-x="1229" d="M203 1536H756V160H1109V0H203V160H571V1375H203V1536Z" />
<glyph unicode="m" glyph-name="m" horiz-adv-x="1229" d="M259 1082L264 980Q297 1037 350 1069T480 1102Q629 1102 679 986Q711 1038 763 1069T891 1102Q1010 1102 1074 1029T1138 808V0H962V810Q962 946 837 945Q804 945 780 936T740 912T715 876T703 833V0H527V811Q527
876 498 911T406 945Q348 945 316 922T269 861V0H93V1082H259Z" />
<glyph unicode="n" glyph-name="n" horiz-adv-x="1229" d="M340 1082L353 922Q412 1006 498 1053T690 1102Q775 1102 844 1078T963 1003T1038 874T1065 687V0H880V683Q880 755 864 805T817 886T740 931T635 945Q542 945 472 899T359 776V0H174V1082H340Z" />
<glyph unicode="o" glyph-name="o" horiz-adv-x="1229" d="M122 551Q122 668 156 768T253 943T408 1059T613 1102Q728 1102 819 1060T974 943T1072 769T1106 551V529Q1106 412 1072 312T975 138T820 22T615 -20Q500 -20 409 22T254 138T156 312T122 529V551ZM307
529Q307 449 326 377T383 249T480 162T615 130Q691 130 748 162T844 249T902 376T921 529V551Q921 630 902 702T844 830T748 917T613 950Q536 950 479 918T384 830T326 703T307 551V529Z" />
<glyph unicode="p" glyph-name="p" horiz-adv-x="1229" d="M1087 529Q1087 413 1059 313T977 138T844 22T662 -20Q563 -20 488 12T358 104V-416H173V1082H342L351 964Q405 1031 481 1066T659 1102Q763 1102 843 1061T977 947T1059 773T1087 550V529ZM902 550Q902
629 885 700T831 826T738 913T604 945Q515 945 455 904T358 797V276Q394 212 454 172T606 131Q683 131 739 163T831 251T884 378T902 529V550Z" />
<glyph unicode="q" glyph-name="q" horiz-adv-x="1229" d="M140 550Q140 671 169 772T254 947T391 1061T577 1102Q673 1102 746 1070T874 975L882 1082H1052V-416H867V98Q813 41 741 11T575 -20Q472 -20 392 22T255 138T170 312T140 529V550ZM325 529Q325 450
342 378T396 251T487 164T620 131Q709 131 769 171T867 275V809Q848 840 824 865T769 910T702 939T622 950Q545 950 489 917T397 829T343 701T325 550V529Z" />
<glyph unicode="r" glyph-name="r" horiz-adv-x="1229" d="M883 1102Q909 1102 937 1101T990 1096T1037 1087T1073 1076L1048 895Q994 907 946 912T844 918Q714 918 634 859T515 694V0H329V1082H505L514 910Q580 999 672 1050T883 1102Z" />
<glyph unicode="s" glyph-name="s" horiz-adv-x="1229" d="M893 287Q893 320 880 346T836 395T754 435T627 469Q534 488 458 515T327 579T242 667T212 785Q212 851 243 908T330 1009T463 1077T634 1102Q734 1102 814 1076T950 1004T1036 897T1067 764H882Q882
799 864 832T814 892T737 934T634 950Q575 950 531 937T457 902T412 851T397 791Q397 759 409 734T450 689T529 653T655 622Q755 601 834 574T967 508T1049 418T1078 300Q1078 228 1046 169T955 68T816 3T639 -20Q529 -20 443 9T298 87T207 200T175 333H360Q364
276 390 237T456 174T544 140T639 130Q756 130 824 173T893 287Z" />
<glyph unicode="t" glyph-name="t" horiz-adv-x="1229" d="M612 1344V1082H1024V939H612V351Q612 288 628 247T672 182T736 147T814 137Q844 137 876 140T938 149T995 159T1039 169L1065 38Q1042 24 1009 14T937 -4T855 -16T768 -20Q696 -20 634 0T525 65T453
180T426 351V939H142V1082H426V1344H612Z" />
<glyph unicode="u" glyph-name="u" horiz-adv-x="1229" d="M876 149Q822 69 741 25T554 -20Q469 -20 400 6T282 89T207 231T180 439V1082H365V437Q365 349 379 291T421 199T489 150T583 136Q696 136 765 182T869 306V1082H1055V0H887L876 149Z" />
<glyph unicode="v" glyph-name="v" horiz-adv-x="1229" d="M598 266L615 199L633 266L936 1082H1125L684 0H543L98 1082H288L598 266Z" />
<glyph unicode="w" glyph-name="w" horiz-adv-x="1229" d="M338 392L360 237L387 392L560 1082H679L851 392L880 222L907 392L1027 1082H1191L961 0H815L646 663L618 831L591 663L424 0H278L48 1082H212L338 392Z" />
<glyph unicode="x" glyph-name="x" horiz-adv-x="1229" d="M621 681L910 1082H1127L724 547L1138 0H924L625 412L326 0H110L524 547L121 1082H335L621 681Z" />
<glyph unicode="y" glyph-name="y" horiz-adv-x="1229" d="M572 384L620 253L950 1082H1157L608 -167Q589 -209 560 -256T488 -343T390 -410T261 -437Q248 -437 232 -436T200 -432T170 -426T147 -421L177 -270Q184 -270 196 -271T221 -273T246 -274T265 -275Q303
-275 334 -254T390 -204T432 -144T460 -93L534 51L68 1082H275L572 384Z" />
<glyph unicode="z" glyph-name="z" horiz-adv-x="1229" d="M396 151H1085V0H160V136L806 929H169V1082H1049V951L396 151Z" />
<glyph unicode="{" glyph-name="braceleft" horiz-adv-x="1229" d="M978 -366Q913 -364 860 -344T765 -290T693 -211T642 -115T611 -9T601 99V268Q601 412 533 477T323 543V688Q464 688 532 752T601 962V1132Q601 1185 610 1239T638 1345T686 1442T758 1521T854
1575T978 1597L999 1482Q927 1480 885 1448T821 1367T793 1255T787 1132V962Q786 842 731 752T560 614Q676 568 731 478T787 268V99Q787 37 797 -24T831 -135T896 -217T999 -251L978 -366Z" />
<glyph unicode="|" glyph-name="bar" horiz-adv-x="1229" d="M689 -398H540V1456H689V-398Z" />
<glyph unicode="}" glyph-name="braceright" horiz-adv-x="1229" d="M323 -251Q384 -249 425 -217T490 -136T525 -25T536 99V268Q536 387 591 477T762 614Q646 661 591 751T536 962V1132Q536 1193 530 1255T502 1366T438 1448T324 1482L344 1597Q413 1595 467
1575T564 1521T635 1442T684 1346T712 1240T721 1132V962Q721 817 790 753T999 688V543Q859 542 790 477T721 268V99Q721 19 699 -62T631 -211T513 -321T344 -366L323 -251Z" />
<glyph unicode="~" glyph-name="asciitilde" horiz-adv-x="1229" d="M1180 740Q1180 674 1158 613T1096 505T1001 430T879 402Q832 402 792 411T713 438T637 482T559 542Q504 587 454 613T348 639Q313 639 283 625T230 586T195 528T182 456L48 473Q48 539 70 599T131
704T226 775T348 802Q394 802 435 793T516 765T592 721T669 663Q726 615 774 590T879 565Q914 565 944 581T997 623T1033 685T1046 758L1180 740Z" />
<glyph unicode="&#xa1;" glyph-name="exclamdown" horiz-adv-x="1229" d="M522 611H707V-372H522V611ZM728 990Q728 944 699 913T613 881Q556 881 527 912T498 990Q498 1038 527 1070T613 1103Q669 1103 698 1071T728 990Z" />
<glyph unicode="&#xa2;" glyph-name="cent" horiz-adv-x="1229" d="M639 130Q689 130 736 146T821 190T880 257T904 341H1079Q1078 277 1049 219T971 113T857 32T718 -13V-245H533V-10Q437 8 365 57T244 178T172 337T147 520V562Q147 657 171 744T244 903T364
1024T533 1092V1318H718V1096Q798 1084 864 1050T978 964T1052 848T1079 710H904Q903 759 883 802T827 879T744 931T639 950Q553 950 495 916T400 826T349 701T333 562V520Q333 449 348 380T399 255T493 165T639 130Z" />
<glyph unicode="&#xa3;" glyph-name="sterling" horiz-adv-x="1229" d="M463 626L471 400Q471 331 457 265T410 151H1148L1147 0H117V151H192Q219 158 237 186T267 250T282 327T286 400L278 626H113V778H273L264 1039Q264 1141 297 1222T390 1359T531 1446T709
1476Q805 1476 881 1448T1009 1369T1090 1247T1118 1089H932Q932 1152 913 1196T860 1269T783 1311T691 1325Q640 1325 596 1306T519 1250T469 1160T450 1039L458 778H778V626H463Z" />
<glyph unicode="&#xa4;" glyph-name="currency" horiz-adv-x="1229" d="M931 84Q869 34 794 7T634 -20Q549 -20 475 7T338 82L234 -26L103 109L215 224Q177 287 157 360T137 515Q137 601 159 678T223 820L103 944L234 1079L351 957Q411 1001 482 1025T634 1049Q714
1049 786 1025T918 955L1038 1080L1170 944L1046 816Q1086 752 1108 676T1130 515Q1130 435 1110 363T1054 228L1170 109L1038 -27L931 84ZM309 515Q309 441 334 375T402 260T505 181T634 151Q703 151 762 180T864 259T932 375T957 515Q957 589 933 655T865 770T762
849T634 878Q565 878 506 849T403 771T334 655T309 515Z" />
<glyph unicode="&#xa5;" glyph-name="yen" horiz-adv-x="1229" d="M614 779L983 1456H1195L774 736H1092V615H704L703 613V446H1092V326H703V0H518V326H138V446H518V615H138V736H454L33 1456H245L614 779Z" />
<glyph unicode="&#xa6;" glyph-name="brokenbar" horiz-adv-x="1229" d="M511 -270V521H696V-270H511ZM696 698H511V1456H696V698Z" />
<glyph unicode="&#xa7;" glyph-name="section" horiz-adv-x="1229" d="M1140 431Q1140 334 1091 265T954 156Q1023 108 1059 40T1096 -128Q1096 -216 1061 -284T961 -399T807 -470T608 -495Q510 -495 417 -473T250 -400T132 -267T87 -64L272 -62Q272 -140 302
-193T380 -280T488 -328T608 -343Q678 -343 734 -327T829 -283T890 -216T911 -130Q911 -82 892 -47T831 16T723 71T560 126Q454 155 368 189T220 273T126 389T93 551Q93 645 141 714T275 825Q209 874 174 942T138 1110Q138 1194 173 1261T273 1377T427 1450T626
1476Q740 1476 831 1448T985 1365T1083 1230T1118 1045H933Q933 1103 913 1154T853 1243T757 1303T626 1325Q551 1325 495 1309T400 1264T342 1196T323 1112Q323 1060 340 1024T397 960T505 907T672 854Q780 824 866 789T1014 706T1107 592T1140 431ZM598 691Q553
703 513 715T435 742Q357 724 318 674T278 553Q278 500 296 463T355 397T464 342T632 289Q676 276 716 264T793 238Q869 258 912 307T956 428Q956 476 936 512T873 579T762 635T598 691Z" />
<glyph unicode="&#xa8;" glyph-name="dieresis" horiz-adv-x="1229" d="M287 1371Q287 1416 314 1446T396 1477Q450 1477 478 1447T506 1371Q506 1326 478 1296T396 1266Q342 1266 315 1296T287 1371ZM717 1369Q717 1414 744 1445T826 1476Q880 1476 908 1445T936
1369Q936 1325 908 1295T826 1264Q772 1264 745 1294T717 1369Z" />
<glyph unicode="&#xa9;" glyph-name="copyright" horiz-adv-x="1229" d="M862 443Q862 327 797 268T613 208Q551 208 503 230T422 290T371 382T353 498V585Q353 647 371 700T422 793T503 854T613 876Q731 876 797 816T863 641H753Q752 712 719 745T613 778Q575
778 547 763T499 723T471 662T462 586V498Q462 457 471 422T499 361T546 320T613 305Q685 305 718 338T752 443H862ZM177 542Q177 444 211 358T305 207T446 105T623 68Q717 68 798 105T940 207T1034 358T1068 542Q1068 639 1034 724T940 874T799 974T623 1011Q528
1011 447 975T305 874T211 725T177 542ZM90 542Q90 620 108 691T161 825T243 939T351 1026T479 1082T623 1102Q736 1102 833 1058T1001 939T1114 761T1155 542Q1155 425 1114 323T1002 144T833 23T623 -21Q510 -21 413 23T244 143T131 322T90 542Z" />
<glyph unicode="&#xaa;" glyph-name="ordfeminine" horiz-adv-x="1229" d="M780 705Q765 749 759 802Q729 759 673 726T533 691Q415 691 350 752T284 918Q284 1030 370 1089T615 1149H756V1201Q755 1266 724 1301T630 1336Q563 1336 523 1310T481 1231L320 1243Q321
1294 343 1337T406 1411T504 1459T630 1476Q695 1476 748 1459T839 1407T898 1320T919 1200V886Q919 838 925 794T945 705H780ZM572 828Q599 828 628 836T683 859T728 892T756 928V1037H616Q537 1037 492 1004T446 922Q446 877 478 853T572 828Z" />
<glyph unicode="&#xab;" glyph-name="guillemotleft" horiz-adv-x="1229" d="M390 515L648 118H507L212 506V525L507 914H648L390 515ZM725 515L983 118H842L547 506V525L842 914H983L725 515Z" />
<glyph unicode="&#xac;" glyph-name="logicalnot" horiz-adv-x="1229" d="M1019 375H834V639H189V800H1019V375Z" />
<glyph unicode="&#xad;" glyph-name="uni00AD" d="M983 561H218V713H983V561Z" />
<glyph unicode="&#xae;" glyph-name="registered" horiz-adv-x="1229" d="M87 540Q87 657 128 759T240 938T409 1057T620 1101Q733 1101 830 1058T998 938T1111 760T1152 540Q1152 423 1111 321T999 143T830 23T620 -21Q507 -21 410 23T241 142T128 320T87 540ZM174
540Q174 442 208 357T302 207T443 106T620 69Q714 69 795 106T937 207T1031 356T1065 540Q1065 638 1031 724T937 873T796 973T620 1010Q525 1010 444 974T302 874T208 724T174 540ZM508 485V232H401V867H612Q667 867 711 855T786 819T835 759T852 675Q852 619
817 580T716 519L863 232H753L633 485H508ZM508 582H627Q675 583 710 606T745 671Q745 726 715 748T612 770H508V582Z" />
<glyph unicode="&#xaf;" glyph-name="macron" horiz-adv-x="1229" d="M971 1313H257V1456H971V1313Z" />
<glyph unicode="&#xb0;" glyph-name="degree" horiz-adv-x="1229" d="M361 1216Q361 1269 381 1316T436 1399T517 1455T616 1476Q667 1476 712 1456T792 1400T846 1317T866 1216Q866 1163 846 1116T792 1035T713 980T616 960Q564 960 518 980T437 1034T382 1115T361
1216ZM485 1216Q485 1189 495 1166T523 1125T565 1098T616 1088Q643 1088 666 1097T706 1124T733 1165T743 1216Q743 1244 734 1268T707 1311T666 1339T616 1349Q589 1349 565 1339T524 1311T496 1269T485 1216Z" />
<glyph unicode="&#xb1;" glyph-name="plusminus" horiz-adv-x="1229" d="M709 855H1072V703H709V289H541V703H156V855H541V1267H709V855ZM1030 1H195V152H1030V1Z" />
<glyph unicode="&#xb2;" glyph-name="twosuperior" horiz-adv-x="1229" d="M934 667H335V775L623 1046Q688 1106 716 1149T744 1228Q744 1277 711 1307T620 1338Q546 1338 511 1301T474 1205H316Q316 1259 337 1307T397 1390T491 1446T616 1467Q682 1467 735 1451T825
1403T882 1329T902 1230Q902 1190 889 1155T850 1085T789 1015T710 940L535 795H934V667Z" />
<glyph unicode="&#xb3;" glyph-name="threesuperior" horiz-adv-x="1229" d="M526 1125H610Q680 1125 718 1154T756 1234Q756 1279 723 1308T623 1337Q566 1337 529 1313T491 1245H334Q334 1296 356 1337T417 1406T508 1450T620 1466Q684 1466 738 1452T831 1409T891
1338T913 1241Q913 1185 878 1140T777 1070Q927 1028 927 886Q927 830 904 787T839 715T741 671T621 655Q564 655 511 668T416 710T349 783T323 888H481Q482 842 521 813T626 783Q694 783 732 813T769 894Q769 957 726 983T610 1009H526V1125Z" />
<glyph unicode="&#xb4;" glyph-name="acute" horiz-adv-x="1229" d="M594 1481H818L550 1215H410L594 1481Z" />
<glyph unicode="&#xb5;" glyph-name="mu" horiz-adv-x="1229" d="M373 1082V460Q373 360 389 296T434 195T504 144T593 130Q700 130 762 171T854 283V1082H1040V0H873L864 116Q820 51 756 16T601 -20Q455 -20 373 53V-416H188V1082H373Z" />
<glyph unicode="&#xb6;" glyph-name="paragraph" horiz-adv-x="1229" d="M790 0V520H703Q585 520 494 555T339 652T244 800T211 988Q211 1089 243 1174T339 1322T493 1420T703 1456H976V0H790Z" />
<glyph unicode="&#xb7;" glyph-name="periodcentered" horiz-adv-x="1229" d="M504 729Q504 777 533 809T619 841Q675 841 704 809T734 729Q734 682 705 651T619 619Q562 619 533 650T504 729Z" />
<glyph unicode="&#xb8;" glyph-name="cedilla" horiz-adv-x="1229" d="M630 0L618 -52Q647 -57 674 -69T723 -101T758 -151T771 -225Q771 -322 692 -378T468 -435L461 -328Q495 -328 525 -323T577 -305T613 -275T627 -229Q627 -204 617 -187T587 -160T536 -143T466
-134L497 0H630Z" />
<glyph unicode="&#xb9;" glyph-name="onesuperior" horiz-adv-x="1229" d="M758 665H601V1266L386 1209V1337L740 1454H758V665Z" />
<glyph unicode="&#xba;" glyph-name="ordmasculine" horiz-adv-x="1229" d="M272 1141Q272 1214 296 1275T364 1381T472 1451T614 1476Q693 1476 756 1451T864 1382T932 1276T956 1141V1024Q956 952 933 891T865 785T758 715T616 690Q536 690 473 715T365 784T296
890T272 1024V1141ZM435 1024Q435 982 446 947T479 885T536 844T616 829Q660 829 693 844T749 885T782 946T794 1024V1141Q794 1182 783 1217T749 1279T693 1321T614 1336Q569 1336 536 1321T480 1280T446 1218T435 1141V1024Z" />
<glyph unicode="&#xbb;" glyph-name="guillemotright" horiz-adv-x="1229" d="M383 949L677 560V541L383 152H241L499 550L241 949H383ZM728 949L1022 560V541L728 152H586L844 550L586 949H728Z" />
<glyph unicode="&#xbc;" glyph-name="onequarter" horiz-adv-x="1229" d="M383 751H242V1292L48 1241V1356L367 1461H383V751ZM658 221L545 287L1058 1241L1172 1175L658 221ZM1068 269H1164V152H1068V0H927V152H589L584 244L923 710H1068V269ZM726 269H927V529L912
504L726 269Z" />
<glyph unicode="&#xbd;" glyph-name="onehalf" horiz-adv-x="1229" d="M598 221L485 287L998 1241L1112 1175L598 221ZM371 747H230V1288L36 1237V1352L355 1457H371V747ZM1174 0H635V97L894 341Q952 395 977 434T1003 505Q1003 549 973 576T891 604Q825 604 793
570T760 484H618Q618 533 636 576T690 651T776 701T888 720Q947 720 994 705T1075 663T1127 596T1145 507Q1145 471 1133 439T1098 376T1043 313T972 246L815 115H1174V0Z" />
<glyph unicode="&#xbe;" glyph-name="threequarters" horiz-adv-x="1229" d="M469 220L356 286L869 1240L983 1174L469 220ZM1101 269H1197V152H1101V0H960V152H622L617 244L956 710H1101V269ZM759 269H960V529L945 504L759 269ZM221 1157H296Q359 1157 393 1183T428
1255Q428 1296 398 1322T308 1348Q257 1348 224 1327T189 1265H48Q48 1311 68 1348T123 1410T204 1450T305 1464Q363 1464 411 1451T495 1413T549 1349T569 1262Q569 1211 537 1171T446 1108Q581 1070 581 942Q581 892 560 853T502 788T414 748T306 734Q255 734
207 746T121 784T61 849T38 944H180Q181 902 216 876T311 849Q372 849 406 876T439 949Q439 1006 400 1029T296 1053H221V1157Z" />
<glyph unicode="&#xbf;" glyph-name="questiondown" horiz-adv-x="1229" d="M724 673Q723 602 719 556T699 474T655 405T576 326Q545 291 512 254T452 175T407 89T389 -7Q389 -116 447 -173T614 -231Q657 -231 697 -220T769 -184T820 -122T839 -32H1024Q1023 -116
992 -183T905 -296T776 -367T614 -392Q517 -392 441 -367T312 -292T232 -173T204 -13Q204 59 227 123T287 243T369 349T460 442Q489 471 505 496T528 547T537 604T539 673H724ZM509 988Q509 1036 538 1068T624 1101Q681 1101 710 1069T739 988Q739 942 710 911T624
879Q567 879 538 910T509 988Z" />
<glyph unicode="&#xc0;" glyph-name="Agrave" horiz-adv-x="1229" d="M869 377H383L266 0H81L551 1456H706L1168 0H984L869 377ZM433 538H820L628 1170L433 538ZM710 1561H560L312 1827H535L710 1561Z" />
<glyph unicode="&#xc1;" glyph-name="Aacute" horiz-adv-x="1229" d="M869 377H383L266 0H81L551 1456H706L1168 0H984L869 377ZM433 538H820L628 1170L433 538ZM727 1824H951L683 1558H543L727 1824Z" />
<glyph unicode="&#xc2;" glyph-name="Acircumflex" horiz-adv-x="1229" d="M869 377H383L266 0H81L551 1456H706L1168 0H984L869 377ZM433 538H820L628 1170L433 538ZM933 1624V1599H779L629 1750L480 1599H328V1625L573 1864H685L933 1624Z" />
<glyph unicode="&#xc3;" glyph-name="Atilde" horiz-adv-x="1229" d="M869 377H383L266 0H81L551 1456H706L1168 0H984L869 377ZM433 538H820L628 1170L433 538ZM973 1844Q973 1799 958 1758T915 1687T850 1638T767 1620Q734 1620 708 1627T661 1644T620 1667T582
1690T540 1708T491 1715Q447 1715 419 1683T389 1604L285 1628Q285 1673 300 1714T343 1787T407 1838T491 1857Q533 1857 566 1842T631 1810T695 1777T767 1762Q788 1762 807 1771T839 1795T861 1830T870 1874L973 1844Z" />
<glyph unicode="&#xc4;" glyph-name="Adieresis" horiz-adv-x="1229" d="M869 377H383L266 0H81L551 1456H706L1168 0H984L869 377ZM433 538H820L628 1170L433 538ZM302 1718Q302 1763 329 1793T411 1824Q465 1824 493 1794T521 1718Q521 1673 493 1643T411 1613Q357
1613 330 1643T302 1718ZM732 1716Q732 1761 759 1792T841 1823Q895 1823 923 1792T951 1716Q951 1672 923 1642T841 1611Q787 1611 760 1641T732 1716Z" />
<glyph unicode="&#xc5;" glyph-name="Aring" horiz-adv-x="1229" d="M869 377H383L266 0H81L551 1456H706L1168 0H984L869 377ZM433 538H820L628 1170L433 538ZM424 1732Q424 1775 440 1811T484 1874T549 1916T629 1931Q671 1931 707 1916T771 1875T815 1812T831
1732Q831 1689 815 1653T772 1592T708 1552T629 1538Q587 1538 550 1552T485 1591T441 1653T424 1732ZM523 1732Q523 1710 531 1691T554 1658T588 1635T629 1627Q651 1627 669 1635T702 1657T724 1690T732 1732Q732 1780 703 1810T629 1841Q585 1841 554 1811T523
1732Z" />
<glyph unicode="&#xc6;" glyph-name="AE" horiz-adv-x="1229" d="M1195 0H664L663 353H353L230 0H32L592 1456H1172V1304H835L837 833H1139V682H837L838 151H1195V0ZM414 527H663L661 1233L414 527Z" />
<glyph unicode="&#xc7;" glyph-name="Ccedilla" horiz-adv-x="1229" d="M1117 438Q1104 337 1065 253T964 108T816 14T625 -20Q535 -20 462 5T331 76T232 182T163 315T122 466T107 626V829Q108 910 121 989T162 1140T231 1273T330 1380T461 1450T625 1476Q734
1476 820 1443T968 1348T1067 1200T1117 1010H932Q923 1076 901 1133T842 1233T752 1300T625 1325Q559 1325 509 1304T422 1245T361 1159T321 1055T300 943T293 831V626Q293 572 299 515T321 402T360 297T421 211T508 152T625 130Q698 130 751 153T842 217T901
315T932 438H1117ZM684 0L672 -52Q701 -57 728 -69T777 -101T812 -151T825 -225Q825 -322 746 -378T522 -435L515 -328Q549 -328 579 -323T631 -305T667 -275T681 -229Q681 -204 671 -187T641 -160T590 -143T520 -134L551 0H684Z" />
<glyph unicode="&#xc8;" glyph-name="Egrave" horiz-adv-x="1229" d="M975 673H367V157H1076V0H182V1456H1067V1298H367V830H975V673ZM700 1561H550L302 1827H525L700 1561Z" />
<glyph unicode="&#xc9;" glyph-name="Eacute" horiz-adv-x="1229" d="M975 673H367V157H1076V0H182V1456H1067V1298H367V830H975V673ZM717 1824H941L673 1558H533L717 1824Z" />
<glyph unicode="&#xca;" glyph-name="Ecircumflex" horiz-adv-x="1229" d="M975 673H367V157H1076V0H182V1456H1067V1298H367V830H975V673ZM923 1624V1599H769L619 1750L470 1599H318V1625L563 1864H675L923 1624Z" />
<glyph unicode="&#xcb;" glyph-name="Edieresis" horiz-adv-x="1229" d="M975 673H367V157H1076V0H182V1456H1067V1298H367V830H975V673ZM292 1718Q292 1763 319 1793T401 1824Q455 1824 483 1794T511 1718Q511 1673 483 1643T401 1613Q347 1613 320 1643T292
1718ZM722 1716Q722 1761 749 1792T831 1823Q885 1823 913 1792T941 1716Q941 1672 913 1642T831 1611Q777 1611 750 1641T722 1716Z" />
<glyph unicode="&#xcc;" glyph-name="Igrave" horiz-adv-x="1229" d="M174 1456H1054V1295H705V160H1054V0H174V160H515V1295H174V1456ZM648 1561H498L250 1827H473L648 1561Z" />
<glyph unicode="&#xcd;" glyph-name="Iacute" horiz-adv-x="1229" d="M174 1456H1054V1295H705V160H1054V0H174V160H515V1295H174V1456ZM665 1824H889L621 1558H481L665 1824Z" />
<glyph unicode="&#xce;" glyph-name="Icircumflex" horiz-adv-x="1229" d="M174 1456H1054V1295H705V160H1054V0H174V160H515V1295H174V1456ZM871 1624V1599H717L567 1750L418 1599H266V1625L511 1864H623L871 1624Z" />
<glyph unicode="&#xcf;" glyph-name="Idieresis" horiz-adv-x="1229" d="M174 1456H1054V1295H705V160H1054V0H174V160H515V1295H174V1456ZM241 1718Q241 1763 268 1793T350 1824Q404 1824 432 1794T460 1718Q460 1673 432 1643T350 1613Q296 1613 269 1643T241
1718ZM671 1716Q671 1761 698 1792T780 1823Q834 1823 862 1792T890 1716Q890 1672 862 1642T780 1611Q726 1611 699 1641T671 1716Z" />
<glyph unicode="&#xd0;" glyph-name="Eth" horiz-adv-x="1259" d="M185 0V666H-44V817H185V1456H522Q674 1454 793 1405T995 1267T1121 1055T1166 781V674Q1165 524 1122 401T996 189T794 51T522 0H185ZM593 666H373V151H522Q640 152 726 192T868 303T952 468T981
674V783Q980 894 952 988T868 1152T726 1262T522 1304H373V817H593V666Z" />
<glyph unicode="&#xd1;" glyph-name="Ntilde" horiz-adv-x="1229" d="M1086 0H898L333 1088L330 0H143V1456H331L896 370L899 1456H1086V0ZM934 1844Q934 1799 919 1758T876 1687T811 1638T728 1620Q695 1620 669 1627T622 1644T581 1667T543 1690T501 1708T452
1715Q408 1715 380 1683T350 1604L246 1628Q246 1673 261 1714T304 1787T368 1838T452 1857Q494 1857 527 1842T592 1810T656 1777T728 1762Q749 1762 768 1771T800 1795T822 1830T831 1874L934 1844Z" />
<glyph unicode="&#xd2;" glyph-name="Ograve" horiz-adv-x="1229" d="M1121 644Q1120 566 1108 487T1069 333T1003 195T906 83T778 8T615 -20Q525 -20 453 7T324 83T227 195T160 334T120 487T106 644V810Q107 888 119 967T158 1121T225 1259T322 1372T450 1448T613
1476Q703 1476 776 1449T905 1373T1001 1261T1068 1122T1107 968T1121 810V644ZM938 812Q937 864 931 920T911 1032T872 1138T812 1227T727 1288T613 1311Q549 1311 500 1288T415 1227T355 1138T317 1032T296 920T288 812V644Q289 593 295 536T317 424T356 317T416
228T501 166T615 143Q680 143 729 166T814 227T873 316T911 422T931 535T938 644V812ZM714 1582H564L316 1848H539L714 1582Z" />
<glyph unicode="&#xd3;" glyph-name="Oacute" horiz-adv-x="1229" d="M1121 644Q1120 566 1108 487T1069 333T1003 195T906 83T778 8T615 -20Q525 -20 453 7T324 83T227 195T160 334T120 487T106 644V810Q107 888 119 967T158 1121T225 1259T322 1372T450 1448T613
1476Q703 1476 776 1449T905 1373T1001 1261T1068 1122T1107 968T1121 810V644ZM938 812Q937 864 931 920T911 1032T872 1138T812 1227T727 1288T613 1311Q549 1311 500 1288T415 1227T355 1138T317 1032T296 920T288 812V644Q289 593 295 536T317 424T356 317T416
228T501 166T615 143Q680 143 729 166T814 227T873 316T911 422T931 535T938 644V812ZM731 1845H955L687 1579H547L731 1845Z" />
<glyph unicode="&#xd4;" glyph-name="Ocircumflex" horiz-adv-x="1229" d="M1121 644Q1120 566 1108 487T1069 333T1003 195T906 83T778 8T615 -20Q525 -20 453 7T324 83T227 195T160 334T120 487T106 644V810Q107 888 119 967T158 1121T225 1259T322 1372T450
1448T613 1476Q703 1476 776 1449T905 1373T1001 1261T1068 1122T1107 968T1121 810V644ZM938 812Q937 864 931 920T911 1032T872 1138T812 1227T727 1288T613 1311Q549 1311 500 1288T415 1227T355 1138T317 1032T296 920T288 812V644Q289 593 295 536T317 424T356
317T416 228T501 166T615 143Q680 143 729 166T814 227T873 316T911 422T931 535T938 644V812ZM937 1645V1620H783L633 1771L484 1620H332V1646L577 1885H689L937 1645Z" />
<glyph unicode="&#xd5;" glyph-name="Otilde" horiz-adv-x="1229" d="M1121 644Q1120 566 1108 487T1069 333T1003 195T906 83T778 8T615 -20Q525 -20 453 7T324 83T227 195T160 334T120 487T106 644V810Q107 888 119 967T158 1121T225 1259T322 1372T450 1448T613
1476Q703 1476 776 1449T905 1373T1001 1261T1068 1122T1107 968T1121 810V644ZM938 812Q937 864 931 920T911 1032T872 1138T812 1227T727 1288T613 1311Q549 1311 500 1288T415 1227T355 1138T317 1032T296 920T288 812V644Q289 593 295 536T317 424T356 317T416
228T501 166T615 143Q680 143 729 166T814 227T873 316T911 422T931 535T938 644V812ZM977 1865Q977 1820 962 1779T919 1708T854 1659T771 1641Q738 1641 712 1648T665 1665T624 1688T586 1711T544 1729T495 1736Q451 1736 423 1704T393 1625L289 1649Q289 1694
304 1735T347 1808T411 1859T495 1878Q537 1878 570 1863T635 1831T699 1798T771 1783Q792 1783 811 1792T843 1816T865 1851T874 1895L977 1865Z" />
<glyph unicode="&#xd6;" glyph-name="Odieresis" horiz-adv-x="1229" d="M1121 644Q1120 566 1108 487T1069 333T1003 195T906 83T778 8T615 -20Q525 -20 453 7T324 83T227 195T160 334T120 487T106 644V810Q107 888 119 967T158 1121T225 1259T322 1372T450 1448T613
1476Q703 1476 776 1449T905 1373T1001 1261T1068 1122T1107 968T1121 810V644ZM938 812Q937 864 931 920T911 1032T872 1138T812 1227T727 1288T613 1311Q549 1311 500 1288T415 1227T355 1138T317 1032T296 920T288 812V644Q289 593 295 536T317 424T356 317T416
228T501 166T615 143Q680 143 729 166T814 227T873 316T911 422T931 535T938 644V812ZM306 1739Q306 1784 333 1814T415 1845Q469 1845 497 1815T525 1739Q525 1694 497 1664T415 1634Q361 1634 334 1664T306 1739ZM736 1737Q736 1782 763 1813T845 1844Q899 1844
927 1813T955 1737Q955 1693 927 1663T845 1632Q791 1632 764 1662T736 1737Z" />
<glyph unicode="&#xd7;" glyph-name="multiply" horiz-adv-x="1229" d="M181 329L511 666L184 1000L303 1123L631 788L960 1123L1079 1000L751 666L1082 329L963 206L631 543L300 206L181 329Z" />
<glyph unicode="&#xd8;" glyph-name="Oslash" horiz-adv-x="1229" d="M1113 644Q1112 566 1100 487T1061 333T995 195T898 83T770 8T607 -20Q516 -20 445 7T317 83L213 -93H71L231 177Q197 226 172 282T131 398T106 520T98 644V810Q99 888 111 967T150 1121T217
1259T314 1372T442 1448T605 1476Q707 1476 785 1442T923 1348L1022 1516H1164L1003 1244Q1031 1197 1051 1145T1085 1037T1105 924T1113 810V644ZM280 644Q281 575 292 498T333 350L831 1193Q794 1246 739 1278T605 1311Q541 1311 492 1288T407 1227T347 1138T309
1032T288 920T280 812V644ZM930 812Q929 870 922 934T895 1061L404 231Q441 190 491 167T607 143Q672 143 721 166T806 227T865 316T903 422T923 535T930 644V812Z" />
<glyph unicode="&#xd9;" glyph-name="Ugrave" horiz-adv-x="1229" d="M1088 1456L1090 470Q1088 368 1053 279T955 124T805 19T614 -20Q508 -20 421 18T272 122T175 278T139 470L141 1456H317L321 470Q322 405 341 345T397 239T488 165T614 137Q685 137 739 164T829
238T885 345T906 470L909 1456H1088ZM740 1549H590L342 1815H565L740 1549Z" />
<glyph unicode="&#xda;" glyph-name="Uacute" horiz-adv-x="1229" d="M1088 1456L1090 470Q1088 368 1053 279T955 124T805 19T614 -20Q508 -20 421 18T272 122T175 278T139 470L141 1456H317L321 470Q322 405 341 345T397 239T488 165T614 137Q685 137 739 164T829
238T885 345T906 470L909 1456H1088ZM757 1812H981L713 1546H573L757 1812Z" />
<glyph unicode="&#xdb;" glyph-name="Ucircumflex" horiz-adv-x="1229" d="M1088 1456L1090 470Q1088 368 1053 279T955 124T805 19T614 -20Q508 -20 421 18T272 122T175 278T139 470L141 1456H317L321 470Q322 405 341 345T397 239T488 165T614 137Q685 137 739
164T829 238T885 345T906 470L909 1456H1088ZM963 1612V1587H809L659 1738L510 1587H358V1613L603 1852H715L963 1612Z" />
<glyph unicode="&#xdc;" glyph-name="Udieresis" horiz-adv-x="1229" d="M1088 1456L1090 470Q1088 368 1053 279T955 124T805 19T614 -20Q508 -20 421 18T272 122T175 278T139 470L141 1456H317L321 470Q322 405 341 345T397 239T488 165T614 137Q685 137 739
164T829 238T885 345T906 470L909 1456H1088ZM332 1706Q332 1751 359 1781T441 1812Q495 1812 523 1782T551 1706Q551 1661 523 1631T441 1601Q387 1601 360 1631T332 1706ZM762 1704Q762 1749 789 1780T871 1811Q925 1811 953 1780T981 1704Q981 1660 953 1630T871
1599Q817 1599 790 1629T762 1704Z" />
<glyph unicode="&#xdd;" glyph-name="Yacute" horiz-adv-x="1229" d="M603 725L935 1456H1145L692 543L689 0H517L514 543L61 1456H272L603 725ZM707 1823H931L663 1557H523L707 1823Z" />
<glyph unicode="&#xde;" glyph-name="Thorn" horiz-adv-x="1229" d="M353 1456V1163H630Q747 1163 837 1132T990 1044T1085 909T1118 738Q1118 645 1086 567T991 433T838 345T630 313H353V0H168V1456H353ZM353 1011V465H630Q708 465 765 487T859 547T915 634T933
736Q933 790 915 839T860 927T766 988T630 1011H353Z" />
<glyph unicode="&#xdf;" glyph-name="germandbls" horiz-adv-x="1229" d="M353 0H169V1087Q169 1199 198 1287T280 1435T405 1526T562 1558Q637 1558 702 1538T816 1475T893 1370T921 1220Q921 1141 901 1088T857 992T814 912T794 823Q794 777 816 740T873 668T947
598T1021 522T1077 431T1100 316Q1100 231 1075 168T1003 63T894 0T754 -21Q713 -21 669 -16T585 -1T510 22T456 51L498 206Q516 195 542 182T600 157T666 138T735 130Q782 130 816 143T872 181T904 237T915 307Q915 354 893 392T836 465T762 535T688 612T631 705T608
825Q608 864 618 897T643 959T677 1016T710 1073T736 1134T746 1204Q746 1254 731 1291T692 1354T636 1393T572 1406Q473 1406 414 1324T353 1087V0Z" />
<glyph unicode="&#xe0;" glyph-name="agrave" horiz-adv-x="1229" d="M885 0Q874 21 868 52T858 118Q830 90 796 65T720 21T631 -9T531 -20Q445 -20 376 5T258 72T183 173T156 300Q156 389 191 456T292 567T448 634T653 656H855V741Q855 790 837 829T786 895T706
938T599 953Q544 953 501 939T427 902T381 848T364 782H178Q179 841 208 898T293 1000T428 1074T609 1102Q701 1102 780 1080T916 1012T1007 898T1040 739V236Q1040 182 1050 122T1078 16V0H885ZM558 141Q612 141 659 155T744 192T811 244T855 306V525H683Q521
525 431 477T341 326Q341 286 354 252T395 194T463 155T558 141ZM962 1239H812L564 1505H787L962 1239Z" />
<glyph unicode="&#xe1;" glyph-name="aacute" horiz-adv-x="1229" d="M885 0Q874 21 868 52T858 118Q830 90 796 65T720 21T631 -9T531 -20Q445 -20 376 5T258 72T183 173T156 300Q156 389 191 456T292 567T448 634T653 656H855V741Q855 790 837 829T786 895T706
938T599 953Q544 953 501 939T427 902T381 848T364 782H178Q179 841 208 898T293 1000T428 1074T609 1102Q701 1102 780 1080T916 1012T1007 898T1040 739V236Q1040 182 1050 122T1078 16V0H885ZM558 141Q612 141 659 155T744 192T811 244T855 306V525H683Q521
525 431 477T341 326Q341 286 354 252T395 194T463 155T558 141ZM723 1502H947L679 1236H539L723 1502Z" />
<glyph unicode="&#xe2;" glyph-name="acircumflex" horiz-adv-x="1229" d="M885 0Q874 21 868 52T858 118Q830 90 796 65T720 21T631 -9T531 -20Q445 -20 376 5T258 72T183 173T156 300Q156 389 191 456T292 567T448 634T653 656H855V741Q855 790 837 829T786
895T706 938T599 953Q544 953 501 939T427 902T381 848T364 782H178Q179 841 208 898T293 1000T428 1074T609 1102Q701 1102 780 1080T916 1012T1007 898T1040 739V236Q1040 182 1050 122T1078 16V0H885ZM558 141Q612 141 659 155T744 192T811 244T855 306V525H683Q521
525 431 477T341 326Q341 286 354 252T395 194T463 155T558 141ZM929 1302V1277H775L625 1428L476 1277H324V1303L569 1542H681L929 1302Z" />
<glyph unicode="&#xe3;" glyph-name="atilde" horiz-adv-x="1229" d="M885 0Q874 21 868 52T858 118Q830 90 796 65T720 21T631 -9T531 -20Q445 -20 376 5T258 72T183 173T156 300Q156 389 191 456T292 567T448 634T653 656H855V741Q855 790 837 829T786 895T706
938T599 953Q544 953 501 939T427 902T381 848T364 782H178Q179 841 208 898T293 1000T428 1074T609 1102Q701 1102 780 1080T916 1012T1007 898T1040 739V236Q1040 182 1050 122T1078 16V0H885ZM558 141Q612 141 659 155T744 192T811 244T855 306V525H683Q521
525 431 477T341 326Q341 286 354 252T395 194T463 155T558 141ZM969 1522Q969 1477 954 1436T911 1365T846 1316T763 1298Q730 1298 704 1305T657 1322T616 1345T578 1368T536 1386T487 1393Q443 1393 415 1361T385 1282L281 1306Q281 1351 296 1392T339 1465T403
1516T487 1535Q529 1535 562 1520T627 1488T691 1455T763 1440Q784 1440 803 1449T835 1473T857 1508T866 1552L969 1522Z" />
<glyph unicode="&#xe4;" glyph-name="adieresis" horiz-adv-x="1229" d="M885 0Q874 21 868 52T858 118Q830 90 796 65T720 21T631 -9T531 -20Q445 -20 376 5T258 72T183 173T156 300Q156 389 191 456T292 567T448 634T653 656H855V741Q855 790 837 829T786 895T706
938T599 953Q544 953 501 939T427 902T381 848T364 782H178Q179 841 208 898T293 1000T428 1074T609 1102Q701 1102 780 1080T916 1012T1007 898T1040 739V236Q1040 182 1050 122T1078 16V0H885ZM558 141Q612 141 659 155T744 192T811 244T855 306V525H683Q521
525 431 477T341 326Q341 286 354 252T395 194T463 155T558 141ZM298 1396Q298 1441 325 1471T407 1502Q461 1502 489 1472T517 1396Q517 1351 489 1321T407 1291Q353 1291 326 1321T298 1396ZM728 1394Q728 1439 755 1470T837 1501Q891 1501 919 1470T947 1394Q947
1350 919 1320T837 1289Q783 1289 756 1319T728 1394Z" />
<glyph unicode="&#xe5;" glyph-name="aring" horiz-adv-x="1229" d="M885 0Q874 21 868 52T858 118Q830 90 796 65T720 21T631 -9T531 -20Q445 -20 376 5T258 72T183 173T156 300Q156 389 191 456T292 567T448 634T653 656H855V741Q855 790 837 829T786 895T706
938T599 953Q544 953 501 939T427 902T381 848T364 782H178Q179 841 208 898T293 1000T428 1074T609 1102Q701 1102 780 1080T916 1012T1007 898T1040 739V236Q1040 182 1050 122T1078 16V0H885ZM558 141Q612 141 659 155T744 192T811 244T855 306V525H683Q521
525 431 477T341 326Q341 286 354 252T395 194T463 155T558 141ZM420 1410Q420 1453 436 1489T480 1552T545 1594T625 1609Q667 1609 703 1594T767 1553T811 1490T827 1410Q827 1367 811 1331T768 1270T704 1230T625 1216Q583 1216 546 1230T481 1269T437 1331T420
1410ZM519 1410Q519 1388 527 1369T550 1336T584 1313T625 1305Q647 1305 665 1313T698 1335T720 1368T728 1410Q728 1458 699 1488T625 1519Q581 1519 550 1489T519 1410Z" />
<glyph unicode="&#xe6;" glyph-name="ae" horiz-adv-x="1229" d="M896 -20Q793 -20 719 17T599 126Q580 97 555 71T496 24T423 -8T335 -20Q264 -20 210 2T119 63T63 159T43 285Q43 451 147 543T448 635H511V783Q511 859 480 904T381 950Q318 950 279 909T240 792L61
800Q61 869 83 924T147 1019T248 1080T379 1102Q462 1102 524 1075T626 995Q669 1046 728 1074T862 1102Q943 1102 1004 1076T1108 1001T1171 884T1193 731V497H688V411Q688 345 701 293T744 205T820 150T932 130Q970 130 999 137T1052 154T1095 177T1130 200L1176
64Q1163 54 1140 40T1083 12T1002 -10T896 -20ZM862 950Q817 950 785 931T731 878T700 801T688 709V640H1017V768Q1017 803 1007 835T977 893T928 934T862 950ZM371 130Q408 130 446 151T512 202L511 495H450Q397 495 355 478T284 431T240 363T224 281Q224 250
233 223T261 175T307 142T371 130Z" />
<glyph unicode="&#xe7;" glyph-name="ccedilla" horiz-adv-x="1229" d="M635 130Q685 130 732 146T817 190T876 257T900 341H1075Q1074 269 1038 204T940 89T800 10T635 -20Q512 -20 420 24T267 142T174 314T143 520V562Q143 669 174 767T266 939T420 1058T635
1102Q731 1102 811 1072T950 989T1042 864T1075 710H900Q899 759 879 802T823 879T740 931T635 950Q549 950 491 916T396 826T345 701T329 562V520Q329 449 344 380T395 255T489 165T635 130ZM705 0L693 -52Q722 -57 749 -69T798 -101T833 -151T846 -225Q846 -322
767 -378T543 -435L536 -328Q570 -328 600 -323T652 -305T688 -275T702 -229Q702 -204 692 -187T662 -160T611 -143T541 -134L572 0H705Z" />
<glyph unicode="&#xe8;" glyph-name="egrave" horiz-adv-x="1229" d="M652 -20Q538 -20 443 19T279 128T173 294T135 503V545Q135 676 177 779T288 954T446 1064T628 1102Q745 1102 832 1062T978 950T1064 781T1093 571V488H320Q323 414 348 349T418 236T525 159T662
131Q761 131 838 171T966 277L1079 189Q1052 148 1012 111T918 44T798 -2T652 -20ZM628 950Q572 950 522 930T432 870T365 773T326 640H908V654Q905 708 888 761T836 856T751 924T628 950ZM957 1240H807L559 1506H782L957 1240Z" />
<glyph unicode="&#xe9;" glyph-name="eacute" horiz-adv-x="1229" d="M652 -20Q538 -20 443 19T279 128T173 294T135 503V545Q135 676 177 779T288 954T446 1064T628 1102Q745 1102 832 1062T978 950T1064 781T1093 571V488H320Q323 414 348 349T418 236T525 159T662
131Q761 131 838 171T966 277L1079 189Q1052 148 1012 111T918 44T798 -2T652 -20ZM628 950Q572 950 522 930T432 870T365 773T326 640H908V654Q905 708 888 761T836 856T751 924T628 950ZM718 1503H942L674 1237H534L718 1503Z" />
<glyph unicode="&#xea;" glyph-name="ecircumflex" horiz-adv-x="1229" d="M652 -20Q538 -20 443 19T279 128T173 294T135 503V545Q135 676 177 779T288 954T446 1064T628 1102Q745 1102 832 1062T978 950T1064 781T1093 571V488H320Q323 414 348 349T418 236T525
159T662 131Q761 131 838 171T966 277L1079 189Q1052 148 1012 111T918 44T798 -2T652 -20ZM628 950Q572 950 522 930T432 870T365 773T326 640H908V654Q905 708 888 761T836 856T751 924T628 950ZM924 1303V1278H770L620 1429L471 1278H319V1304L564 1543H676L924
1303Z" />
<glyph unicode="&#xeb;" glyph-name="edieresis" horiz-adv-x="1229" d="M652 -20Q538 -20 443 19T279 128T173 294T135 503V545Q135 676 177 779T288 954T446 1064T628 1102Q745 1102 832 1062T978 950T1064 781T1093 571V488H320Q323 414 348 349T418 236T525
159T662 131Q761 131 838 171T966 277L1079 189Q1052 148 1012 111T918 44T798 -2T652 -20ZM628 950Q572 950 522 930T432 870T365 773T326 640H908V654Q905 708 888 761T836 856T751 924T628 950ZM293 1397Q293 1442 320 1472T402 1503Q456 1503 484 1473T512
1397Q512 1352 484 1322T402 1292Q348 1292 321 1322T293 1397ZM723 1395Q723 1440 750 1471T832 1502Q886 1502 914 1471T942 1395Q942 1351 914 1321T832 1290Q778 1290 751 1320T723 1395Z" />
<glyph unicode="&#xec;" glyph-name="igrave" horiz-adv-x="1229" d="M203 1082H756V160H1109V0H203V160H571V921H203V1082ZM1003 1218H853L605 1484H828L1003 1218Z" />
<glyph unicode="&#xed;" glyph-name="iacute" horiz-adv-x="1229" d="M203 1082H756V160H1109V0H203V160H571V921H203V1082ZM764 1481H988L720 1215H580L764 1481Z" />
<glyph unicode="&#xee;" glyph-name="icircumflex" horiz-adv-x="1229" d="M203 1082H756V160H1109V0H203V160H571V921H203V1082ZM970 1281V1256H816L666 1407L517 1256H365V1282L610 1521H722L970 1281Z" />
<glyph unicode="&#xef;" glyph-name="idieresis" horiz-adv-x="1229" d="M203 1082H756V160H1109V0H203V160H571V921H203V1082ZM339 1375Q339 1420 366 1450T448 1481Q502 1481 530 1451T558 1375Q558 1330 530 1300T448 1270Q394 1270 367 1300T339 1375ZM769
1373Q769 1418 796 1449T878 1480Q932 1480 960 1449T988 1373Q988 1329 960 1299T878 1268Q824 1268 797 1298T769 1373Z" />
<glyph unicode="&#xf0;" glyph-name="eth" horiz-adv-x="1229" d="M845 1286Q949 1168 1007 1004T1066 633V571Q1066 433 1029 324T924 138T766 21T565 -20Q457 -20 367 17T211 121T109 276T73 467Q73 582 109 676T211 837T366 940T561 977Q649 977 725 943T859
853Q836 963 791 1047T684 1194L418 1042L345 1141L584 1278Q543 1305 500 1325T410 1362L467 1521Q547 1499 618 1463T753 1375L983 1507L1056 1407L845 1286ZM881 635Q881 648 881 660T880 685Q863 712 835 737T766 782T675 813T561 825Q492 825 436 797T341
719T280 605T259 467Q259 405 280 345T340 237T437 160T569 130Q641 130 698 162T796 251T859 390T881 571V635Z" />
<glyph unicode="&#xf1;" glyph-name="ntilde" horiz-adv-x="1229" d="M340 1082L353 922Q412 1006 498 1053T690 1102Q775 1102 844 1078T963 1003T1038 874T1065 687V0H880V683Q880 755 864 805T817 886T740 931T635 945Q542 945 472 899T359 776V0H174V1082H340ZM949
1522Q949 1477 934 1436T891 1365T826 1316T743 1298Q710 1298 684 1305T637 1322T596 1345T558 1368T516 1386T467 1393Q423 1393 395 1361T365 1282L261 1306Q261 1351 276 1392T319 1465T383 1516T467 1535Q509 1535 542 1520T607 1488T671 1455T743 1440Q764
1440 783 1449T815 1473T837 1508T846 1552L949 1522Z" />
<glyph unicode="&#xf2;" glyph-name="ograve" horiz-adv-x="1229" d="M122 551Q122 668 156 768T253 943T408 1059T613 1102Q728 1102 819 1060T974 943T1072 769T1106 551V529Q1106 412 1072 312T975 138T820 22T615 -20Q500 -20 409 22T254 138T156 312T122
529V551ZM307 529Q307 449 326 377T383 249T480 162T615 130Q691 130 748 162T844 249T902 376T921 529V551Q921 630 902 702T844 830T748 917T613 950Q536 950 479 918T384 830T326 703T307 551V529ZM951 1239H801L553 1505H776L951 1239Z" />
<glyph unicode="&#xf3;" glyph-name="oacute" horiz-adv-x="1229" d="M122 551Q122 668 156 768T253 943T408 1059T613 1102Q728 1102 819 1060T974 943T1072 769T1106 551V529Q1106 412 1072 312T975 138T820 22T615 -20Q500 -20 409 22T254 138T156 312T122
529V551ZM307 529Q307 449 326 377T383 249T480 162T615 130Q691 130 748 162T844 249T902 376T921 529V551Q921 630 902 702T844 830T748 917T613 950Q536 950 479 918T384 830T326 703T307 551V529ZM712 1502H936L668 1236H528L712 1502Z" />
<glyph unicode="&#xf4;" glyph-name="ocircumflex" horiz-adv-x="1229" d="M122 551Q122 668 156 768T253 943T408 1059T613 1102Q728 1102 819 1060T974 943T1072 769T1106 551V529Q1106 412 1072 312T975 138T820 22T615 -20Q500 -20 409 22T254 138T156 312T122
529V551ZM307 529Q307 449 326 377T383 249T480 162T615 130Q691 130 748 162T844 249T902 376T921 529V551Q921 630 902 702T844 830T748 917T613 950Q536 950 479 918T384 830T326 703T307 551V529ZM918 1302V1277H764L614 1428L465 1277H313V1303L558 1542H670L918
1302Z" />
<glyph unicode="&#xf5;" glyph-name="otilde" horiz-adv-x="1229" d="M122 551Q122 668 156 768T253 943T408 1059T613 1102Q728 1102 819 1060T974 943T1072 769T1106 551V529Q1106 412 1072 312T975 138T820 22T615 -20Q500 -20 409 22T254 138T156 312T122
529V551ZM307 529Q307 449 326 377T383 249T480 162T615 130Q691 130 748 162T844 249T902 376T921 529V551Q921 630 902 702T844 830T748 917T613 950Q536 950 479 918T384 830T326 703T307 551V529ZM958 1522Q958 1477 943 1436T900 1365T835 1316T752 1298Q719
1298 693 1305T646 1322T605 1345T567 1368T525 1386T476 1393Q432 1393 404 1361T374 1282L270 1306Q270 1351 285 1392T328 1465T392 1516T476 1535Q518 1535 551 1520T616 1488T680 1455T752 1440Q773 1440 792 1449T824 1473T846 1508T855 1552L958 1522Z"
/>
<glyph unicode="&#xf6;" glyph-name="odieresis" horiz-adv-x="1229" d="M122 551Q122 668 156 768T253 943T408 1059T613 1102Q728 1102 819 1060T974 943T1072 769T1106 551V529Q1106 412 1072 312T975 138T820 22T615 -20Q500 -20 409 22T254 138T156 312T122
529V551ZM307 529Q307 449 326 377T383 249T480 162T615 130Q691 130 748 162T844 249T902 376T921 529V551Q921 630 902 702T844 830T748 917T613 950Q536 950 479 918T384 830T326 703T307 551V529ZM287 1396Q287 1441 314 1471T396 1502Q450 1502 478 1472T506
1396Q506 1351 478 1321T396 1291Q342 1291 315 1321T287 1396ZM717 1394Q717 1439 744 1470T826 1501Q880 1501 908 1470T936 1394Q936 1350 908 1320T826 1289Q772 1289 745 1319T717 1394Z" />
<glyph unicode="&#xf7;" glyph-name="divide" horiz-adv-x="1229" d="M1113 600H115V784H1113V600ZM507 1097Q507 1142 534 1173T616 1204Q670 1204 698 1173T726 1097Q726 1052 698 1022T616 992Q562 992 535 1022T507 1097ZM505 282Q505 327 532 358T614 389Q668
389 696 358T724 282Q724 238 696 208T614 177Q560 177 533 207T505 282Z" />
<glyph unicode="&#xf8;" glyph-name="oslash" horiz-adv-x="1229" d="M122 551Q122 668 156 768T253 943T408 1059T613 1102Q670 1102 720 1092T816 1061L889 1209H1012L911 1004Q1005 929 1055 812T1106 551V529Q1106 412 1072 312T975 138T820 22T615 -20Q561
-20 514 -11T423 16L349 -135H226L327 70Q228 143 175 262T122 529V551ZM307 529Q307 438 331 360T403 224L745 918Q716 933 684 941T613 950Q536 950 479 918T384 830T326 703T307 551V529ZM921 551Q921 636 899 712T832 845L492 156Q547 130 615 130Q691 130
748 162T844 249T902 376T921 529V551Z" />
<glyph unicode="&#xf9;" glyph-name="ugrave" horiz-adv-x="1229" d="M876 149Q822 69 741 25T554 -20Q469 -20 400 6T282 89T207 231T180 439V1082H365V437Q365 349 379 291T421 199T489 150T583 136Q696 136 765 182T869 306V1082H1055V0H887L876 149ZM950 1219H800L552
1485H775L950 1219Z" />
<glyph unicode="&#xfa;" glyph-name="uacute" horiz-adv-x="1229" d="M876 149Q822 69 741 25T554 -20Q469 -20 400 6T282 89T207 231T180 439V1082H365V437Q365 349 379 291T421 199T489 150T583 136Q696 136 765 182T869 306V1082H1055V0H887L876 149ZM711 1482H935L667
1216H527L711 1482Z" />
<glyph unicode="&#xfb;" glyph-name="ucircumflex" horiz-adv-x="1229" d="M876 149Q822 69 741 25T554 -20Q469 -20 400 6T282 89T207 231T180 439V1082H365V437Q365 349 379 291T421 199T489 150T583 136Q696 136 765 182T869 306V1082H1055V0H887L876 149ZM917
1282V1257H763L613 1408L464 1257H312V1283L557 1522H669L917 1282Z" />
<glyph unicode="&#xfc;" glyph-name="udieresis" horiz-adv-x="1229" d="M876 149Q822 69 741 25T554 -20Q469 -20 400 6T282 89T207 231T180 439V1082H365V437Q365 349 379 291T421 199T489 150T583 136Q696 136 765 182T869 306V1082H1055V0H887L876 149ZM287
1376Q287 1421 314 1451T396 1482Q450 1482 478 1452T506 1376Q506 1331 478 1301T396 1271Q342 1271 315 1301T287 1376ZM717 1374Q717 1419 744 1450T826 1481Q880 1481 908 1450T936 1374Q936 1330 908 1300T826 1269Q772 1269 745 1299T717 1374Z" />
<glyph unicode="&#xfd;" glyph-name="yacute" horiz-adv-x="1229" d="M572 384L620 253L950 1082H1157L608 -167Q589 -209 560 -256T488 -343T390 -410T261 -437Q248 -437 232 -436T200 -432T170 -426T147 -421L177 -270Q184 -270 196 -271T221 -273T246 -274T265
-275Q303 -275 334 -254T390 -204T432 -144T460 -93L534 51L68 1082H275L572 384ZM731 1482H955L687 1216H547L731 1482Z" />
<glyph unicode="&#xfe;" glyph-name="thorn" horiz-adv-x="1229" d="M1087 529Q1087 413 1060 313T980 138T848 22T668 -20Q568 -20 491 12T358 107V-416H173V1558H358V970Q413 1034 489 1068T665 1102Q769 1102 848 1061T980 947T1060 773T1087 550V529ZM902
550Q902 629 885 700T833 826T742 913T610 945Q519 945 457 904T358 796V278Q396 213 457 172T612 131Q688 131 743 163T833 251T885 378T902 529V550Z" />
<glyph unicode="&#xff;" glyph-name="ydieresis" horiz-adv-x="1229" d="M572 384L620 253L950 1082H1157L608 -167Q589 -209 560 -256T488 -343T390 -410T261 -437Q248 -437 232 -436T200 -432T170 -426T147 -421L177 -270Q184 -270 196 -271T221 -273T246 -274T265
-275Q303 -275 334 -254T390 -204T432 -144T460 -93L534 51L68 1082H275L572 384ZM306 1376Q306 1421 333 1451T415 1482Q469 1482 497 1452T525 1376Q525 1331 497 1301T415 1271Q361 1271 334 1301T306 1376ZM736 1374Q736 1419 763 1450T845 1481Q899 1481 927
1450T955 1374Q955 1330 927 1300T845 1269Q791 1269 764 1299T736 1374Z" />
<glyph unicode="&#x2013;" glyph-name="endash" horiz-adv-x="1229" d="M1159 651H74V802H1159V651Z" />
<glyph unicode="&#x2014;" glyph-name="emdash" horiz-adv-x="1229" d="M1164 651H79V802H1164V651Z" />
<glyph unicode="&#x2018;" glyph-name="quoteleft" horiz-adv-x="1229" d="M492 1185Q492 1232 503 1284T537 1386T592 1483T666 1565L767 1493Q720 1422 697 1348T673 1188V1039H492V1185Z" />
<glyph unicode="&#x2019;" glyph-name="quoteright" horiz-adv-x="1229" d="M736 1411Q736 1364 725 1312T691 1210T636 1113T562 1031L461 1103Q508 1174 531 1248T555 1408V1558H736V1411Z" />
<glyph unicode="&#x201a;" glyph-name="quotesinglbase" horiz-adv-x="1229" d="M723 76Q723 29 712 -22T678 -124T623 -220T549 -303L444 -230Q491 -160 514 -86T538 74V225H723V76Z" />
<glyph unicode="&#x201c;" glyph-name="quotedblleft" horiz-adv-x="1229" d="M329 1185Q329 1232 340 1284T374 1386T429 1483T503 1565L604 1493Q557 1422 534 1348T510 1188V1039H329V1185ZM654 1185Q654 1232 665 1284T699 1386T754 1483T828 1565L929 1493Q882
1422 859 1348T835 1188V1039H654V1185Z" />
<glyph unicode="&#x201d;" glyph-name="quotedblright" horiz-adv-x="1229" d="M576 1411Q576 1364 565 1312T531 1210T476 1113T402 1031L301 1103Q348 1174 371 1248T395 1408V1558H576V1411ZM908 1411Q908 1364 897 1312T863 1210T808 1113T734 1031L633 1103Q680
1174 703 1248T727 1408V1558H908V1411Z" />
<glyph unicode="&#x201e;" glyph-name="quotedblbase" horiz-adv-x="1229" d="M582 75Q582 28 571 -24T537 -126T482 -222T408 -305L303 -232Q350 -162 373 -88T397 72V223H582V75ZM872 75Q872 28 861 -24T827 -126T772 -222T698 -305L593 -232Q640 -162 663 -88T687
72V223H872V75Z" />
<glyph unicode="&#x2022;" glyph-name="bullet" horiz-adv-x="1229" d="M410 790Q410 833 424 869T465 932T528 973T613 988Q660 988 698 973T762 932T803 870T817 790V732Q817 689 803 653T763 591T699 550T614 535Q567 535 530 549T466 590T425 653T410 732V790Z" />
<glyph unicode="&#x2039;" glyph-name="guilsinglleft" horiz-adv-x="1229" d="M574 550L832 153H691L396 541V560L691 949H832L574 550Z" />
<glyph unicode="&#x203a;" glyph-name="guilsinglright" horiz-adv-x="1229" d="M538 949L832 560V541L538 152H396L654 550L396 949H538Z" />
</font>
</defs>
</svg>
