<?xml version="1.0" standalone="no"?>
  <!DOCTYPE svg PUBLIC "-//W3C//DTD SVG 1.1//EN" "http://www.w3.org/Graphics/SVG/1.1/DTD/svg11.dtd" >
  <svg>
  <metadata>
  Created by font-carrier
  </metadata>
  <defs>
  <font id="NotoSans-Italic" horiz-adv-x="2800" vert-adv-y="2800" >
    <font-face
      
      font-family="Noto Sans"
      
      font-weight="400"
      
      font-stretch="normal"
      
      units-per-em="1000"
      
      ascent="1069"
      
      descent="-293"
      
    />
      <missing-glyph />

      

      
      <glyph glyph-name="uni21" unicode="&#x21;" d="M77 201L168 714L275 714L148 201L77 201M73-14Q20-14 20 40Q20 72 38 96.50Q56 121 95 121Q118 121 132 107Q146 93 146 67Q146 38 128 12Q110-14 73-14Z"  horiz-adv-x="261" vert-adv-y="1000"  />

      
      <glyph glyph-name="uni22" unicode="&#x22;" d="M281 456L316 714L412 714L337 456L281 456M109 456L144 714L240 714L165 456L109 456Z"  horiz-adv-x="392" vert-adv-y="1000"  />

      
      <glyph glyph-name="uni23" unicode="&#x23;" d="M97 0L156 209L30 209L36 275L175 275L223 437L89 437L95 502L241 502L301 714L373 714L312 502L456 502L518 714L586 714L526 502L654 502L647 437L506 437L459 275L597 275L591 209L440 209L380 0L308 0L371 209L227 209L166 0L97 0M246 275L390 275L435 437L292 437L246 275Z"  horiz-adv-x="646" vert-adv-y="1000"  />

      
      <glyph glyph-name="uni24" unicode="&#x24;" d="M166-58L190 50Q149 52 107 61.50Q65 71 34 86L34 166Q73 146 119 134.50Q165 123 204 122L251 337Q190 360 154.50 394.50Q119 429 119 492Q119 548 145.50 586.50Q172 625 218 646.50Q264 668 321 673L340 758L405 758L387 672Q425 669 460 660Q495 651 525 635L492 564Q469 577 437.50 587.50Q406 598 372 600L327 391Q395 366 429.50 332Q464 298 464 240Q464 182 436 142.50Q408 103 361 80.50Q314 58 255 51L231-58L166-58M267 414L306 600Q259 595 229.50 569Q200 543 200 494Q200 468 216.50 447.50Q233 427 267 414M270 125Q316 131 348 158.50Q380 186 380 233Q380 259 364 279Q348 299 311 314L270 125Z"  horiz-adv-x="551" vert-adv-y="1000"  />

      
      <glyph glyph-name="uni25" unicode="&#x25;" d="M195 276Q140 276 110 313Q80 350 80 421Q80 450 85 489Q90 528 102.50 569Q115 610 136.50 645.50Q158 681 191 702.50Q224 724 270 724Q327 724 357 688.50Q387 653 387 587Q387 560 381.50 520.50Q376 481 363 438.50Q350 396 327.50 359Q305 322 272.50 299Q240 276 195 276M113 0L643 714L721 714L191 0L113 0M202 342Q228 342 247.50 361.50Q267 381 280 411.50Q293 442 300.50 475Q308 508 311.50 537Q315 566 315 581Q315 622 302 640.50Q289 659 264 659Q238 659 219 641Q200 623 187 595Q174 567 166.50 534.50Q159 502 155.50 472Q152 442 152 422Q152 342 202 342M562-10Q507-10 477 27Q447 64 447 134Q447 164 452 203.50Q457 243 469.50 284Q482 325 504 360Q526 395 558.50 416.50Q591 438 637 438Q695 438 725 402.50Q755 367 755 302Q755 275 749 235.50Q743 196 730 153.50Q717 111 695 73.50Q673 36 640 13Q607-10 562-10M569 56Q595 56 614.50 75.50Q634 95 647 125.50Q660 156 667.50 189.50Q675 223 678.50 251.50Q682 280 682 295Q682 336 669 354.50Q656 373 631 373Q605 373 586 355Q567 337 554.50 309Q542 281 534.50 248.50Q527 216 523.50 186Q520 156 520 136Q520 56 569 56Z"  horiz-adv-x="799" vert-adv-y="1000"  />

      
      <glyph glyph-name="uni26" unicode="&#x26;" d="M216-10Q135-10 83.50 35.50Q32 81 32 168Q32 248 81 300Q130 352 222 396Q202 428 187.50 465.50Q173 503 173 545Q173 596 195.50 636.50Q218 677 261 701Q304 725 365 725Q438 725 481 686.50Q524 648 524 582Q524 532 497.50 496Q471 460 426.50 432Q382 404 330 378L462 194Q495 222 518 260Q541 298 557 338L645 338Q620 276 585 225.50Q550 175 506 133L605 0L501 0L446 78Q399 40 345.50 15Q292-10 216-10M295 433Q326 449 359.50 468.50Q393 488 416 514Q439 540 439 575Q439 610 419 632Q399 654 361 654Q312 654 284.50 625Q257 596 257 545Q257 486 295 433M233 63Q286 63 326 84.50Q366 106 404 136L259 342Q222 323 190.50 301Q159 279 139 248.50Q119 218 119 174Q119 123 151 93Q183 63 233 63Z"  horiz-adv-x="673" vert-adv-y="1000"  />

      
      <glyph glyph-name="uni27" unicode="&#x27;" d="M109 456L144 714L240 714L165 456L109 456Z"  horiz-adv-x="220" vert-adv-y="1000"  />

      
      <glyph glyph-name="uni28" unicode="&#x28;" d="M112-158Q78-97 59-23.50Q40 50 40 133Q40 312 104 452Q168 592 286 714L367 714Q296 636 241 545.50Q186 455 155 352.50Q124 250 124 134Q124 47 138.50-24.50Q153-96 180-158L112-158Z"  horiz-adv-x="290" vert-adv-y="1000"  />

      
      <glyph glyph-name="uni29" unicode="&#x29;" d="M-77-158Q-6-80 48.50 10.50Q103 101 134 203.50Q165 306 165 422Q165 508 151 580Q137 652 110 714L178 714Q212 652 230.50 578.50Q249 505 249 422Q249 244 185.50 103.50Q122-37 3-158L-77-158Z"  horiz-adv-x="290" vert-adv-y="1000"  />

      
      <glyph glyph-name="uni2a" unicode="&#x2a;" d="M372 300L318 495L195 330L134 391L283 528L103 581L131 659L311 570L331 763L418 746L359 560L563 570L559 488L369 511L456 326L372 300Z"  horiz-adv-x="551" vert-adv-y="1000"  />

      
      <glyph glyph-name="uni2b" unicode="&#x2b;" d="M341 388L540 388L540 317L341 317L341 111L269 111L269 317L70 317L70 388L269 388L269 595L341 595L341 388Z"  horiz-adv-x="572" vert-adv-y="1000"  />

      
      <glyph glyph-name="uni2c" unicode="&#x2c;" d="M-43-129Q-17-70 10-3Q37 64 56 116L152 116L156 105Q131 52 95-11Q59-74 24-129L-43-129Z"  horiz-adv-x="256" vert-adv-y="1000"  />

      
      <glyph glyph-name="uni2d" unicode="&#x2d;" d="M26 227L44 308L280 308L262 227L26 227Z"  horiz-adv-x="313" vert-adv-y="1000"  />

      
      <glyph glyph-name="uni2e" unicode="&#x2e;" d="M72-14Q20-14 20 38Q20 71 38.50 96Q57 121 97 121Q119 121 132.50 107.50Q146 94 146 68Q146 37 128 11.50Q110-14 72-14Z"  horiz-adv-x="256" vert-adv-y="1000"  />

      
      <glyph glyph-name="uni2f" unicode="&#x2f;" d="M-46 0L351 714L441 714L45 0L-46 0Z"  horiz-adv-x="356" vert-adv-y="1000"  />

      
      <glyph glyph-name="uni30" unicode="&#x30;" d="M236-10Q148-10 102.50 53Q57 116 57 233Q57 292 67 359Q77 426 98.50 490.50Q120 555 155 608Q190 661 239.50 693Q289 725 354 725Q446 725 490 665.50Q534 606 534 495Q534 423 523 351Q512 279 489.50 214Q467 149 432 98.50Q397 48 348 19Q299-10 236-10M246 65Q286 65 317.50 91Q349 117 372.50 161.50Q396 206 412 262Q428 318 436 378.50Q444 439 444 497Q444 571 420.50 610.50Q397 650 349 650Q311 650 279 624.50Q247 599 222.50 555.50Q198 512 181 458Q164 404 155 345.50Q146 287 146 233Q146 152 170 108.50Q194 65 246 65Z"  horiz-adv-x="551" vert-adv-y="1000"  />

      
      <glyph glyph-name="uni31" unicode="&#x31;" d="M202 0L297 442Q307 488 318.50 536.50Q330 585 339 614Q324 598 308 586Q292 574 272 561L184 506L143 572L367 714L444 714L291 0L202 0Z"  horiz-adv-x="551" vert-adv-y="1000"  />

      
      <glyph glyph-name="uni32" unicode="&#x32;" d="M3 0L19 75L246 280Q312 340 354 382Q396 424 416 462Q436 500 436 547Q436 592 408.50 620.50Q381 649 330 649Q286 649 249 631Q212 613 177 587L135 647Q176 680 226 702Q276 724 340 724Q431 724 479.50 678.50Q528 633 528 561Q528 503 506 455.50Q484 408 434 355Q384 302 302 230L134 84L134 80L460 80L445 0L3 0Z"  horiz-adv-x="551" vert-adv-y="1000"  />

      
      <glyph glyph-name="uni33" unicode="&#x33;" d="M210-10Q152-10 106.50 0.50Q61 11 22 29L22 114Q57 94 108 79Q159 64 211 64Q291 64 334 102.50Q377 141 377 206Q377 268 339.50 300Q302 332 233 332L169 332L184 405L249 405Q299 405 341.50 422.50Q384 440 409.50 474Q435 508 435 555Q435 601 406.50 625.50Q378 650 333 650Q287 650 248.50 634Q210 618 173 592L132 654Q173 684 223.50 704Q274 724 341 724Q431 724 478 680Q525 636 525 566Q525 490 476 437Q427 384 340 368L340 364Q397 354 433.50 314Q470 274 470 210Q470 154 443 103.50Q416 53 359 21.50Q302-10 210-10Z"  horiz-adv-x="551" vert-adv-y="1000"  />

      
      <glyph glyph-name="uni34" unicode="&#x34;" d="M288 0L323 162L6 162L21 242L424 714L525 714L426 240L536 240L519 162L408 162L373 0L288 0M111 240L340 240L376 411Q384 448 394.50 488.50Q405 529 415.50 565Q426 601 432 624L428 624Q420 611 407 593Q394 575 381 558Q368 541 360 531L111 240Z"  horiz-adv-x="551" vert-adv-y="1000"  />

      
      <glyph glyph-name="uni35" unicode="&#x35;" d="M200-10Q103-10 37 29L37 114Q73 92 114.50 78Q156 64 200 64Q270 64 313 88Q356 112 375.50 151.50Q395 191 395 237Q395 298 359 332.50Q323 367 261 367Q231 367 205 362Q179 357 147 349L110 378L207 714L536 714L519 634L266 634L206 427Q224 431 245 434Q266 437 293 437Q382 437 434.50 386.50Q487 336 487 248Q487 203 472.50 157.50Q458 112 425.50 74Q393 36 337.50 13Q282-10 200-10Z"  horiz-adv-x="551" vert-adv-y="1000"  />

      
      <glyph glyph-name="uni36" unicode="&#x36;" d="M251-10Q167-10 115 43.50Q63 97 63 209Q63 278 79 357Q95 436 129 508Q163 580 216 632Q259 676 318 700Q377 724 454 724Q508 724 546 713L528 637Q512 642 491.50 645.50Q471 649 444 649Q349 649 276.50 583Q204 517 169 366L173 366Q202 404 244 426.50Q286 449 338 449Q412 449 456 402Q500 355 500 269Q500 219 485 169.50Q470 120 439.50 79.50Q409 39 362 14.50Q315-10 251-10M260 64Q309 64 343 92Q377 120 395 165Q413 210 413 261Q413 317 387 347.50Q361 378 308 378Q272 378 242 362Q212 346 191 323Q170 300 162 279Q155 263 152.50 243Q150 223 150 203Q150 167 161 135.50Q172 104 196 84Q220 64 260 64Z"  horiz-adv-x="551" vert-adv-y="1000"  />

      
      <glyph glyph-name="uni37" unicode="&#x37;" d="M81 0L454 636L107 636L123 714L562 714L549 644L176 0L81 0Z"  horiz-adv-x="551" vert-adv-y="1000"  />

      
      <glyph glyph-name="uni38" unicode="&#x38;" d="M246-10Q177-10 132.50 14.50Q88 39 66.50 79.50Q45 120 45 169Q45 246 95 298Q145 350 234 384Q196 412 172.50 447Q149 482 149 537Q149 596 177 638Q205 680 253.50 702.50Q302 725 361 725Q426 725 466.50 702.50Q507 680 525 644Q543 608 543 567Q543 514 519.50 477.50Q496 441 458 415.50Q420 390 376 372Q428 340 458.50 299Q489 258 489 193Q489 140 463.50 93.50Q438 47 384 18.50Q330-10 246-10M315 412Q383 438 418.50 471.50Q454 505 454 558Q454 601 427 626Q400 651 354 651Q301 651 268.50 620.50Q236 590 236 537Q236 492 258 463Q280 434 315 412M255 63Q305 63 337 81.50Q369 100 384 129.50Q399 159 399 191Q399 239 373.50 274.50Q348 310 296 339Q251 324 214.50 304Q178 284 157 252.50Q136 221 136 174Q136 122 169 92.50Q202 63 255 63Z"  horiz-adv-x="551" vert-adv-y="1000"  />

      
      <glyph glyph-name="uni39" unicode="&#x39;" d="M165-10Q135-10 103.50-5.50Q72-1 47 7L47 88Q74 79 103 72.50Q132 66 167 66Q267 66 326.50 135Q386 204 416 343L411 343Q386 308 346.50 286.50Q307 265 259 265Q176 265 131.50 313.50Q87 362 87 454Q87 526 117 587.50Q147 649 203 686.50Q259 724 336 724Q424 724 473 668.50Q522 613 522 504Q522 452 513 393.50Q504 335 487 277.50Q470 220 445 170Q420 120 389 85Q343 34 286.50 12Q230-10 165-10M277 336Q324 336 362 361Q400 386 421 432Q435 466 435 516Q435 575 408 612.50Q381 650 331 650Q281 650 246 624Q211 598 192.50 554Q174 510 174 458Q174 400 200 368Q226 336 277 336Z"  horiz-adv-x="551" vert-adv-y="1000"  />

      
      <glyph glyph-name="uni3a" unicode="&#x3a;" d="M151 415Q99 415 99 466Q99 500 117.50 525Q136 550 176 550Q198 550 211.50 537Q225 524 225 497Q225 466 206.50 440.50Q188 415 151 415M72-14Q20-14 20 38Q20 71 38.50 96Q57 121 97 121Q119 121 132.50 107.50Q146 94 146 68Q146 37 128 11.50Q110-14 72-14Z"  horiz-adv-x="256" vert-adv-y="1000"  />

      
      <glyph glyph-name="uni3b" unicode="&#x3b;" d="M151 415Q99 415 99 466Q99 500 117.50 525Q136 550 176 550Q198 550 211.50 537Q225 524 225 497Q225 466 206.50 440.50Q188 415 151 415M-49-129Q-23-70 4-3Q31 64 50 116L146 116L150 105Q125 52 89-11Q53-74 18-129L-49-129Z"  horiz-adv-x="256" vert-adv-y="1000"  />

      
      <glyph glyph-name="uni3c" unicode="&#x3c;" d="M541 116L70 323L70 373L541 608L541 530L164 352L541 194L541 116Z"  horiz-adv-x="572" vert-adv-y="1000"  />

      
      <glyph glyph-name="uni3d" unicode="&#x3d;" d="M76 416L76 487L534 487L534 416L76 416M76 217L76 288L534 288L534 217L76 217Z"  horiz-adv-x="572" vert-adv-y="1000"  />

      
      <glyph glyph-name="uni3e" unicode="&#x3e;" d="M70 194L447 351L70 530L70 608L541 373L541 323L70 116L70 194Z"  horiz-adv-x="572" vert-adv-y="1000"  />

      
      <glyph glyph-name="uni3f" unicode="&#x3f;" d="M127 201Q134 244 147.50 276Q161 308 184.50 335Q208 362 244 391Q276 416 303.50 439Q331 462 348 490Q365 518 365 556Q365 600 341 624Q317 648 271 648Q233 648 196.50 635.50Q160 623 127 607L95 674Q136 696 185 710Q234 724 281 724Q360 724 407 685Q454 646 454 567Q454 500 417.50 450Q381 400 311 348Q272 320 250.50 300Q229 280 217.50 258Q206 236 198 201L127 201M129-14Q77-14 77 38Q77 71 95.50 96Q114 121 154 121Q176 121 189.50 107.50Q203 94 203 68Q203 37 184.50 11.50Q166-14 129-14Z"  horiz-adv-x="430" vert-adv-y="1000"  />

      
      <glyph glyph-name="uni40" unicode="&#x40;" d="M385-91Q284-91 209.50-51Q135-11 94 64.50Q53 140 53 246Q53 337 85 421Q117 505 178 570.50Q239 636 325.50 674.50Q412 713 520 713Q626 713 692.50 671.50Q759 630 790.50 562Q822 494 822 415Q822 326 794.50 256Q767 186 718.50 146Q670 106 609 106Q553 106 530.50 133Q508 160 504 195L500 195Q478 158 444 132Q410 106 360 106Q304 106 271.50 142Q239 178 239 246Q239 327 273.50 388.50Q308 450 365.50 484Q423 518 491 518Q539 518 571 509Q603 500 629 489L582 310Q574 280 570 260.50Q566 241 566 224Q566 193 580 181Q594 169 614 169Q645 169 670 190Q695 211 712.50 245.50Q730 280 739.50 322.50Q749 365 749 408Q749 474 725.50 528Q702 582 649 614.50Q596 647 507 647Q421 647 351.50 616.50Q282 586 232 531.50Q182 477 155 405Q128 333 128 250Q128 123 196 49.50Q264-24 396-24Q450-24 504-11.50Q558 1 602 18L602-47Q550-68 494-79.50Q438-91 385-91M378 169Q426 169 457.50 211.50Q489 254 508 321L541 445Q531 449 515.50 452.50Q500 456 481 456Q434 456 396.50 429Q359 402 337 356Q315 310 315 253Q315 209 331 189Q347 169 378 169Z"  horiz-adv-x="848" vert-adv-y="1000"  />

      
      <glyph glyph-name="uni41" unicode="&#x41;" d="M-57 0L331 714L425 714L513 0L425 0L398 222L157 222L41 0L-57 0M200 302L389 302L373 452Q369 490 365.50 536Q362 582 361 617L358 617Q342 579 321 535.50Q300 492 277 448L200 302Z"  horiz-adv-x="562" vert-adv-y="1000"  />

      
      <glyph glyph-name="uni42" unicode="&#x42;" d="M41 0L192 714L377 714Q476 714 532.50 675Q589 636 589 550Q589 477 545 431.50Q501 386 428 372L428 367Q477 354 510 318Q543 282 543 222Q543 149 507.50 99.50Q472 50 410 25Q348 0 269 0L41 0M217 410L334 410Q378 410 415 424Q452 438 474 466.50Q496 495 496 539Q496 586 466 611.50Q436 637 366 637L265 637L217 410M146 76L272 76Q357 76 403 114Q449 152 449 222Q449 270 418 303Q387 336 313 336L201 336L146 76Z"  horiz-adv-x="600" vert-adv-y="1000"  />

      
      <glyph glyph-name="uni43" unicode="&#x43;" d="M326-10Q207-10 139.50 63Q72 136 72 263Q72 327 87 393Q102 459 132.50 518Q163 577 209.50 623.50Q256 670 318 697Q380 724 458 724Q558 724 632 684L596 610Q569 624 535.50 634.50Q502 645 458 645Q383 645 328.50 611.50Q274 578 238 522.50Q202 467 184.50 399.50Q167 332 167 265Q167 174 213.50 121.50Q260 69 342 69Q383 69 422.50 77Q462 85 500 98L500 20Q461 6 421.50-2Q382-10 326-10Z"  horiz-adv-x="587" vert-adv-y="1000"  />

      
      <glyph glyph-name="uni44" unicode="&#x44;" d="M41 0L192 714L361 714Q490 714 563 644Q636 574 636 429Q636 305 587.50 208Q539 111 445.50 55.50Q352 0 217 0L41 0M146 77L222 77Q326 77 397 124Q468 171 505 250.50Q542 330 542 430Q542 540 489.50 588.50Q437 637 350 637L265 637L146 77Z"  horiz-adv-x="667" vert-adv-y="1000"  />

      
      <glyph glyph-name="uni45" unicode="&#x45;" d="M41 0L192 714L554 714L537 635L264 635L217 412L472 412L457 334L201 334L146 79L420 79L403 0L41 0Z"  horiz-adv-x="514" vert-adv-y="1000"  />

      
      <glyph glyph-name="uni46" unicode="&#x46;" d="M41 0L192 714L554 714L538 635L264 635L211 381L467 381L450 302L194 302L130 0L41 0Z"  horiz-adv-x="477" vert-adv-y="1000"  />

      
      <glyph glyph-name="uni47" unicode="&#x47;" d="M343-10Q216-10 144 61Q72 132 72 259Q72 357 99.50 441.50Q127 526 178.50 589.50Q230 653 300.50 688.50Q371 724 457 724Q522 724 571 713Q620 702 664 682L630 604Q592 620 549.50 632.50Q507 645 456 645Q374 645 308.50 596Q243 547 205 461.50Q167 376 167 265Q167 210 186.50 165.50Q206 121 247 95Q288 69 352 69Q390 69 421.50 74.50Q453 80 475 87L521 298L381 298L398 376L627 376L551 27Q506 11 456 0.50Q406-10 343-10Z"  horiz-adv-x="678" vert-adv-y="1000"  />

      
      <glyph glyph-name="uni48" unicode="&#x48;" d="M42 0L193 714L282 714L218 412L532 412L596 714L684 714L533 0L445 0L515 333L201 333L131 0L42 0Z"  horiz-adv-x="680" vert-adv-y="1000"  />

      
      <glyph glyph-name="uni49" unicode="&#x49;" d="M-20 0L-10 49L75 69L197 645L121 664L131 714L381 714L371 664L285 645L163 69L240 49L230 0L-20 0Z"  horiz-adv-x="324" vert-adv-y="1000"  />

      
      <glyph glyph-name="uni4a" unicode="&#x4a;" d="M-80-190Q-130-190-156-178L-153-101Q-138-106-120-108.50Q-102-111-82-111Q-38-111-4-83.50Q30-56 43 9L193 714L282 714L131-1Q109-102 54.50-146Q0-190-80-190Z"  horiz-adv-x="273" vert-adv-y="1000"  />

      
      <glyph glyph-name="uni4b" unicode="&#x4b;" d="M41 0L192 714L281 714L207 367L269 433L543 714L651 714L341 400L510 0L412 0L273 346L190 285L130 0L41 0Z"  horiz-adv-x="562" vert-adv-y="1000"  />

      
      <glyph glyph-name="uni4c" unicode="&#x4c;" d="M41 0L192 714L281 714L146 80L420 80L403 0L41 0Z"  horiz-adv-x="478" vert-adv-y="1000"  />

      
      <glyph glyph-name="uni4d" unicode="&#x4d;" d="M40 0L191 714L317 714L386 131L390 131L707 714L844 714L696 0L606 0L696 424Q710 489 722.50 542Q735 595 744 627L742 627L398 0L327 0L251 626L247 626Q245 606 240 572.50Q235 539 228.50 501.50Q222 464 215 429L124 0L40 0Z"  horiz-adv-x="841" vert-adv-y="1000"  />

      
      <glyph glyph-name="uni4e" unicode="&#x4e;" d="M40 0L191 714L286 714L505 124L508 124Q512 160 522 215.50Q532 271 543 321L627 714L712 714L561 0L466 0L245 592L242 592Q240 571 234.50 537Q229 503 221.50 463.50Q214 424 206 388L124 0L40 0Z"  horiz-adv-x="707" vert-adv-y="1000"  />

      
      <glyph glyph-name="uni4f" unicode="&#x4f;" d="M337-10Q209-10 140.50 64.50Q72 139 72 267Q72 359 96.50 442Q121 525 168 588.50Q215 652 282 688.50Q349 725 433 725Q554 725 622 649.50Q690 574 690 444Q690 351 667.50 269Q645 187 600.50 124.50Q556 62 490 26Q424-10 337-10M340 69Q400 69 447 99Q494 129 527 181.50Q560 234 577.50 302Q595 370 595 446Q595 541 550 593.50Q505 646 427 646Q367 646 319 616.50Q271 587 237 535.50Q203 484 185 415.50Q167 347 167 269Q167 174 213 121.50Q259 69 340 69Z"  horiz-adv-x="721" vert-adv-y="1000"  />

      
      <glyph glyph-name="uni50" unicode="&#x50;" d="M41 0L192 714L353 714Q468 714 517.50 662.50Q567 611 567 528Q567 407 487 343Q407 279 253 279L189 279L130 0L41 0M205 354L267 354Q363 354 419.50 395Q476 436 476 525Q476 584 442.50 610.50Q409 637 341 637L265 637L205 354Z"  horiz-adv-x="567" vert-adv-y="1000"  />

      
      <glyph glyph-name="uni51" unicode="&#x51;" d="M461-170L353-9Q348-10 344.50-10Q341-10 337-10Q209-10 140.50 64.50Q72 139 72 267Q72 359 96.50 442Q121 525 168 588.50Q215 652 282 688.50Q349 725 433 725Q554 725 622 649.50Q690 574 690 444Q690 341 661 251.50Q632 162 576 98Q520 34 441 7L575-170L461-170M340 69Q401 69 448.50 99Q496 129 528.50 181.50Q561 234 578 302Q595 370 595 446Q595 541 550 593.50Q505 646 427 646Q367 646 319 616.50Q271 587 237 535.50Q203 484 185 415.50Q167 347 167 269Q167 174 213 121.50Q259 69 340 69Z"  horiz-adv-x="721" vert-adv-y="1000"  />

      
      <glyph glyph-name="uni52" unicode="&#x52;" d="M41 0L192 714L349 714Q569 714 569 533Q569 456 528.50 399Q488 342 391 315L509 0L411 0L309 295L192 295L130 0L41 0M208 371L286 371Q386 371 431.50 414.50Q477 458 477 527Q477 588 442.50 612Q408 636 341 636L265 636L208 371Z"  horiz-adv-x="573" vert-adv-y="1000"  />

      
      <glyph glyph-name="uni53" unicode="&#x53;" d="M185-10Q133-10 93.50-2Q54 6 19 22L19 110Q49 94 90.50 81Q132 68 186 68Q231 68 269 82Q307 96 330 125Q353 154 353 200Q353 240 326.50 268.50Q300 297 235 334Q197 356 167.50 381Q138 406 121.50 438Q105 470 105 517Q105 583 137 629.50Q169 676 222.50 700Q276 724 340 724Q396 724 438.50 713Q481 702 519 682L485 606Q459 620 420 632.50Q381 645 340 645Q278 645 239 613Q200 581 200 523Q200 492 211 472Q222 452 245 435Q268 418 302 398Q345 372 377.50 347Q410 322 428.50 289Q447 256 447 207Q447 100 375.50 45Q304-10 185-10Z"  horiz-adv-x="505" vert-adv-y="1000"  />

      
      <glyph glyph-name="uni54" unicode="&#x54;" d="M152 0L286 635L90 635L107 714L589 714L573 635L377 635L242 0L152 0Z"  horiz-adv-x="501" vert-adv-y="1000"  />

      
      <glyph glyph-name="uni55" unicode="&#x55;" d="M300-10Q188-10 133.50 41.50Q79 93 79 188Q79 205 82 229.50Q85 254 91 283L183 714L272 714L179 278Q174 255 171 230Q168 205 168 189Q168 133 202.50 101Q237 69 305 69Q394 69 437 115Q480 161 500 250L599 714L688 714L588 243Q572 165 537.50 108Q503 51 445 20.50Q387-10 300-10Z"  horiz-adv-x="677" vert-adv-y="1000"  />

      
      <glyph glyph-name="uni56" unicode="&#x56;" d="M169 0L92 714L180 714L225 262Q230 221 232.50 179Q235 137 234 101L236 101Q251 137 270 176.50Q289 216 313 263L545 714L644 714L264 0L169 0Z"  horiz-adv-x="552" vert-adv-y="1000"  />

      
      <glyph glyph-name="uni57" unicode="&#x57;" d="M137 0L107 714L195 714L209 279Q210 238 208.50 194Q207 150 205 110L208 110Q222 149 242 199.50Q262 250 283 294L479 714L570 714L590 296Q593 249 594 198Q595 147 594 110L597 110Q610 148 626 193Q642 238 661 282L848 714L943 714L619 0L528 0L506 460Q504 493 503 530.50Q502 568 502 599L499 599Q489 569 475.50 537.50Q462 506 440 457L229 0L137 0Z"  horiz-adv-x="856" vert-adv-y="1000"  />

      
      <glyph glyph-name="uni58" unicode="&#x58;" d="M-52 0L239 378L112 714L202 714L299 441L511 714L609 714L339 374L474 0L380 0L278 309L46 0L-52 0Z"  horiz-adv-x="527" vert-adv-y="1000"  />

      
      <glyph glyph-name="uni59" unicode="&#x59;" d="M150 0L208 268L92 714L181 714L266 356L500 714L601 714L295 265L240 0L150 0Z"  horiz-adv-x="509" vert-adv-y="1000"  />

      
      <glyph glyph-name="uni5a" unicode="&#x5a;" d="M-10 0L4 70L449 634L134 634L151 714L573 714L560 643L115 80L450 80L434 0L-10 0Z"  horiz-adv-x="531" vert-adv-y="1000"  />

      
      <glyph glyph-name="uni5b" unicode="&#x5b;" d="M-9-158L177 714L370 714L354 642L244 642L90-86L200-86L184-158L-9-158Z"  horiz-adv-x="290" vert-adv-y="1000"  />

      
      <glyph glyph-name="uni5c" unicode="&#x5c;" d="M214 0L108 714L188 714L294 0L214 0Z"  horiz-adv-x="356" vert-adv-y="1000"  />

      
      <glyph glyph-name="uni5d" unicode="&#x5d;" d="M-72-158L-57-86L53-86L207 642L97 642L113 714L306 714L120-158L-72-158Z"  horiz-adv-x="290" vert-adv-y="1000"  />

      
      <glyph glyph-name="uni5e" unicode="&#x5e;" d="M38 267L250 719L300 719L534 267L456 267L276 626L116 267L38 267Z"  horiz-adv-x="572" vert-adv-y="1000"  />

      
      <glyph glyph-name="uni5f" unicode="&#x5f;" d="M-92-158L-77-90L320-90L305-158L-92-158Z"  horiz-adv-x="395" vert-adv-y="1000"  />

      
      <glyph glyph-name="uni60" unicode="&#x60;" d="M256 606Q237 625 215.50 652Q194 679 175 707Q156 735 146 756L146 766L240 766Q251 729 270.50 690.50Q290 652 310 618L310 606L256 606Z"  horiz-adv-x="278" vert-adv-y="1000"  />

      
      <glyph glyph-name="uni61" unicode="&#x61;" d="M193-10Q128-10 88 36.50Q48 83 48 173Q48 248 67.50 315.50Q87 383 122 434.50Q157 486 205 516Q253 546 311 546Q364 546 397 518Q430 490 446 453L451 453L483 536L550 536L436 0L366 0L379 99L375 99Q340 55 294.50 22.50Q249-10 193-10M222 63Q258 63 294 90Q330 117 358.50 162.50Q387 208 403 266Q410 294 413 319Q416 344 416 365Q416 412 390 442Q364 472 320 472Q281 472 248 447.50Q215 423 190 380.50Q165 338 151.50 284Q138 230 138 171Q138 117 160 90Q182 63 222 63Z"  horiz-adv-x="568" vert-adv-y="1000"  />

      
      <glyph glyph-name="uni62" unicode="&#x62;" d="M269-10Q215-10 181.50 17.50Q148 45 132 82L127 82L94 0L28 0L189 760L277 760L239 580Q232 546 223.50 513Q215 480 209 459Q203 438 202 436L206 436Q242 480 284.50 512.50Q327 545 383 545Q449 545 489.50 499Q530 453 530 363Q530 290 512 223Q494 156 460 103.50Q426 51 378 20.50Q330-10 269-10M262 63Q302 63 335 88.50Q368 114 391.50 157Q415 200 427.50 254Q440 308 440 364Q440 472 355 472Q322 472 287.50 447.50Q253 423 224 380.50Q195 338 177.50 284Q160 230 160 171Q160 123 185 93Q210 63 262 63Z"  horiz-adv-x="579" vert-adv-y="1000"  />

      
      <glyph glyph-name="uni63" unicode="&#x63;" d="M247-10Q158-10 103 40Q48 90 48 190Q48 262 67.50 326.50Q87 391 123.50 440Q160 489 212 517.50Q264 546 328 546Q363 546 397.50 539Q432 532 461 520L436 447Q416 456 388.50 464Q361 472 329 472Q272 472 229 433.50Q186 395 162 331Q138 267 138 191Q138 130 169 96.50Q200 63 256 63Q291 63 322.50 72.50Q354 82 385 96L385 22Q357 8 322.50-1Q288-10 247-10Z"  horiz-adv-x="453" vert-adv-y="1000"  />

      
      <glyph glyph-name="uni64" unicode="&#x64;" d="M193-10Q128-10 88 36Q48 82 48 173Q48 246 66 313Q84 380 118.50 432.50Q153 485 201.50 515Q250 545 311 545Q365 545 397.50 517.50Q430 490 446 453L451 453Q456 487 460.50 518Q465 549 473 585L510 760L597 760L436 0L364 0L375 99L371 99Q335 54 292 22Q249-10 193-10M223 63Q256 63 290 87.50Q324 112 353 154Q382 196 399.50 250Q417 304 417 364Q417 412 393.50 442Q370 472 317 472Q277 472 244.50 446.50Q212 421 188 378Q164 335 151 281Q138 227 138 171Q138 63 223 63Z"  horiz-adv-x="579" vert-adv-y="1000"  />

      
      <glyph glyph-name="uni65" unicode="&#x65;" d="M242-10Q149-10 98.50 44.50Q48 99 48 192Q48 256 66.50 318.50Q85 381 120 432.50Q155 484 204.50 515Q254 546 316 546Q392 546 430.50 513Q469 480 469 421Q469 368 436.50 325.50Q404 283 335 257.50Q266 232 156 232L139 232Q138 223 137.50 213Q137 203 137 195Q137 134 166.50 98.50Q196 63 258 63Q296 63 330 73.50Q364 84 404 104L404 29Q366 12 329.50 1Q293-10 242-10M152 303L159 303Q219 303 270 313.50Q321 324 352 348.50Q383 373 383 414Q383 440 365.50 456.50Q348 473 311 473Q263 473 218.50 428.50Q174 384 152 303Z"  horiz-adv-x="499" vert-adv-y="1000"  />

      
      <glyph glyph-name="uni66" unicode="&#x66;" d="M-48-240Q-68-240-83.50-237Q-99-234-112-230L-112-156Q-98-160-85-163.50Q-72-167-56-167Q-20-167 0-137.50Q20-108 32-53L142 469L49 469L56 506L156 539L167 587Q182 656 206 694.50Q230 733 265 749Q300 765 349 765Q374 765 400 759.50Q426 754 443 746L420 679Q406 684 389 688.50Q372 693 353 693Q314 693 291 671Q268 649 255 587L243 536L358 536L345 469L230 469L118-63Q100-146 62-193Q24-240-48-240Z"  horiz-adv-x="318" vert-adv-y="1000"  />

      
      <glyph glyph-name="uni67" unicode="&#x67;" d="M186-240Q137-240 95.50-230.50Q54-221 25-206L25-125Q51-141 95.50-154Q140-167 183-167Q245-167 284.50-137Q324-107 341-37L350 1Q354 22 360 44.50Q366 67 370.50 83Q375 99 375 99L371 99Q336 55 293 22.50Q250-10 194-10Q129-10 88.50 36.50Q48 83 48 173Q48 246 66 313Q84 380 118.50 432.50Q153 485 201.50 515.50Q250 546 311 546Q365 546 397.50 518Q430 490 447 453L451 453L484 536L551 536L429-31Q405-144 343.50-192Q282-240 186-240M223 63Q257 63 291 88Q325 113 353.50 155.50Q382 198 399 252Q416 306 416 364Q416 412 393.50 442Q371 472 318 472Q278 472 245 446.50Q212 421 188 378Q164 335 151 281Q138 227 138 171Q138 63 223 63Z"  horiz-adv-x="579" vert-adv-y="1000"  />

      
      <glyph glyph-name="uni68" unicode="&#x68;" d="M28 0L189 760L277 760L234 563Q228 533 219 500.50Q210 468 202 436L207 436Q226 461 252 486Q278 511 311.50 528Q345 545 388 545Q450 545 486.50 510.50Q523 476 523 408Q523 388 519.50 368Q516 348 512 326L442 0L354 0L425 336Q434 381 434 402Q434 435 417.50 453.50Q401 472 364 472Q330 472 290.50 448.50Q251 425 217.50 372Q184 319 165 231L116 0L28 0Z"  horiz-adv-x="579" vert-adv-y="1000"  />

      
      <glyph glyph-name="uni69" unicode="&#x69;" d="M213 625Q192 625 178.50 637.50Q165 650 165 672Q165 698 180.50 717Q196 736 224 736Q270 736 270 691Q270 660 252 642.50Q234 625 213 625M28 0L142 536L230 536L116 0L28 0Z"  horiz-adv-x="258" vert-adv-y="1000"  />

      
      <glyph glyph-name="uni6a" unicode="&#x6a;" d="M212 625Q192 625 178.50 637.50Q165 650 165 672Q165 698 180.50 717Q196 736 224 736Q269 736 269 691Q269 660 251 642.50Q233 625 212 625M-64-240Q-101-240-126-230L-126-156Q-114-160-99-163.50Q-84-167-68-167Q-7-167 14-69L142 536L229 536L99-77Q83-152 46.50-196Q10-240-64-240Z"  horiz-adv-x="258" vert-adv-y="1000"  />

      
      <glyph glyph-name="uni6b" unicode="&#x6b;" d="M27 0L188 760L277 760L212 458Q195 378 182.50 334.50Q170 291 165 277L167 277L421 536L525 536L295 306L438 0L341 0L228 251L156 194L116 0L27 0Z"  horiz-adv-x="495" vert-adv-y="1000"  />

      
      <glyph glyph-name="uni6c" unicode="&#x6c;" d="M27 0L189 760L277 760L115 0L27 0Z"  horiz-adv-x="258" vert-adv-y="1000"  />

      
      <glyph glyph-name="uni6d" unicode="&#x6d;" d="M28 0L142 536L214 536L203 437L208 437Q226 462 250.50 487Q275 512 307 529Q339 546 380 546Q435 546 465 514Q495 482 501 427L505 427Q525 456 552.50 483.50Q580 511 614 528.50Q648 546 689 546Q751 546 785 512Q819 478 819 414Q819 390 816 369Q813 348 808 326L739 0L650 0L722 336Q726 358 728.50 374.50Q731 391 731 406Q731 436 714.50 454Q698 472 663 472Q630 472 594 448Q558 424 526.50 373Q495 322 478 242L427 0L339 0L410 336Q419 381 419 402Q419 435 404 453.50Q389 472 354 472Q322 472 285 448.50Q248 425 216 372Q184 319 165 231L116 0L28 0Z"  horiz-adv-x="875" vert-adv-y="1000"  />

      
      <glyph glyph-name="uni6e" unicode="&#x6e;" d="M24-3L139 539L217 539L206 440Q225 464 251 489.50Q277 515 310.50 532Q344 549 388 549Q452 549 489 513.50Q526 478 526 414Q526 391 522.50 367Q519 343 515 325L444-3L350-3L422 337Q426 360 429 375.50Q432 391 432 405Q432 469 364 469Q330 469 291.50 445.50Q253 422 219.50 370Q186 318 168 230L118-3L24-3Z"  horiz-adv-x="579" vert-adv-y="1000"  />

      
      <glyph glyph-name="uni6f" unicode="&#x6f;" d="M248-8Q155-8 101.50 47.50Q48 103 48 198Q48 260 65 321Q82 382 115.50 432Q149 482 199.50 512.50Q250 543 316 543Q410 543 463 487.50Q516 432 516 336Q516 275 499 214Q482 153 448.50 103Q415 53 365 22.50Q315-8 248-8M253 65Q300 65 339.50 98.50Q379 132 402.50 195Q426 258 426 346Q426 376 415.50 404.50Q405 433 381 451.50Q357 470 317 470Q262 470 221.50 432.50Q181 395 159 332.50Q137 270 137 195Q137 133 167.50 99Q198 65 253 65Z"  horiz-adv-x="563" vert-adv-y="1000"  />

      
      <glyph glyph-name="uni70" unicode="&#x70;" d="M-22-240L142 536L214 536L202 436L206 436Q241 480 285 512.50Q329 545 385 545Q450 545 490 499Q530 453 530 362Q530 288 512 221.50Q494 155 460 102.50Q426 50 377.50 20Q329-10 269-10Q215-10 182 17.50Q149 45 132 82L127 82Q126 66 122 37.50Q118 9 114-9L65-240L-22-240M262 63Q302 63 335 88.50Q368 114 391.50 157Q415 200 427.50 254Q440 308 440 364Q440 472 355 472Q322 472 287.50 447.50Q253 423 224 381Q195 339 177.50 285Q160 231 160 171Q160 123 185 93Q210 63 262 63Z"  horiz-adv-x="579" vert-adv-y="1000"  />

      
      <glyph glyph-name="uni71" unicode="&#x71;" d="M298-240L346-12Q350 5 357 31.50Q364 58 369.50 78.50Q375 99 375 99L371 99Q336 55 293 22.50Q250-10 194-10Q129-10 88.50 36Q48 82 48 173Q48 246 66 313Q84 380 118.50 432.50Q153 485 202 515.50Q251 546 312 546Q365 546 397.50 518Q430 490 446 453L451 453L484 536L550 536L385-240L298-240M223 63Q256 63 290 88Q324 113 352.50 155.50Q381 198 398.50 252Q416 306 416 364Q416 408 393 440Q370 472 318 472Q278 472 245 446.50Q212 421 188 378Q164 335 151 281Q138 227 138 171Q138 63 223 63Z"  horiz-adv-x="579" vert-adv-y="1000"  />

      
      <glyph glyph-name="uni72" unicode="&#x72;" d="M28 0L142 536L214 536L203 437L208 437Q229 464 252 489Q275 514 304 530Q333 546 371 546Q385 546 400.50 544.50Q416 543 429 539L410 460Q383 466 359 466Q309 466 270 433Q231 400 205 349Q179 298 168 245L116 0L28 0Z"  horiz-adv-x="398" vert-adv-y="1000"  />

      
      <glyph glyph-name="uni73" unicode="&#x73;" d="M155-10Q106-10 69.50-0.50Q33 9 5 24L5 105Q30 89 70 75.50Q110 62 152 62Q211 62 242 85Q273 108 273 146Q273 175 254 194.50Q235 214 183 243Q126 275 97 309Q68 343 68 394Q68 462 117.50 504Q167 546 250 546Q299 546 340.50 534.50Q382 523 412 509L384 439Q358 451 326 461.50Q294 472 250 472Q206 472 181 451.50Q156 431 156 399Q156 373 173.50 353.50Q191 334 244 305Q278 285 305 265Q332 245 347.50 218.50Q363 192 363 155Q363 74 306.50 32Q250-10 155-10Z"  horiz-adv-x="432" vert-adv-y="1000"  />

      
      <glyph glyph-name="uni74" unicode="&#x74;" d="M185-10Q131-10 94 16Q57 42 57 107Q57 139 66 178L127 469L44 469L52 509L142 547L204 658L256 658L229 536L364 536L350 469L216 469L154 177Q151 164 148 147.50Q145 131 145 117Q145 94 157.50 78Q170 62 198 62Q216 62 233 65.50Q250 69 269 75L269 8Q257 2 232-4Q207-10 185-10Z"  horiz-adv-x="332" vert-adv-y="1000"  />

      
      <glyph glyph-name="uni75" unicode="&#x75;" d="M189-10Q128-10 91.50 24Q55 58 55 123Q55 146 58.50 166Q62 186 66 209L136 536L225 536L153 199Q144 156 144 132Q144 100 160 81.50Q176 63 214 63Q248 63 287 87Q326 111 360.50 164Q395 217 414 305L463 536L550 536L436 0L364 0L375 99L370 99Q351 74 325.50 49Q300 24 266 7Q232-10 189-10Z"  horiz-adv-x="579" vert-adv-y="1000"  />

      
      <glyph glyph-name="uni76" unicode="&#x76;" d="M110 0L48 536L136 536L166 238Q169 212 171.50 177Q174 142 175.50 111.50Q177 81 177 67L180 67Q191 92 206 124Q221 156 236.50 188Q252 220 263 241L421 536L515 536L225 0L110 0Z"  horiz-adv-x="467" vert-adv-y="1000"  />

      
      <glyph glyph-name="uni77" unicode="&#x77;" d="M79 0L57 536L143 536L151 250Q152 195 150.50 150.50Q149 106 147 77L151 77Q158 98 169.50 126.50Q181 155 193.50 183.50Q206 212 216 233L357 536L452 536L469 249Q470 212 471 163.50Q472 115 470 77L474 77Q487 115 507 166.50Q527 218 551 273L668 536L761 536L513 0L407 0L392 290Q390 330 390.50 367Q391 404 391 451L387 451Q374 414 360.50 382.50Q347 351 323 300L183 0L79 0Z"  horiz-adv-x="723" vert-adv-y="1000"  />

      
      <glyph glyph-name="uni78" unicode="&#x78;" d="M-37 0L195 276L79 536L168 536L251 338L408 536L510 536L287 272L410 0L321 0L230 208L65 0L-37 0Z"  horiz-adv-x="483" vert-adv-y="1000"  />

      
      <glyph glyph-name="uni79" unicode="&#x79;" d="M-25-240Q-49-240-64.50-237Q-80-234-94-230L-94-159Q-80-163-64-165.50Q-48-168-30-168Q10-168 39-143Q68-118 94-70L129-8L48 536L136 536L171 271Q176 238 178.50 200Q181 162 182.50 127.50Q184 93 184 72L187 72Q194 88 207.50 120Q221 152 237 186Q253 220 265 242L421 536L515 536L175-90Q134-165 90-202.50Q46-240-25-240Z"  horiz-adv-x="467" vert-adv-y="1000"  />

      
      <glyph glyph-name="uni7a" unicode="&#x7a;" d="M-15 0L-3 60L330 470L100 470L114 536L439 536L425 465L98 66L353 66L340 0L-15 0Z"  horiz-adv-x="445" vert-adv-y="1000"  />

      
      <glyph glyph-name="uni7b" unicode="&#x7b;" d="M217-158Q146-158 109-131.50Q72-105 72-48Q72-32 75-15.50Q78 1 82 20L106 125Q109 141 111 154Q113 167 113 179Q113 249 11 249L28 322Q86 322 121 343Q156 364 166 415L199 572Q216 651 257.50 682.50Q299 714 382 714L400 714L385 641Q341 641 315.50 626Q290 611 280 564L245 408Q234 357 205 324Q176 291 118 281L118 279Q157 268 175 241Q193 214 193 175Q193 162 190.50 145Q188 128 184 112L162 10Q159-3 157-14.50Q155-26 155-36Q155-65 175.50-75Q196-85 230-85L230-158L217-158Z"  horiz-adv-x="350" vert-adv-y="1000"  />

      
      <glyph glyph-name="uni7c" unicode="&#x7c;" d="M260-241L260 760L332 760L332-241L260-241Z"  horiz-adv-x="551" vert-adv-y="1000"  />

      
      <glyph glyph-name="uni7d" unicode="&#x7d;" d="M-37-158L-37-85Q11-85 38.50-70Q66-55 77-8L112 148Q123 199 151.50 231.50Q180 264 239 274L239 277Q200 288 182.50 314.50Q165 341 165 380Q165 394 167.50 410.50Q170 427 174 443L197 546Q200 559 202 570.50Q204 582 204 592Q204 621 181 631Q158 641 117 641L132 714L138 714Q210 714 247.50 687.50Q285 661 285 604Q285 588 282.50 571.50Q280 555 275 536L251 430Q248 414 245.50 401.50Q243 389 243 377Q243 307 345 307L329 234Q271 234 236.50 213Q202 192 191 141L158-16Q146-72 123-103Q100-134 63-146Q26-158-30-158L-37-158Z"  horiz-adv-x="350" vert-adv-y="1000"  />

      
      <glyph glyph-name="uni7e" unicode="&#x7e;" d="M289 319Q253 335 229.50 340.50Q206 346 184 346Q156 346 125 329Q94 312 70 287L70 365Q118 418 190 418Q218 418 247 412Q276 406 322 386Q358 370 381.50 364.50Q405 359 426 359Q455 359 486 376Q517 393 541 418L541 341Q492 287 421 287Q392 287 363 293.50Q334 300 289 319Z"  horiz-adv-x="572" vert-adv-y="1000"  />

      
      <glyph glyph-name="unia1" unicode="&#xa1;" d="M172 411Q120 411 120 463Q120 496 138.50 521Q157 546 196 546Q218 546 231.50 532Q245 518 245 492Q245 463 227.50 437Q210 411 172 411M-10-182L124 331L182 331L97-182L-10-182Z"  horiz-adv-x="261" vert-adv-y="1000"  />

      
      <glyph glyph-name="unia2" unicode="&#xa2;" d="M220-10L241 95Q180 111 143.50 159.50Q107 208 107 288Q107 378 137 454Q167 530 222.50 580Q278 630 353 642L369 724L432 724L414 642Q475 637 521 618L496 545Q476 554 448.50 562Q421 570 389 570Q332 570 288.50 531.50Q245 493 221 429Q197 365 197 289Q197 228 228.50 194Q260 160 316 160Q351 160 382.50 170Q414 180 444 194L444 119Q417 106 382.50 97Q348 88 304 87L284-10L220-10Z"  horiz-adv-x="551" vert-adv-y="1000"  />

      
      <glyph glyph-name="unia3" unicode="&#xa3;" d="M-11 0L3 74Q46 84 80.50 116Q115 148 129 214L151 316L53 316L67 382L165 382L200 549Q221 645 278.50 684Q336 723 412 723Q464 723 506 710.50Q548 698 578 681L544 612Q520 625 486 637.50Q452 650 410 650Q370 650 334.50 627Q299 604 285 537L252 382L430 382L416 316L238 316L216 215Q203 154 177.50 125Q152 96 122 80L473 80L456 0L-11 0Z"  horiz-adv-x="551" vert-adv-y="1000"  />

      
      <glyph glyph-name="unia4" unicode="&#xa4;" d="M461 139L398 201Q376 186 349.50 177.50Q323 169 294 169Q265 169 238 178Q211 187 189 202L127 140L81 187L143 249Q127 271 118.50 297Q110 323 110 353Q110 410 143 457L80 520L127 568L189 505Q212 520 238.50 529Q265 538 294 538Q323 538 349.50 529Q376 520 398 505L461 568L509 521L446 458Q460 436 469.50 409Q479 382 479 353Q479 323 470 296.50Q461 270 446 248L508 186L461 139M294 236Q344 236 379 270Q414 304 414 353Q414 403 379 437.50Q344 472 294 472Q245 472 211 437.50Q177 403 177 353Q177 304 211 270Q245 236 294 236Z"  horiz-adv-x="551" vert-adv-y="1000"  />

      
      <glyph glyph-name="unia5" unicode="&#xa5;" d="M174 0L201 128L60 128L75 195L215 195L231 272L90 272L105 339L214 339L115 714L201 714L285 356L520 714L616 714L358 339L469 339L455 272L312 272L296 195L439 195L425 128L283 128L255 0L174 0Z"  horiz-adv-x="551" vert-adv-y="1000"  />

      
      <glyph glyph-name="unia6" unicode="&#xa6;" d="M260 379L260 760L332 760L332 379L260 379M260-241L260 140L332 140L332-241L260-241Z"  horiz-adv-x="551" vert-adv-y="1000"  />

      
      <glyph glyph-name="unia7" unicode="&#xa7;" d="M173-5Q123-5 86.50 4.50Q50 14 27 26L27 101Q52 87 92 74.50Q132 62 173 62Q236 62 269.50 83.50Q303 105 303 145Q303 168 281.50 186.50Q260 205 206 230Q150 255 117 287.50Q84 320 84 376Q84 433 118 468.50Q152 504 198 525Q173 541 157 565Q141 589 141 624Q141 682 189.50 723.50Q238 765 330 765Q377 765 417 756Q457 747 488 731L461 668Q428 682 396 690Q364 698 330 698Q304 698 280 691Q256 684 240.50 668Q225 652 225 627Q225 601 246.50 583.50Q268 566 321 543Q374 519 408.50 487.50Q443 456 443 402Q443 351 411.50 311.50Q380 272 331 247Q354 232 370 210Q386 188 386 154Q386 84 332.50 39.50Q279-5 173-5M281 277Q312 294 337.50 323Q363 352 363 390Q363 421 337.50 443.50Q312 466 251 491Q220 481 191 453.50Q162 426 162 386Q162 352 187.50 329.50Q213 307 281 277Z"  horiz-adv-x="486" vert-adv-y="1000"  />

      
      <glyph glyph-name="unia8" unicode="&#xa8;" d="M442 631Q424 631 412 642Q400 653 400 673Q400 696 414 713Q428 730 453 730Q473 730 483 719Q493 708 493 690Q493 662 477 646.50Q461 631 442 631M263 631Q244 631 232 642Q220 653 220 673Q220 696 234 713Q248 730 273 730Q294 730 303.50 719Q313 708 313 690Q313 662 297.50 646.50Q282 631 263 631Z"  horiz-adv-x="554" vert-adv-y="1000"  />

      
      <glyph glyph-name="unia9" unicode="&#xa9;" d="M416-10Q336-10 269 17Q202 44 152.50 93.50Q103 143 76 210Q49 277 49 357Q49 437 76 504Q103 571 152.50 620.50Q202 670 269 697Q336 724 416 724Q492 724 558.50 697Q625 670 675.50 620.50Q726 571 754.50 504Q783 437 783 357Q783 277 756 210Q729 143 679.50 93.50Q630 44 563 17Q496-10 416-10M416 43Q480 43 536 66Q592 89 635 131.50Q678 174 702 231Q726 288 726 357Q726 422 703 479Q680 536 638.50 579Q597 622 540.50 646.50Q484 671 416 671Q326 671 255.50 630.50Q185 590 145 519Q105 448 105 357Q105 292 128 235Q151 178 192.50 135Q234 92 291 67.50Q348 43 416 43M431 133Q332 133 283 194.50Q234 256 234 357Q234 422 257 472.50Q280 523 325 551.50Q370 580 435 580Q500 580 558 550L529 489Q479 515 436 515Q377 515 344.50 472.50Q312 430 312 357Q312 280 340.50 239Q369 198 435 198Q458 198 486.50 204.50Q515 211 540 221L540 157Q516 146 491 139.50Q466 133 431 133Z"  horiz-adv-x="832" vert-adv-y="1000"  />

      
      <glyph glyph-name="uniaa" unicode="&#xaa;" d="M170 383Q133 383 107.50 411.50Q82 440 82 495Q82 552 100.50 604Q119 656 154.50 689Q190 722 243 722Q274 722 292 707Q310 692 318 672L322 672L340 716L385 716L316 389L269 389L276 445L273 445Q254 419 230 401Q206 383 170 383M189 436Q217 436 237.50 453.50Q258 471 272 497.50Q286 524 293 553.50Q300 583 300 607Q300 636 286.50 653Q273 670 245 670Q213 670 189.50 645Q166 620 153.50 581Q141 542 141 502Q141 468 153.50 452Q166 436 189 436Z"  horiz-adv-x="339" vert-adv-y="1000"  />

      
      <glyph glyph-name="uniab" unicode="&#xab;" d="M154 54L42 271L42 284L234 471L277 428L133 268L215 80L154 54M344 54L239 251L239 265L420 466L467 428L329 251L405 80L344 54Z"  horiz-adv-x="477" vert-adv-y="1000"  />

      
      <glyph glyph-name="uniac" unicode="&#xac;" d="M540 388L540 128L469 128L469 317L70 317L70 388L540 388Z"  horiz-adv-x="572" vert-adv-y="1000"  />

      
      <glyph glyph-name="uniad" unicode="&#xad;" d="M26 227L44 308L280 308L262 227L26 227Z"  horiz-adv-x="313" vert-adv-y="1000"  />

      
      <glyph glyph-name="uniae" unicode="&#xae;" d="M416-10Q336-10 269 17Q202 44 152.50 93.50Q103 143 76 210Q49 277 49 357Q49 437 76 504Q103 571 152.50 620.50Q202 670 269 697Q336 724 416 724Q492 724 558.50 697Q625 670 675.50 620.50Q726 571 754.50 504Q783 437 783 357Q783 277 756 210Q729 143 679.50 93.50Q630 44 563 17Q496-10 416-10M416 43Q480 43 536 66Q592 89 635 131.50Q678 174 702 231Q726 288 726 357Q726 422 703 479Q680 536 638.50 579Q597 622 540.50 646.50Q484 671 416 671Q326 671 255.50 630.50Q185 590 145 519Q105 448 105 357Q105 292 128 235Q151 178 192.50 135Q234 92 291 67.50Q348 43 416 43M279 138L279 575L407 575Q489 575 527 542.50Q565 510 565 446Q565 399 541 371.50Q517 344 487 332L603 138L517 138L417 311L355 311L355 138L279 138M355 373L405 373Q444 373 466 392.50Q488 412 488 444Q488 479 468 495Q448 511 404 511L355 511L355 373Z"  horiz-adv-x="832" vert-adv-y="1000"  />

      
      <glyph glyph-name="uniaf" unicode="&#xaf;" d="M101 760L117 827L512 827L495 760L101 760Z"  horiz-adv-x="393" vert-adv-y="1000"  />

      
      <glyph glyph-name="unib0" unicode="&#xb0;" d="M214 417Q142 417 98.50 459.50Q55 502 55 570Q55 638 97.50 681Q140 724 214 724Q284 724 328.50 681Q373 638 373 570Q373 502 328.50 459.50Q284 417 214 417M215 476Q263 476 285.50 502Q308 528 308 570Q308 614 284.50 640Q261 666 215 666Q166 666 143 640Q120 614 120 570Q120 528 143 502Q166 476 215 476Z"  horiz-adv-x="428" vert-adv-y="1000"  />

      
      <glyph glyph-name="unib1" unicode="&#xb1;" d="M341 391L540 391L540 320L341 320L341 114L269 114L269 320L70 320L70 391L269 391L269 598L341 598L341 391M70 0L70 71L541 71L541 0L70 0Z"  horiz-adv-x="572" vert-adv-y="1000"  />

      
      <glyph glyph-name="unib2" unicode="&#xb2;" d="M71 416L83 471L212 581Q272 633 300 667Q328 701 328 740Q328 765 313.50 780Q299 795 271 795Q224 795 176 756L145 803Q176 828 209.50 840.50Q243 853 283 853Q324 853 349.50 838Q375 823 386.50 799.50Q398 776 398 751Q398 718 386.50 690Q375 662 348 632Q321 602 275 564L171 477L362 477L349 416L71 416Z"  horiz-adv-x="353" vert-adv-y="1000"  />

      
      <glyph glyph-name="unib3" unicode="&#xb3;" d="M196 409Q163 409 133.50 416.50Q104 424 81 436L81 501Q107 486 138 476Q169 466 198 466Q248 466 272.50 488Q297 510 297 547Q297 611 213 611L167 611L179 666L225 666Q271 666 299 685Q327 704 327 739Q327 798 263 796Q237 795 214.50 786.50Q192 778 171 763L143 811Q166 829 200 841.50Q234 854 276 854Q336 854 366 825Q396 796 396 753Q396 708 369 680.50Q342 653 294 640L294 636Q328 628 347 603.50Q366 579 366 545Q366 487 324.50 448Q283 409 196 409Z"  horiz-adv-x="353" vert-adv-y="1000"  />

      
      <glyph glyph-name="unib4" unicode="&#xb4;" d="M115 606L115 619Q132 638 153 664Q174 690 193 717Q212 744 227 766L327 766L327 756Q313 738 285.50 709.50Q258 681 227 652.50Q196 624 170 606L115 606Z"  horiz-adv-x="263" vert-adv-y="1000"  />

      
      <glyph glyph-name="uni03BC" unicode="&#x03BC;" d="M-22-240L142 536L230 536L159 199Q150 156 150 134Q150 100 166.50 81.50Q183 63 220 63Q254 63 292.50 86.50Q331 110 365.50 163Q400 216 419 303L470 536L556 536L442 0L370 0L381 99L376 99Q356 74 331 48.50Q306 23 273 6.50Q240-10 199-10Q144-10 120 36L116 36Q114 22 110-2Q106-26 102-49Q98-72 96-86L64-240L-22-240Z"  horiz-adv-x="585" vert-adv-y="1000"  />

      
      <glyph glyph-name="unib6" unicode="&#xb6;" d="M371-127L371 273Q341 264 300 264Q238 264 192 287Q146 310 120.50 364Q95 418 95 509Q95 604 122.50 659Q150 714 199.50 737Q249 760 315 760L589 760L589-127L531-127L531 682L429 682L429-127L371-127Z"  horiz-adv-x="655" vert-adv-y="1000"  />

      
      <glyph glyph-name="unib7" unicode="&#xb7;" d="M133 285Q81 285 81 337Q81 370 99.50 395Q118 420 158 420Q180 420 193.50 406.50Q207 393 207 367Q207 336 189 310.50Q171 285 133 285Z"  horiz-adv-x="256" vert-adv-y="1000"  />

      
      <glyph glyph-name="unib8" unicode="&#xb8;" d="M-40-240Q-67-240-85-235L-85-183Q-75-185-65.50-186Q-56-187-49-187Q33-187 33-134Q33-112 14.50-102Q-4-92-34-88L14 0L70 0L41-57Q64-64 84.50-80.50Q105-97 105-134Q105-179 67.50-209.50Q30-240-40-240Z"  horiz-adv-x="205" vert-adv-y="1000"  />

      
      <glyph glyph-name="unib9" unicode="&#xb9;" d="M190 415L243 666Q248 691 256.50 722.50Q265 754 271 775Q263 768 251.50 757.50Q240 747 228 738L176 704L148 751L290 843L352 843L261 415L190 415Z"  horiz-adv-x="353" vert-adv-y="1000"  />

      
      <glyph glyph-name="uniba" unicode="&#xba;" d="M208 383Q156 383 121 415.50Q86 448 86 514Q86 566 104.50 613.50Q123 661 159.50 691.50Q196 722 251 722Q314 722 342.50 686Q371 650 371 594Q371 542 354 494Q337 446 301.50 414.50Q266 383 208 383M213 435Q246 435 268.50 457.50Q291 480 302 516Q313 552 313 591Q313 632 295.50 650.50Q278 669 249 669Q214 669 191 647.50Q168 626 156.50 591Q145 556 145 516Q145 476 163 455.50Q181 435 213 435Z"  horiz-adv-x="339" vert-adv-y="1000"  />

      
      <glyph glyph-name="unibb" unicode="&#xbb;" d="M243 54L200 97L344 256L262 445L323 471L435 253L435 239L243 54M57 60L10 97L148 272L72 445L133 471L238 273L238 258L57 60Z"  horiz-adv-x="477" vert-adv-y="1000"  />

      
      <glyph glyph-name="unibc" unicode="&#xbc;" d="M86 0L616 714L695 714L165 0L86 0M159 286L212 537Q217 562 225.50 593.50Q234 625 240 646Q232 639 220.50 628.50Q209 618 197 609L145 575L117 622L259 714L321 714L230 286L159 286M536 1L556 98L378 98L389 150L624 432L695 432L636 157L697 157L686 98L623 98L603 1L536 1M461 157L569 157L589 249Q595 275 600 298.50Q605 322 612 346Q608 339 598.50 325.50Q589 312 578 298Q567 284 559 275L461 157Z"  horiz-adv-x="732" vert-adv-y="1000"  />

      
      <glyph glyph-name="unibd" unicode="&#xbd;" d="M88 0L618 714L697 714L167 0L88 0M159 286L212 537Q217 562 225.50 593.50Q234 625 240 646Q232 639 220.50 628.50Q209 618 197 609L145 575L117 622L259 714L321 714L230 286L159 286M435 1L447 56L576 166Q636 218 664 252Q692 286 692 325Q692 350 677.50 365Q663 380 635 380Q588 380 540 341L509 388Q540 413 573.50 425.50Q607 438 647 438Q688 438 713.50 423Q739 408 750.50 384.50Q762 361 762 336Q762 303 750.50 275Q739 247 712 217Q685 187 639 149L535 62L726 62L713 1L435 1Z"  horiz-adv-x="805" vert-adv-y="1000"  />

      
      <glyph glyph-name="unibe" unicode="&#xbe;" d="M170 279Q137 279 107.50 286.50Q78 294 55 306L55 371Q81 356 112 346Q143 336 172 336Q222 336 246.50 358Q271 380 271 417Q271 481 187 481L141 481L153 536L199 536Q245 536 273 555Q301 574 301 609Q301 668 237 666Q211 665 188.50 656.50Q166 648 145 633L117 681Q140 699 174 711.50Q208 724 250 724Q310 724 340 695Q370 666 370 623Q370 578 343 550.50Q316 523 268 510L268 506Q302 498 321 473.50Q340 449 340 415Q340 357 298.50 318Q257 279 170 279M150 0L680 714L759 714L229 0L150 0M597 0L617 97L439 97L450 149L685 431L756 431L697 156L758 156L747 97L684 97L664 0L597 0M522 156L630 156L650 248Q656 274 661 297.50Q666 321 673 345Q669 338 659.50 324.50Q650 311 639 297Q628 283 620 274L522 156Z"  horiz-adv-x="793" vert-adv-y="1000"  />

      
      <glyph glyph-name="unibf" unicode="&#xbf;" d="M306 330Q299 287 285.50 255Q272 223 248.50 196Q225 169 189 140Q157 115 129.50 92Q102 69 85 41Q68 13 68-25Q68-69 92-93Q116-117 162-117Q200-117 236.50-104.50Q273-92 306-76L338-143Q297-165 248-179Q199-193 152-193Q73-193 26-154Q-21-115-21-36Q-21 31 15.50 81Q52 131 122 183Q161 211 182.50 231Q204 251 215.50 273Q227 295 235 330L306 330M304 545Q356 545 356 493Q356 460 337.50 435Q319 410 279 410Q257 410 243.50 423.50Q230 437 230 463Q230 494 248.50 519.50Q267 545 304 545Z"  horiz-adv-x="430" vert-adv-y="1000"  />

      
      <glyph glyph-name="unic0" unicode="&#xc0;" d="M-57 0L331 714L425 714L513 0L425 0L398 222L157 222L41 0L-57 0M200 302L389 302L373 452Q369 490 365.50 536Q362 582 361 617L358 617Q342 579 321 535.50Q300 492 277 448L200 302M394 784Q375 803 353.50 830Q332 857 313 885Q294 913 284 934L284 944L378 944Q389 907 408.50 868.50Q428 830 448 796L448 784L394 784Z"  horiz-adv-x="562" vert-adv-y="1000"  />

      
      <glyph glyph-name="unic1" unicode="&#xc1;" d="M-57 0L331 714L425 714L513 0L425 0L398 222L157 222L41 0L-57 0M200 302L389 302L373 452Q369 490 365.50 536Q362 582 361 617L358 617Q342 579 321 535.50Q300 492 277 448L200 302M338 784L338 797Q355 816 376 842Q397 868 416 895Q435 922 450 944L550 944L550 934Q536 916 508.50 887.50Q481 859 450 830.50Q419 802 393 784L338 784Z"  horiz-adv-x="562" vert-adv-y="1000"  />

      
      <glyph glyph-name="unic2" unicode="&#xc2;" d="M-57 0L331 714L425 714L513 0L425 0L398 222L157 222L41 0L-57 0M200 302L389 302L373 452Q369 490 365.50 536Q362 582 361 617L358 617Q342 579 321 535.50Q300 492 277 448L200 302M227 784L227 797Q244 812 272 838.50Q300 865 326.50 893.50Q353 922 367 944L452 944Q467 905 492 865.50Q517 826 536 797L536 784L481 784Q463 800 442.50 824Q422 848 402 875Q372 848 341.50 824.50Q311 801 285 784L227 784Z"  horiz-adv-x="562" vert-adv-y="1000"  />

      
      <glyph glyph-name="unic3" unicode="&#xc3;" d="M-57 0L331 714L425 714L513 0L425 0L398 222L157 222L41 0L-57 0M200 302L389 302L373 452Q369 490 365.50 536Q362 582 361 617L358 617Q342 579 321 535.50Q300 492 277 448L200 302M221 784Q235 846 264 879Q293 912 336 912Q365 912 390 898Q415 884 436 870.50Q457 857 474 857Q496 857 508 870Q520 883 532 913L585 913Q569 851 540 818Q511 785 468 785Q441 785 417.50 798.50Q394 812 372.50 826Q351 840 329 840Q308 840 295.50 826Q283 812 273 784L221 784Z"  horiz-adv-x="562" vert-adv-y="1000"  />

      
      <glyph glyph-name="unic4" unicode="&#xc4;" d="M-57 0L331 714L425 714L513 0L425 0L398 222L157 222L41 0L-57 0M200 302L389 302L373 452Q369 490 365.50 536Q362 582 361 617L358 617Q342 579 321 535.50Q300 492 277 448L200 302M487 809Q469 809 457 820Q445 831 445 851Q445 874 459 891Q473 908 498 908Q518 908 528 897Q538 886 538 868Q538 840 522 824.50Q506 809 487 809M308 809Q289 809 277 820Q265 831 265 851Q265 874 279 891Q293 908 318 908Q339 908 348.50 897Q358 886 358 868Q358 840 342.50 824.50Q327 809 308 809Z"  horiz-adv-x="562" vert-adv-y="1000"  />

      
      <glyph glyph-name="unic5" unicode="&#xc5;" d="M-57 0L331 714L425 714L513 0L425 0L398 222L157 222L41 0L-57 0M200 302L389 302L373 452Q369 490 365.50 536Q362 582 361 617L358 617Q342 579 321 535.50Q300 492 277 448L200 302M396 784Q348 784 318 811.50Q288 839 288 889Q288 938 320 965.50Q352 993 396 993Q444 993 474.50 966Q505 939 505 890Q505 839 474 811.50Q443 784 396 784M396 834Q421 834 436.50 849Q452 864 452 889Q452 914 436.50 929Q421 944 396 944Q373 944 357 929Q341 914 341 889Q341 864 355.50 849Q370 834 396 834Z"  horiz-adv-x="562" vert-adv-y="1000"  />

      
      <glyph glyph-name="unic6" unicode="&#xc6;" d="M-58 0L399 714L864 714L848 635L574 635L526 412L782 412L767 334L511 334L457 79L730 79L713 0L350 0L397 222L183 222L44 0L-58 0M234 302L413 302L484 635L443 635L234 302Z"  horiz-adv-x="824" vert-adv-y="1000"  />

      
      <glyph glyph-name="unic7" unicode="&#xc7;" d="M326-10Q207-10 139.50 63Q72 136 72 263Q72 327 87 393Q102 459 132.50 518Q163 577 209.50 623.50Q256 670 318 697Q380 724 458 724Q558 724 632 684L596 610Q569 624 535.50 634.50Q502 645 458 645Q383 645 328.50 611.50Q274 578 238 522.50Q202 467 184.50 399.50Q167 332 167 265Q167 174 213.50 121.50Q260 69 342 69Q383 69 422.50 77Q462 85 500 98L500 20Q461 6 421.50-2Q382-10 326-10M234-240Q207-240 189-235L189-183Q199-185 208.50-186Q218-187 225-187Q307-187 307-134Q307-112 288.50-102Q270-92 240-88L288 0L344 0L315-57Q338-64 358.50-80.50Q379-97 379-134Q379-179 341.50-209.50Q304-240 234-240Z"  horiz-adv-x="587" vert-adv-y="1000"  />

      
      <glyph glyph-name="unic8" unicode="&#xc8;" d="M41 0L192 714L554 714L537 635L264 635L217 412L472 412L457 334L201 334L146 79L420 79L403 0L41 0M388 784Q369 803 347.50 830Q326 857 307 885Q288 913 278 934L278 944L372 944Q383 907 402.50 868.50Q422 830 442 796L442 784L388 784Z"  horiz-adv-x="514" vert-adv-y="1000"  />

      
      <glyph glyph-name="unic9" unicode="&#xc9;" d="M41 0L192 714L554 714L537 635L264 635L217 412L472 412L457 334L201 334L146 79L420 79L403 0L41 0M332 784L332 797Q349 816 370 842Q391 868 410 895Q429 922 444 944L544 944L544 934Q530 916 502.50 887.50Q475 859 444 830.50Q413 802 387 784L332 784Z"  horiz-adv-x="514" vert-adv-y="1000"  />

      
      <glyph glyph-name="unica" unicode="&#xca;" d="M41 0L192 714L554 714L537 635L264 635L217 412L472 412L457 334L201 334L146 79L420 79L403 0L41 0M221 784L221 797Q238 812 266 838.50Q294 865 320.50 893.50Q347 922 361 944L446 944Q461 905 486 865.50Q511 826 530 797L530 784L475 784Q457 800 436.50 824Q416 848 396 875Q366 848 335.50 824.50Q305 801 279 784L221 784Z"  horiz-adv-x="514" vert-adv-y="1000"  />

      
      <glyph glyph-name="unicb" unicode="&#xcb;" d="M41 0L192 714L554 714L537 635L264 635L217 412L472 412L457 334L201 334L146 79L420 79L403 0L41 0M481 809Q463 809 451 820Q439 831 439 851Q439 874 453 891Q467 908 492 908Q512 908 522 897Q532 886 532 868Q532 840 516 824.50Q500 809 481 809M302 809Q283 809 271 820Q259 831 259 851Q259 874 273 891Q287 908 312 908Q333 908 342.50 897Q352 886 352 868Q352 840 336.50 824.50Q321 809 302 809Z"  horiz-adv-x="514" vert-adv-y="1000"  />

      
      <glyph glyph-name="unicc" unicode="&#xcc;" d="M-20 0L-10 49L75 69L197 645L121 664L131 714L381 714L371 664L285 645L163 69L240 49L230 0L-20 0M275 784Q256 803 234.50 830Q213 857 194 885Q175 913 165 934L165 944L259 944Q270 907 289.50 868.50Q309 830 329 796L329 784L275 784Z"  horiz-adv-x="324" vert-adv-y="1000"  />

      
      <glyph glyph-name="unicd" unicode="&#xcd;" d="M-20 0L-10 49L75 69L197 645L121 664L131 714L381 714L371 664L285 645L163 69L240 49L230 0L-20 0M219 784L219 797Q236 816 257 842Q278 868 297 895Q316 922 331 944L431 944L431 934Q417 916 389.50 887.50Q362 859 331 830.50Q300 802 274 784L219 784Z"  horiz-adv-x="324" vert-adv-y="1000"  />

      
      <glyph glyph-name="unice" unicode="&#xce;" d="M-20 0L-10 49L75 69L197 645L121 664L131 714L381 714L371 664L285 645L163 69L240 49L230 0L-20 0M108 784L108 797Q125 812 153 838.50Q181 865 207.50 893.50Q234 922 248 944L333 944Q348 905 373 865.50Q398 826 417 797L417 784L362 784Q344 800 323.50 824Q303 848 283 875Q253 848 222.50 824.50Q192 801 166 784L108 784Z"  horiz-adv-x="324" vert-adv-y="1000"  />

      
      <glyph glyph-name="unicf" unicode="&#xcf;" d="M-20 0L-10 49L75 69L197 645L121 664L131 714L381 714L371 664L285 645L163 69L240 49L230 0L-20 0M368 809Q350 809 338 820Q326 831 326 851Q326 874 340 891Q354 908 379 908Q399 908 409 897Q419 886 419 868Q419 840 403 824.50Q387 809 368 809M189 809Q170 809 158 820Q146 831 146 851Q146 874 160 891Q174 908 199 908Q220 908 229.50 897Q239 886 239 868Q239 840 223.50 824.50Q208 809 189 809Z"  horiz-adv-x="324" vert-adv-y="1000"  />

      
      <glyph glyph-name="unid0" unicode="&#xd0;" d="M41 0L106 315L33 315L50 392L123 392L192 714L361 714Q490 714 563 644Q636 574 636 429Q636 305 587.50 208Q539 111 445.50 55.50Q352 0 217 0L41 0M146 77L222 77Q326 77 397 124Q468 171 505 250.50Q542 330 542 430Q542 540 489.50 588.50Q437 637 350 637L265 637L213 392L370 392L353 315L196 315L146 77Z"  horiz-adv-x="667" vert-adv-y="1000"  />

      
      <glyph glyph-name="unid1" unicode="&#xd1;" d="M40 0L191 714L286 714L505 124L508 124Q512 160 522 215.50Q532 271 543 321L627 714L712 714L561 0L466 0L245 592L242 592Q240 571 234.50 537Q229 503 221.50 463.50Q214 424 206 388L124 0L40 0M299 784Q313 846 342 879Q371 912 414 912Q443 912 468 898Q493 884 514 870.50Q535 857 552 857Q574 857 586 870Q598 883 610 913L663 913Q647 851 618 818Q589 785 546 785Q519 785 495.50 798.50Q472 812 450.50 826Q429 840 407 840Q386 840 373.50 826Q361 812 351 784L299 784Z"  horiz-adv-x="707" vert-adv-y="1000"  />

      
      <glyph glyph-name="unid2" unicode="&#xd2;" d="M337-10Q209-10 140.50 64.50Q72 139 72 267Q72 359 96.50 442Q121 525 168 588.50Q215 652 282 688.50Q349 725 433 725Q554 725 622 649.50Q690 574 690 444Q690 351 667.50 269Q645 187 600.50 124.50Q556 62 490 26Q424-10 337-10M340 69Q400 69 447 99Q494 129 527 181.50Q560 234 577.50 302Q595 370 595 446Q595 541 550 593.50Q505 646 427 646Q367 646 319 616.50Q271 587 237 535.50Q203 484 185 415.50Q167 347 167 269Q167 174 213 121.50Q259 69 340 69M474 784Q455 803 433.50 830Q412 857 393 885Q374 913 364 934L364 944L458 944Q469 907 488.50 868.50Q508 830 528 796L528 784L474 784Z"  horiz-adv-x="721" vert-adv-y="1000"  />

      
      <glyph glyph-name="unid3" unicode="&#xd3;" d="M337-10Q209-10 140.50 64.50Q72 139 72 267Q72 359 96.50 442Q121 525 168 588.50Q215 652 282 688.50Q349 725 433 725Q554 725 622 649.50Q690 574 690 444Q690 351 667.50 269Q645 187 600.50 124.50Q556 62 490 26Q424-10 337-10M340 69Q400 69 447 99Q494 129 527 181.50Q560 234 577.50 302Q595 370 595 446Q595 541 550 593.50Q505 646 427 646Q367 646 319 616.50Q271 587 237 535.50Q203 484 185 415.50Q167 347 167 269Q167 174 213 121.50Q259 69 340 69M418 784L418 797Q435 816 456 842Q477 868 496 895Q515 922 530 944L630 944L630 934Q616 916 588.50 887.50Q561 859 530 830.50Q499 802 473 784L418 784Z"  horiz-adv-x="721" vert-adv-y="1000"  />

      
      <glyph glyph-name="unid4" unicode="&#xd4;" d="M337-10Q209-10 140.50 64.50Q72 139 72 267Q72 359 96.50 442Q121 525 168 588.50Q215 652 282 688.50Q349 725 433 725Q554 725 622 649.50Q690 574 690 444Q690 351 667.50 269Q645 187 600.50 124.50Q556 62 490 26Q424-10 337-10M340 69Q400 69 447 99Q494 129 527 181.50Q560 234 577.50 302Q595 370 595 446Q595 541 550 593.50Q505 646 427 646Q367 646 319 616.50Q271 587 237 535.50Q203 484 185 415.50Q167 347 167 269Q167 174 213 121.50Q259 69 340 69M307 784L307 797Q324 812 352 838.50Q380 865 406.50 893.50Q433 922 447 944L532 944Q547 905 572 865.50Q597 826 616 797L616 784L561 784Q543 800 522.50 824Q502 848 482 875Q452 848 421.50 824.50Q391 801 365 784L307 784Z"  horiz-adv-x="721" vert-adv-y="1000"  />

      
      <glyph glyph-name="unid5" unicode="&#xd5;" d="M337-10Q209-10 140.50 64.50Q72 139 72 267Q72 359 96.50 442Q121 525 168 588.50Q215 652 282 688.50Q349 725 433 725Q554 725 622 649.50Q690 574 690 444Q690 351 667.50 269Q645 187 600.50 124.50Q556 62 490 26Q424-10 337-10M340 69Q400 69 447 99Q494 129 527 181.50Q560 234 577.50 302Q595 370 595 446Q595 541 550 593.50Q505 646 427 646Q367 646 319 616.50Q271 587 237 535.50Q203 484 185 415.50Q167 347 167 269Q167 174 213 121.50Q259 69 340 69M301 784Q315 846 344 879Q373 912 416 912Q445 912 470 898Q495 884 516 870.50Q537 857 554 857Q576 857 588 870Q600 883 612 913L665 913Q649 851 620 818Q591 785 548 785Q521 785 497.50 798.50Q474 812 452.50 826Q431 840 409 840Q388 840 375.50 826Q363 812 353 784L301 784Z"  horiz-adv-x="721" vert-adv-y="1000"  />

      
      <glyph glyph-name="unid6" unicode="&#xd6;" d="M337-10Q209-10 140.50 64.50Q72 139 72 267Q72 359 96.50 442Q121 525 168 588.50Q215 652 282 688.50Q349 725 433 725Q554 725 622 649.50Q690 574 690 444Q690 351 667.50 269Q645 187 600.50 124.50Q556 62 490 26Q424-10 337-10M340 69Q400 69 447 99Q494 129 527 181.50Q560 234 577.50 302Q595 370 595 446Q595 541 550 593.50Q505 646 427 646Q367 646 319 616.50Q271 587 237 535.50Q203 484 185 415.50Q167 347 167 269Q167 174 213 121.50Q259 69 340 69M567 809Q549 809 537 820Q525 831 525 851Q525 874 539 891Q553 908 578 908Q598 908 608 897Q618 886 618 868Q618 840 602 824.50Q586 809 567 809M388 809Q369 809 357 820Q345 831 345 851Q345 874 359 891Q373 908 398 908Q419 908 428.50 897Q438 886 438 868Q438 840 422.50 824.50Q407 809 388 809Z"  horiz-adv-x="721" vert-adv-y="1000"  />

      
      <glyph glyph-name="unid7" unicode="&#xd7;" d="M476 574L526 523L356 353L525 183L475 132L304 301L137 132L85 183L254 353L84 522L136 574L305 403L476 574Z"  horiz-adv-x="572" vert-adv-y="1000"  />

      
      <glyph glyph-name="unid8" unicode="&#xd8;" d="M114-41L57 5L123 87Q97 122 84.50 168Q72 214 72 267Q72 359 96.50 442Q121 525 168 588.50Q215 652 282 688.50Q349 725 433 725Q526 725 593 673L656 752L714 706L642 618Q665 587 677.50 541.50Q690 496 690 444Q690 351 667.50 269Q645 187 600.50 124.50Q556 62 490 26Q424-10 337-10Q241-10 176 36L114-41M185 164L538 606Q517 626 489.50 636.50Q462 647 427 647Q367 647 319 617.50Q271 588 236.50 536Q202 484 184 415.50Q166 347 166 269Q166 208 185 164M340 69Q400 69 447.50 99Q495 129 528 181.50Q561 234 578.50 302Q596 370 596 446Q596 473 592 497Q588 521 581 540L229 103Q249 87 277.50 78Q306 69 340 69Z"  horiz-adv-x="721" vert-adv-y="1000"  />

      
      <glyph glyph-name="unid9" unicode="&#xd9;" d="M300-10Q188-10 133.50 41.50Q79 93 79 188Q79 205 82 229.50Q85 254 91 283L183 714L272 714L179 278Q174 255 171 230Q168 205 168 189Q168 133 202.50 101Q237 69 305 69Q394 69 437 115Q480 161 500 250L599 714L688 714L588 243Q572 165 537.50 108Q503 51 445 20.50Q387-10 300-10M452 784Q433 803 411.50 830Q390 857 371 885Q352 913 342 934L342 944L436 944Q447 907 466.50 868.50Q486 830 506 796L506 784L452 784Z"  horiz-adv-x="677" vert-adv-y="1000"  />

      
      <glyph glyph-name="unida" unicode="&#xda;" d="M300-10Q188-10 133.50 41.50Q79 93 79 188Q79 205 82 229.50Q85 254 91 283L183 714L272 714L179 278Q174 255 171 230Q168 205 168 189Q168 133 202.50 101Q237 69 305 69Q394 69 437 115Q480 161 500 250L599 714L688 714L588 243Q572 165 537.50 108Q503 51 445 20.50Q387-10 300-10M396 784L396 797Q413 816 434 842Q455 868 474 895Q493 922 508 944L608 944L608 934Q594 916 566.50 887.50Q539 859 508 830.50Q477 802 451 784L396 784Z"  horiz-adv-x="677" vert-adv-y="1000"  />

      
      <glyph glyph-name="unidb" unicode="&#xdb;" d="M300-10Q188-10 133.50 41.50Q79 93 79 188Q79 205 82 229.50Q85 254 91 283L183 714L272 714L179 278Q174 255 171 230Q168 205 168 189Q168 133 202.50 101Q237 69 305 69Q394 69 437 115Q480 161 500 250L599 714L688 714L588 243Q572 165 537.50 108Q503 51 445 20.50Q387-10 300-10M285 784L285 797Q302 812 330 838.50Q358 865 384.50 893.50Q411 922 425 944L510 944Q525 905 550 865.50Q575 826 594 797L594 784L539 784Q521 800 500.50 824Q480 848 460 875Q430 848 399.50 824.50Q369 801 343 784L285 784Z"  horiz-adv-x="677" vert-adv-y="1000"  />

      
      <glyph glyph-name="unidc" unicode="&#xdc;" d="M300-10Q188-10 133.50 41.50Q79 93 79 188Q79 205 82 229.50Q85 254 91 283L183 714L272 714L179 278Q174 255 171 230Q168 205 168 189Q168 133 202.50 101Q237 69 305 69Q394 69 437 115Q480 161 500 250L599 714L688 714L588 243Q572 165 537.50 108Q503 51 445 20.50Q387-10 300-10M545 809Q527 809 515 820Q503 831 503 851Q503 874 517 891Q531 908 556 908Q576 908 586 897Q596 886 596 868Q596 840 580 824.50Q564 809 545 809M366 809Q347 809 335 820Q323 831 323 851Q323 874 337 891Q351 908 376 908Q397 908 406.50 897Q416 886 416 868Q416 840 400.50 824.50Q385 809 366 809Z"  horiz-adv-x="677" vert-adv-y="1000"  />

      
      <glyph glyph-name="unidd" unicode="&#xdd;" d="M150 0L208 268L92 714L181 714L266 356L500 714L601 714L295 265L240 0L150 0M312 784L312 797Q329 816 350 842Q371 868 390 895Q409 922 424 944L524 944L524 934Q510 916 482.50 887.50Q455 859 424 830.50Q393 802 367 784L312 784Z"  horiz-adv-x="509" vert-adv-y="1000"  />

      
      <glyph glyph-name="unide" unicode="&#xde;" d="M41 0L192 714L281 714L255 590L327 590Q442 590 492 539Q542 488 542 404Q542 283 461 219Q380 155 226 155L163 155L130 0L41 0M178 231L241 231Q336 231 393 271.50Q450 312 450 401Q450 461 416.50 487Q383 513 315 513L238 513L178 231Z"  horiz-adv-x="567" vert-adv-y="1000"  />

      
      <glyph glyph-name="unidf" unicode="&#xdf;" d="M-64-240Q-100-240-125-230L-125-155Q-100-166-71-166Q-40-166-19-143Q2-120 13-68L149 570Q170 668 226 716.50Q282 765 379 765Q457 765 504 730.50Q551 696 551 632Q551 580 521 545Q491 510 454 482Q422 459 396.50 437Q371 415 371 388Q371 373 382.50 359.50Q394 346 409 335Q424 324 434 316Q472 284 495 252Q518 220 518 173Q518 109 490 68.50Q462 28 417 9Q372-10 319-10Q274-10 241-0.50Q208 9 187 25L187 106Q208 90 241 76Q274 62 308 62Q368 62 398 91.50Q428 121 428 163Q428 196 413 217Q398 238 363 266Q321 298 303 325Q285 352 285 383Q285 417 299 441.50Q313 466 334.50 484Q356 502 380 519Q413 542 439 566.50Q465 591 465 626Q465 658 439 675.50Q413 693 371 693Q313 693 281 662Q249 631 236 570L103-62Q85-145 47.50-192.50Q10-240-64-240Z"  horiz-adv-x="584" vert-adv-y="1000"  />

      
      <glyph glyph-name="unie0" unicode="&#xe0;" d="M193-10Q128-10 88 36.50Q48 83 48 173Q48 248 67.50 315.50Q87 383 122 434.50Q157 486 205 516Q253 546 311 546Q364 546 397 518Q430 490 446 453L451 453L483 536L550 536L436 0L366 0L379 99L375 99Q340 55 294.50 22.50Q249-10 193-10M222 63Q258 63 294 90Q330 117 358.50 162.50Q387 208 403 266Q410 294 413 319Q416 344 416 365Q416 412 390 442Q364 472 320 472Q281 472 248 447.50Q215 423 190 380.50Q165 338 151.50 284Q138 230 138 171Q138 117 160 90Q182 63 222 63M359 606Q340 625 318.50 652Q297 679 278 707Q259 735 249 756L249 766L343 766Q354 729 373.50 690.50Q393 652 413 618L413 606L359 606Z"  horiz-adv-x="568" vert-adv-y="1000"  />

      
      <glyph glyph-name="unie1" unicode="&#xe1;" d="M193-10Q128-10 88 36.50Q48 83 48 173Q48 248 67.50 315.50Q87 383 122 434.50Q157 486 205 516Q253 546 311 546Q364 546 397 518Q430 490 446 453L451 453L483 536L550 536L436 0L366 0L379 99L375 99Q340 55 294.50 22.50Q249-10 193-10M222 63Q258 63 294 90Q330 117 358.50 162.50Q387 208 403 266Q410 294 413 319Q416 344 416 365Q416 412 390 442Q364 472 320 472Q281 472 248 447.50Q215 423 190 380.50Q165 338 151.50 284Q138 230 138 171Q138 117 160 90Q182 63 222 63M303 606L303 619Q320 638 341 664Q362 690 381 717Q400 744 415 766L515 766L515 756Q501 738 473.50 709.50Q446 681 415 652.50Q384 624 358 606L303 606Z"  horiz-adv-x="568" vert-adv-y="1000"  />

      
      <glyph glyph-name="unie2" unicode="&#xe2;" d="M193-10Q128-10 88 36.50Q48 83 48 173Q48 248 67.50 315.50Q87 383 122 434.50Q157 486 205 516Q253 546 311 546Q364 546 397 518Q430 490 446 453L451 453L483 536L550 536L436 0L366 0L379 99L375 99Q340 55 294.50 22.50Q249-10 193-10M222 63Q258 63 294 90Q330 117 358.50 162.50Q387 208 403 266Q410 294 413 319Q416 344 416 365Q416 412 390 442Q364 472 320 472Q281 472 248 447.50Q215 423 190 380.50Q165 338 151.50 284Q138 230 138 171Q138 117 160 90Q182 63 222 63M192 606L192 619Q209 634 237 660.50Q265 687 291.50 715.50Q318 744 332 766L417 766Q432 727 457 687.50Q482 648 501 619L501 606L446 606Q428 622 407.50 646Q387 670 367 697Q337 670 306.50 646.50Q276 623 250 606L192 606Z"  horiz-adv-x="568" vert-adv-y="1000"  />

      
      <glyph glyph-name="unie3" unicode="&#xe3;" d="M193-10Q128-10 88 36.50Q48 83 48 173Q48 248 67.50 315.50Q87 383 122 434.50Q157 486 205 516Q253 546 311 546Q364 546 397 518Q430 490 446 453L451 453L483 536L550 536L436 0L366 0L379 99L375 99Q340 55 294.50 22.50Q249-10 193-10M222 63Q258 63 294 90Q330 117 358.50 162.50Q387 208 403 266Q410 294 413 319Q416 344 416 365Q416 412 390 442Q364 472 320 472Q281 472 248 447.50Q215 423 190 380.50Q165 338 151.50 284Q138 230 138 171Q138 117 160 90Q182 63 222 63M186 606Q200 668 229 701Q258 734 301 734Q330 734 355 720Q380 706 401 692.50Q422 679 439 679Q461 679 473 692Q485 705 497 735L550 735Q534 673 505 640Q476 607 433 607Q406 607 382.50 620.50Q359 634 337.50 648Q316 662 294 662Q273 662 260.50 648Q248 634 238 606L186 606Z"  horiz-adv-x="568" vert-adv-y="1000"  />

      
      <glyph glyph-name="unie4" unicode="&#xe4;" d="M193-10Q128-10 88 36.50Q48 83 48 173Q48 248 67.50 315.50Q87 383 122 434.50Q157 486 205 516Q253 546 311 546Q364 546 397 518Q430 490 446 453L451 453L483 536L550 536L436 0L366 0L379 99L375 99Q340 55 294.50 22.50Q249-10 193-10M222 63Q258 63 294 90Q330 117 358.50 162.50Q387 208 403 266Q410 294 413 319Q416 344 416 365Q416 412 390 442Q364 472 320 472Q281 472 248 447.50Q215 423 190 380.50Q165 338 151.50 284Q138 230 138 171Q138 117 160 90Q182 63 222 63M452 631Q434 631 422 642Q410 653 410 673Q410 696 424 713Q438 730 463 730Q483 730 493 719Q503 708 503 690Q503 662 487 646.50Q471 631 452 631M273 631Q254 631 242 642Q230 653 230 673Q230 696 244 713Q258 730 283 730Q304 730 313.50 719Q323 708 323 690Q323 662 307.50 646.50Q292 631 273 631Z"  horiz-adv-x="568" vert-adv-y="1000"  />

      
      <glyph glyph-name="unie5" unicode="&#xe5;" d="M193-10Q128-10 88 36.50Q48 83 48 173Q48 248 67.50 315.50Q87 383 122 434.50Q157 486 205 516Q253 546 311 546Q364 546 397 518Q430 490 446 453L451 453L483 536L550 536L436 0L366 0L379 99L375 99Q340 55 294.50 22.50Q249-10 193-10M222 63Q258 63 294 90Q330 117 358.50 162.50Q387 208 403 266Q410 294 413 319Q416 344 416 365Q416 412 390 442Q364 472 320 472Q281 472 248 447.50Q215 423 190 380.50Q165 338 151.50 284Q138 230 138 171Q138 117 160 90Q182 63 222 63M361 606Q313 606 283 633.50Q253 661 253 711Q253 760 285 787.50Q317 815 361 815Q409 815 439.50 788Q470 761 470 712Q470 661 439 633.50Q408 606 361 606M361 656Q386 656 401.50 671Q417 686 417 711Q417 736 401.50 751Q386 766 361 766Q338 766 322 751Q306 736 306 711Q306 686 320.50 671Q335 656 361 656Z"  horiz-adv-x="568" vert-adv-y="1000"  />

      
      <glyph glyph-name="unie6" unicode="&#xe6;" d="M177-10Q119-10 83.50 37Q48 84 48 172Q48 248 67.50 315.50Q87 383 121.50 435Q156 487 202.50 516.50Q249 546 303 546Q351 546 380 518Q409 490 425 453L430 453L463 536L519 536L505 467Q530 502 570.50 524Q611 546 665 546Q718 546 758 515.50Q798 485 798 421Q798 368 766 325.50Q734 283 665 257.50Q596 232 486 232L466 232Q465 223 464.50 213Q464 203 464 195Q464 134 494 98.50Q524 63 587 63Q624 63 658.50 75Q693 87 732 104L732 27Q692 9 653-0.50Q614-10 571-10Q518-10 478.50 9Q439 28 419 66L405 0L346 0L358 99L354 99Q314 50 273 20Q232-10 177-10M479 303L488 303Q548 303 599 313.50Q650 324 680.50 348Q711 372 711 412Q711 444 692.50 458.50Q674 473 648 473Q593 473 547.50 428.50Q502 384 479 303M206 63Q242 63 276.50 90Q311 117 339 163Q367 209 383 267Q390 295 393 319.50Q396 344 396 365Q396 412 374.50 442Q353 472 315 472Q278 472 246 447.50Q214 423 189.50 381Q165 339 151.50 285Q138 231 138 172Q138 117 156 90Q174 63 206 63Z"  horiz-adv-x="820" vert-adv-y="1000"  />

      
      <glyph glyph-name="unie7" unicode="&#xe7;" d="M247-10Q158-10 103 40Q48 90 48 190Q48 262 67.50 326.50Q87 391 123.50 440Q160 489 212 517.50Q264 546 328 546Q363 546 397.50 539Q432 532 461 520L436 447Q416 456 388.50 464Q361 472 329 472Q272 472 229 433.50Q186 395 162 331Q138 267 138 191Q138 130 169 96.50Q200 63 256 63Q291 63 322.50 72.50Q354 82 385 96L385 22Q357 8 322.50-1Q288-10 247-10M138-240Q111-240 93-235L93-183Q103-185 112.50-186Q122-187 129-187Q211-187 211-134Q211-112 192.50-102Q174-92 144-88L192 0L248 0L219-57Q242-64 262.50-80.50Q283-97 283-134Q283-179 245.50-209.50Q208-240 138-240Z"  horiz-adv-x="453" vert-adv-y="1000"  />

      
      <glyph glyph-name="unie8" unicode="&#xe8;" d="M242-10Q149-10 98.50 44.50Q48 99 48 192Q48 256 66.50 318.50Q85 381 120 432.50Q155 484 204.50 515Q254 546 316 546Q392 546 430.50 513Q469 480 469 421Q469 368 436.50 325.50Q404 283 335 257.50Q266 232 156 232L139 232Q138 223 137.50 213Q137 203 137 195Q137 134 166.50 98.50Q196 63 258 63Q296 63 330 73.50Q364 84 404 104L404 29Q366 12 329.50 1Q293-10 242-10M152 303L159 303Q219 303 270 313.50Q321 324 352 348.50Q383 373 383 414Q383 440 365.50 456.50Q348 473 311 473Q263 473 218.50 428.50Q174 384 152 303M332 606Q313 625 291.50 652Q270 679 251 707Q232 735 222 756L222 766L316 766Q327 729 346.50 690.50Q366 652 386 618L386 606L332 606Z"  horiz-adv-x="499" vert-adv-y="1000"  />

      
      <glyph glyph-name="unie9" unicode="&#xe9;" d="M242-10Q149-10 98.50 44.50Q48 99 48 192Q48 256 66.50 318.50Q85 381 120 432.50Q155 484 204.50 515Q254 546 316 546Q392 546 430.50 513Q469 480 469 421Q469 368 436.50 325.50Q404 283 335 257.50Q266 232 156 232L139 232Q138 223 137.50 213Q137 203 137 195Q137 134 166.50 98.50Q196 63 258 63Q296 63 330 73.50Q364 84 404 104L404 29Q366 12 329.50 1Q293-10 242-10M152 303L159 303Q219 303 270 313.50Q321 324 352 348.50Q383 373 383 414Q383 440 365.50 456.50Q348 473 311 473Q263 473 218.50 428.50Q174 384 152 303M276 606L276 619Q293 638 314 664Q335 690 354 717Q373 744 388 766L488 766L488 756Q474 738 446.50 709.50Q419 681 388 652.50Q357 624 331 606L276 606Z"  horiz-adv-x="499" vert-adv-y="1000"  />

      
      <glyph glyph-name="uniea" unicode="&#xea;" d="M242-10Q149-10 98.50 44.50Q48 99 48 192Q48 256 66.50 318.50Q85 381 120 432.50Q155 484 204.50 515Q254 546 316 546Q392 546 430.50 513Q469 480 469 421Q469 368 436.50 325.50Q404 283 335 257.50Q266 232 156 232L139 232Q138 223 137.50 213Q137 203 137 195Q137 134 166.50 98.50Q196 63 258 63Q296 63 330 73.50Q364 84 404 104L404 29Q366 12 329.50 1Q293-10 242-10M152 303L159 303Q219 303 270 313.50Q321 324 352 348.50Q383 373 383 414Q383 440 365.50 456.50Q348 473 311 473Q263 473 218.50 428.50Q174 384 152 303M165 606L165 619Q182 634 210 660.50Q238 687 264.50 715.50Q291 744 305 766L390 766Q405 727 430 687.50Q455 648 474 619L474 606L419 606Q401 622 380.50 646Q360 670 340 697Q310 670 279.50 646.50Q249 623 223 606L165 606Z"  horiz-adv-x="499" vert-adv-y="1000"  />

      
      <glyph glyph-name="unieb" unicode="&#xeb;" d="M242-10Q149-10 98.50 44.50Q48 99 48 192Q48 256 66.50 318.50Q85 381 120 432.50Q155 484 204.50 515Q254 546 316 546Q392 546 430.50 513Q469 480 469 421Q469 368 436.50 325.50Q404 283 335 257.50Q266 232 156 232L139 232Q138 223 137.50 213Q137 203 137 195Q137 134 166.50 98.50Q196 63 258 63Q296 63 330 73.50Q364 84 404 104L404 29Q366 12 329.50 1Q293-10 242-10M152 303L159 303Q219 303 270 313.50Q321 324 352 348.50Q383 373 383 414Q383 440 365.50 456.50Q348 473 311 473Q263 473 218.50 428.50Q174 384 152 303M425 631Q407 631 395 642Q383 653 383 673Q383 696 397 713Q411 730 436 730Q456 730 466 719Q476 708 476 690Q476 662 460 646.50Q444 631 425 631M246 631Q227 631 215 642Q203 653 203 673Q203 696 217 713Q231 730 256 730Q277 730 286.50 719Q296 708 296 690Q296 662 280.50 646.50Q265 631 246 631Z"  horiz-adv-x="499" vert-adv-y="1000"  />

      
      <glyph glyph-name="uniec" unicode="&#xec;" d="M28 0L142 536L230 536L116 0L28 0M204 606Q185 625 163.50 652Q142 679 123 707Q104 735 94 756L94 766L188 766Q199 729 218.50 690.50Q238 652 258 618L258 606L204 606Z"  horiz-adv-x="258" vert-adv-y="1000"  />

      
      <glyph glyph-name="unied" unicode="&#xed;" d="M28 0L142 536L230 536L116 0L28 0M148 606L148 619Q165 638 186 664Q207 690 226 717Q245 744 260 766L360 766L360 756Q346 738 318.50 709.50Q291 681 260 652.50Q229 624 203 606L148 606Z"  horiz-adv-x="258" vert-adv-y="1000"  />

      
      <glyph glyph-name="uniee" unicode="&#xee;" d="M28 0L142 536L230 536L116 0L28 0M37 606L37 619Q54 634 82 660.50Q110 687 136.50 715.50Q163 744 177 766L262 766Q277 727 302 687.50Q327 648 346 619L346 606L291 606Q273 622 252.50 646Q232 670 212 697Q182 670 151.50 646.50Q121 623 95 606L37 606Z"  horiz-adv-x="258" vert-adv-y="1000"  />

      
      <glyph glyph-name="unief" unicode="&#xef;" d="M28 0L142 536L230 536L116 0L28 0M297 631Q279 631 267 642Q255 653 255 673Q255 696 269 713Q283 730 308 730Q328 730 338 719Q348 708 348 690Q348 662 332 646.50Q316 631 297 631M118 631Q99 631 87 642Q75 653 75 673Q75 696 89 713Q103 730 128 730Q149 730 158.50 719Q168 708 168 690Q168 662 152.50 646.50Q137 631 118 631Z"  horiz-adv-x="258" vert-adv-y="1000"  />

      
      <glyph glyph-name="unif0" unicode="&#xf0;" d="M235-10Q146-10 94.50 40.50Q43 91 43 183Q43 260 74.50 326Q106 392 163 432.50Q220 473 298 473Q356 473 390 448.50Q424 424 439 392L442 393Q443 449 429 501.50Q415 554 372 606L242 534L213 588L327 651Q312 664 294.50 678Q277 692 257 705L304 765Q327 749 351.50 731.50Q376 714 398 691L524 761L556 708L441 644Q476 599 498.50 540Q521 481 521 398Q521 326 506.50 254Q492 182 459 122Q426 62 371 26Q316-10 235-10M240 63Q290 63 324 85.50Q358 108 378.50 143Q399 178 408 215Q417 252 417 280Q417 309 406 337Q395 365 369.50 383Q344 401 302 401Q242 401 205 369Q168 337 150.50 287Q133 237 133 184Q133 132 157.50 97.50Q182 63 240 63Z"  horiz-adv-x="570" vert-adv-y="1000"  />

      
      <glyph glyph-name="unif1" unicode="&#xf1;" d="M24-3L139 539L217 539L206 440Q225 464 251 489.50Q277 515 310.50 532Q344 549 388 549Q452 549 489 513.50Q526 478 526 414Q526 391 522.50 367Q519 343 515 325L444-3L350-3L422 337Q426 360 429 375.50Q432 391 432 405Q432 469 364 469Q330 469 291.50 445.50Q253 422 219.50 370Q186 318 168 230L118-3L24-3M194 606Q208 668 237 701Q266 734 309 734Q338 734 363 720Q388 706 409 692.50Q430 679 447 679Q469 679 481 692Q493 705 505 735L558 735Q542 673 513 640Q484 607 441 607Q414 607 390.50 620.50Q367 634 345.50 648Q324 662 302 662Q281 662 268.50 648Q256 634 246 606L194 606Z"  horiz-adv-x="579" vert-adv-y="1000"  />

      
      <glyph glyph-name="unif2" unicode="&#xf2;" d="M248-8Q155-8 101.50 47.50Q48 103 48 198Q48 260 65 321Q82 382 115.50 432Q149 482 199.50 512.50Q250 543 316 543Q410 543 463 487.50Q516 432 516 336Q516 275 499 214Q482 153 448.50 103Q415 53 365 22.50Q315-8 248-8M253 65Q300 65 339.50 98.50Q379 132 402.50 195Q426 258 426 346Q426 376 415.50 404.50Q405 433 381 451.50Q357 470 317 470Q262 470 221.50 432.50Q181 395 159 332.50Q137 270 137 195Q137 133 167.50 99Q198 65 253 65M340 606Q321 625 299.50 652Q278 679 259 707Q240 735 230 756L230 766L324 766Q335 729 354.50 690.50Q374 652 394 618L394 606L340 606Z"  horiz-adv-x="563" vert-adv-y="1000"  />

      
      <glyph glyph-name="unif3" unicode="&#xf3;" d="M248-8Q155-8 101.50 47.50Q48 103 48 198Q48 260 65 321Q82 382 115.50 432Q149 482 199.50 512.50Q250 543 316 543Q410 543 463 487.50Q516 432 516 336Q516 275 499 214Q482 153 448.50 103Q415 53 365 22.50Q315-8 248-8M253 65Q300 65 339.50 98.50Q379 132 402.50 195Q426 258 426 346Q426 376 415.50 404.50Q405 433 381 451.50Q357 470 317 470Q262 470 221.50 432.50Q181 395 159 332.50Q137 270 137 195Q137 133 167.50 99Q198 65 253 65M284 606L284 619Q301 638 322 664Q343 690 362 717Q381 744 396 766L496 766L496 756Q482 738 454.50 709.50Q427 681 396 652.50Q365 624 339 606L284 606Z"  horiz-adv-x="563" vert-adv-y="1000"  />

      
      <glyph glyph-name="unif4" unicode="&#xf4;" d="M248-8Q155-8 101.50 47.50Q48 103 48 198Q48 260 65 321Q82 382 115.50 432Q149 482 199.50 512.50Q250 543 316 543Q410 543 463 487.50Q516 432 516 336Q516 275 499 214Q482 153 448.50 103Q415 53 365 22.50Q315-8 248-8M253 65Q300 65 339.50 98.50Q379 132 402.50 195Q426 258 426 346Q426 376 415.50 404.50Q405 433 381 451.50Q357 470 317 470Q262 470 221.50 432.50Q181 395 159 332.50Q137 270 137 195Q137 133 167.50 99Q198 65 253 65M173 606L173 619Q190 634 218 660.50Q246 687 272.50 715.50Q299 744 313 766L398 766Q413 727 438 687.50Q463 648 482 619L482 606L427 606Q409 622 388.50 646Q368 670 348 697Q318 670 287.50 646.50Q257 623 231 606L173 606Z"  horiz-adv-x="563" vert-adv-y="1000"  />

      
      <glyph glyph-name="unif5" unicode="&#xf5;" d="M248-8Q155-8 101.50 47.50Q48 103 48 198Q48 260 65 321Q82 382 115.50 432Q149 482 199.50 512.50Q250 543 316 543Q410 543 463 487.50Q516 432 516 336Q516 275 499 214Q482 153 448.50 103Q415 53 365 22.50Q315-8 248-8M253 65Q300 65 339.50 98.50Q379 132 402.50 195Q426 258 426 346Q426 376 415.50 404.50Q405 433 381 451.50Q357 470 317 470Q262 470 221.50 432.50Q181 395 159 332.50Q137 270 137 195Q137 133 167.50 99Q198 65 253 65M167 606Q181 668 210 701Q239 734 282 734Q311 734 336 720Q361 706 382 692.50Q403 679 420 679Q442 679 454 692Q466 705 478 735L531 735Q515 673 486 640Q457 607 414 607Q387 607 363.50 620.50Q340 634 318.50 648Q297 662 275 662Q254 662 241.50 648Q229 634 219 606L167 606Z"  horiz-adv-x="563" vert-adv-y="1000"  />

      
      <glyph glyph-name="unif6" unicode="&#xf6;" d="M248-8Q155-8 101.50 47.50Q48 103 48 198Q48 260 65 321Q82 382 115.50 432Q149 482 199.50 512.50Q250 543 316 543Q410 543 463 487.50Q516 432 516 336Q516 275 499 214Q482 153 448.50 103Q415 53 365 22.50Q315-8 248-8M253 65Q300 65 339.50 98.50Q379 132 402.50 195Q426 258 426 346Q426 376 415.50 404.50Q405 433 381 451.50Q357 470 317 470Q262 470 221.50 432.50Q181 395 159 332.50Q137 270 137 195Q137 133 167.50 99Q198 65 253 65M433 631Q415 631 403 642Q391 653 391 673Q391 696 405 713Q419 730 444 730Q464 730 474 719Q484 708 484 690Q484 662 468 646.50Q452 631 433 631M254 631Q235 631 223 642Q211 653 211 673Q211 696 225 713Q239 730 264 730Q285 730 294.50 719Q304 708 304 690Q304 662 288.50 646.50Q273 631 254 631Z"  horiz-adv-x="563" vert-adv-y="1000"  />

      
      <glyph glyph-name="unif7" unicode="&#xf7;" d="M305 462Q282 462 265.50 476.50Q249 491 249 523Q249 557 265.50 570Q282 583 305 583Q328 583 344 570Q360 557 360 523Q360 491 344 476.50Q328 462 305 462M70 317L70 388L541 388L541 317L70 317M305 121Q282 121 265.50 135.50Q249 150 249 182Q249 216 265.50 229Q282 242 305 242Q328 242 344 229Q360 216 360 182Q360 150 344 135.50Q328 121 305 121Z"  horiz-adv-x="572" vert-adv-y="1000"  />

      
      <glyph glyph-name="unif8" unicode="&#xf8;" d="M82-38L29 3L83 70Q49 120 49 198Q49 260 66 321Q83 382 116.50 432Q150 482 200 512.50Q250 543 316 543Q389 543 438 511L487 572L540 532L484 470Q500 446 507 412Q514 378 514 344Q514 282 497.50 220Q481 158 448 106.50Q415 55 365 23.50Q315-8 249-8Q180-8 130 23L82-38M142 143L388 449Q377 458 360 464.50Q343 471 317 471Q262 471 220.50 433.50Q179 396 156.50 335Q134 274 134 204Q134 162 142 143M253 63Q300 63 340.50 96Q381 129 405 190Q429 251 429 335Q429 352 427.50 366Q426 380 423 388L179 84Q192 74 211.50 68.50Q231 63 253 63Z"  horiz-adv-x="563" vert-adv-y="1000"  />

      
      <glyph glyph-name="unif9" unicode="&#xf9;" d="M189-10Q128-10 91.50 24Q55 58 55 123Q55 146 58.50 166Q62 186 66 209L136 536L225 536L153 199Q144 156 144 132Q144 100 160 81.50Q176 63 214 63Q248 63 287 87Q326 111 360.50 164Q395 217 414 305L463 536L550 536L436 0L364 0L375 99L370 99Q351 74 325.50 49Q300 24 266 7Q232-10 189-10M365 606Q346 625 324.50 652Q303 679 284 707Q265 735 255 756L255 766L349 766Q360 729 379.50 690.50Q399 652 419 618L419 606L365 606Z"  horiz-adv-x="579" vert-adv-y="1000"  />

      
      <glyph glyph-name="unifa" unicode="&#xfa;" d="M189-10Q128-10 91.50 24Q55 58 55 123Q55 146 58.50 166Q62 186 66 209L136 536L225 536L153 199Q144 156 144 132Q144 100 160 81.50Q176 63 214 63Q248 63 287 87Q326 111 360.50 164Q395 217 414 305L463 536L550 536L436 0L364 0L375 99L370 99Q351 74 325.50 49Q300 24 266 7Q232-10 189-10M309 606L309 619Q326 638 347 664Q368 690 387 717Q406 744 421 766L521 766L521 756Q507 738 479.50 709.50Q452 681 421 652.50Q390 624 364 606L309 606Z"  horiz-adv-x="579" vert-adv-y="1000"  />

      
      <glyph glyph-name="unifb" unicode="&#xfb;" d="M189-10Q128-10 91.50 24Q55 58 55 123Q55 146 58.50 166Q62 186 66 209L136 536L225 536L153 199Q144 156 144 132Q144 100 160 81.50Q176 63 214 63Q248 63 287 87Q326 111 360.50 164Q395 217 414 305L463 536L550 536L436 0L364 0L375 99L370 99Q351 74 325.50 49Q300 24 266 7Q232-10 189-10M198 606L198 619Q215 634 243 660.50Q271 687 297.50 715.50Q324 744 338 766L423 766Q438 727 463 687.50Q488 648 507 619L507 606L452 606Q434 622 413.50 646Q393 670 373 697Q343 670 312.50 646.50Q282 623 256 606L198 606Z"  horiz-adv-x="579" vert-adv-y="1000"  />

      
      <glyph glyph-name="unifc" unicode="&#xfc;" d="M189-10Q128-10 91.50 24Q55 58 55 123Q55 146 58.50 166Q62 186 66 209L136 536L225 536L153 199Q144 156 144 132Q144 100 160 81.50Q176 63 214 63Q248 63 287 87Q326 111 360.50 164Q395 217 414 305L463 536L550 536L436 0L364 0L375 99L370 99Q351 74 325.50 49Q300 24 266 7Q232-10 189-10M458 631Q440 631 428 642Q416 653 416 673Q416 696 430 713Q444 730 469 730Q489 730 499 719Q509 708 509 690Q509 662 493 646.50Q477 631 458 631M279 631Q260 631 248 642Q236 653 236 673Q236 696 250 713Q264 730 289 730Q310 730 319.50 719Q329 708 329 690Q329 662 313.50 646.50Q298 631 279 631Z"  horiz-adv-x="579" vert-adv-y="1000"  />

      
      <glyph glyph-name="unifd" unicode="&#xfd;" d="M-25-240Q-49-240-64.50-237Q-80-234-94-230L-94-159Q-80-163-64-165.50Q-48-168-30-168Q10-168 39-143Q68-118 94-70L129-8L48 536L136 536L171 271Q176 238 178.50 200Q181 162 182.50 127.50Q184 93 184 72L187 72Q194 88 207.50 120Q221 152 237 186Q253 220 265 242L421 536L515 536L175-90Q134-165 90-202.50Q46-240-25-240M234 606L234 619Q251 638 272 664Q293 690 312 717Q331 744 346 766L446 766L446 756Q432 738 404.50 709.50Q377 681 346 652.50Q315 624 289 606L234 606Z"  horiz-adv-x="467" vert-adv-y="1000"  />

      
      <glyph glyph-name="unife" unicode="&#xfe;" d="M-22-240L189 760L277 760L239 581Q229 538 219.50 501Q210 464 202 436L206 436Q242 480 285 512.50Q328 545 384 545Q450 545 490 498.50Q530 452 530 362Q530 289 512 222.50Q494 156 460.50 103.50Q427 51 379 20.50Q331-10 270-10Q216-10 182 17.50Q148 45 131 82L126 82Q125 67 121.50 38Q118 9 114-9L65-240L-22-240M262 63Q302 63 335 88.50Q368 114 391.50 157Q415 200 427.50 254Q440 308 440 364Q440 472 355 472Q320 472 283 444.50Q246 417 216 369.50Q186 322 171 262Q160 216 160 171Q160 123 184.50 93Q209 63 262 63Z"  horiz-adv-x="579" vert-adv-y="1000"  />

      
      <glyph glyph-name="uniff" unicode="&#xff;" d="M-25-240Q-49-240-64.50-237Q-80-234-94-230L-94-159Q-80-163-64-165.50Q-48-168-30-168Q10-168 39-143Q68-118 94-70L129-8L48 536L136 536L171 271Q176 238 178.50 200Q181 162 182.50 127.50Q184 93 184 72L187 72Q194 88 207.50 120Q221 152 237 186Q253 220 265 242L421 536L515 536L175-90Q134-165 90-202.50Q46-240-25-240M383 631Q365 631 353 642Q341 653 341 673Q341 696 355 713Q369 730 394 730Q414 730 424 719Q434 708 434 690Q434 662 418 646.50Q402 631 383 631M204 631Q185 631 173 642Q161 653 161 673Q161 696 175 713Q189 730 214 730Q235 730 244.50 719Q254 708 254 690Q254 662 238.50 646.50Q223 631 204 631Z"  horiz-adv-x="467" vert-adv-y="1000"  />

      
      <glyph glyph-name="uni0100" unicode="&#x0100;" d="M-57 0L331 714L425 714L513 0L425 0L398 222L157 222L41 0L-57 0M200 302L389 302L373 452Q369 490 365.50 536Q362 582 361 617L358 617Q342 579 321 535.50Q300 492 277 448L200 302M252 784L267 855L536 855L521 784L252 784Z"  horiz-adv-x="562" vert-adv-y="1000"  />

      
      <glyph glyph-name="uni0101" unicode="&#x0101;" d="M193-10Q128-10 88 36.50Q48 83 48 173Q48 248 67.50 315.50Q87 383 122 434.50Q157 486 205 516Q253 546 311 546Q364 546 397 518Q430 490 446 453L451 453L483 536L550 536L436 0L366 0L379 99L375 99Q340 55 294.50 22.50Q249-10 193-10M222 63Q258 63 294 90Q330 117 358.50 162.50Q387 208 403 266Q410 294 413 319Q416 344 416 365Q416 412 390 442Q364 472 320 472Q281 472 248 447.50Q215 423 190 380.50Q165 338 151.50 284Q138 230 138 171Q138 117 160 90Q182 63 222 63M217 606L232 677L501 677L486 606L217 606Z"  horiz-adv-x="568" vert-adv-y="1000"  />

      
      <glyph glyph-name="uni0102" unicode="&#x0102;" d="M-57 0L331 714L425 714L513 0L425 0L398 222L157 222L41 0L-57 0M200 302L389 302L373 452Q369 490 365.50 536Q362 582 361 617L358 617Q342 579 321 535.50Q300 492 277 448L200 302M388 784Q334 784 299 812.50Q264 841 264 896Q264 901 264 906.50Q264 912 265 918L317 918Q317 889 335 873Q353 857 397 857Q443 857 466 873.50Q489 890 496 918L551 918Q535 846 493 815Q451 784 388 784Z"  horiz-adv-x="562" vert-adv-y="1000"  />

      
      <glyph glyph-name="uni0103" unicode="&#x0103;" d="M193-10Q128-10 88 36.50Q48 83 48 173Q48 248 67.50 315.50Q87 383 122 434.50Q157 486 205 516Q253 546 311 546Q364 546 397 518Q430 490 446 453L451 453L483 536L550 536L436 0L366 0L379 99L375 99Q340 55 294.50 22.50Q249-10 193-10M222 63Q258 63 294 90Q330 117 358.50 162.50Q387 208 403 266Q410 294 413 319Q416 344 416 365Q416 412 390 442Q364 472 320 472Q281 472 248 447.50Q215 423 190 380.50Q165 338 151.50 284Q138 230 138 171Q138 117 160 90Q182 63 222 63M353 606Q299 606 264 634.50Q229 663 229 718Q229 723 229 728.50Q229 734 230 740L282 740Q282 711 300 695Q318 679 362 679Q408 679 431 695.50Q454 712 461 740L516 740Q500 668 458 637Q416 606 353 606Z"  horiz-adv-x="568" vert-adv-y="1000"  />

      
      <glyph glyph-name="uni0104" unicode="&#x0104;" d="M-57 0L331 714L425 714L513 0L425 0L398 222L157 222L41 0L-57 0M200 302L389 302L373 452Q369 490 365.50 536Q362 582 361 617L358 617Q342 579 321 535.50Q300 492 277 448L200 302M411-217Q373-217 347.50-197.50Q322-178 322-137Q322-90 351.50-59Q381-28 426 0L487 0Q467-16 445.50-35Q424-54 409-77Q394-100 394-126Q394-159 427-159Q437-159 447.50-157.50Q458-156 467-155L467-210Q454-214 439.50-215.50Q425-217 411-217Z"  horiz-adv-x="562" vert-adv-y="1000"  />

      
      <glyph glyph-name="uni0105" unicode="&#x0105;" d="M193-10Q128-10 88 36.50Q48 83 48 173Q48 248 67.50 315.50Q87 383 122 434.50Q157 486 205 516Q253 546 311 546Q364 546 397 518Q430 490 446 453L451 453L483 536L550 536L436 0L366 0L379 99L375 99Q340 55 294.50 22.50Q249-10 193-10M222 63Q258 63 294 90Q330 117 358.50 162.50Q387 208 403 266Q410 294 413 319Q416 344 416 365Q416 412 390 442Q364 472 320 472Q281 472 248 447.50Q215 423 190 380.50Q165 338 151.50 284Q138 230 138 171Q138 117 160 90Q182 63 222 63M351-217Q313-217 287.50-197.50Q262-178 262-137Q262-90 291.50-59Q321-28 366 0L427 0Q407-16 385.50-35Q364-54 349-77Q334-100 334-126Q334-159 367-159Q377-159 387.50-157.50Q398-156 407-155L407-210Q394-214 379.50-215.50Q365-217 351-217Z"  horiz-adv-x="568" vert-adv-y="1000"  />

      
      <glyph glyph-name="uni0106" unicode="&#x0106;" d="M326-10Q207-10 139.50 63Q72 136 72 263Q72 327 87 393Q102 459 132.50 518Q163 577 209.50 623.50Q256 670 318 697Q380 724 458 724Q558 724 632 684L596 610Q569 624 535.50 634.50Q502 645 458 645Q383 645 328.50 611.50Q274 578 238 522.50Q202 467 184.50 399.50Q167 332 167 265Q167 174 213.50 121.50Q260 69 342 69Q383 69 422.50 77Q462 85 500 98L500 20Q461 6 421.50-2Q382-10 326-10M406 784L406 797Q423 816 444 842Q465 868 484 895Q503 922 518 944L618 944L618 934Q604 916 576.50 887.50Q549 859 518 830.50Q487 802 461 784L406 784Z"  horiz-adv-x="587" vert-adv-y="1000"  />

      
      <glyph glyph-name="uni0107" unicode="&#x0107;" d="M247-10Q158-10 103 40Q48 90 48 190Q48 262 67.50 326.50Q87 391 123.50 440Q160 489 212 517.50Q264 546 328 546Q363 546 397.50 539Q432 532 461 520L436 447Q416 456 388.50 464Q361 472 329 472Q272 472 229 433.50Q186 395 162 331Q138 267 138 191Q138 130 169 96.50Q200 63 256 63Q291 63 322.50 72.50Q354 82 385 96L385 22Q357 8 322.50-1Q288-10 247-10M268 606L268 619Q285 638 306 664Q327 690 346 717Q365 744 380 766L480 766L480 756Q466 738 438.50 709.50Q411 681 380 652.50Q349 624 323 606L268 606Z"  horiz-adv-x="453" vert-adv-y="1000"  />

      
      <glyph glyph-name="uni0108" unicode="&#x0108;" d="M326-10Q207-10 139.50 63Q72 136 72 263Q72 327 87 393Q102 459 132.50 518Q163 577 209.50 623.50Q256 670 318 697Q380 724 458 724Q558 724 632 684L596 610Q569 624 535.50 634.50Q502 645 458 645Q383 645 328.50 611.50Q274 578 238 522.50Q202 467 184.50 399.50Q167 332 167 265Q167 174 213.50 121.50Q260 69 342 69Q383 69 422.50 77Q462 85 500 98L500 20Q461 6 421.50-2Q382-10 326-10M295 784L295 797Q312 812 340 838.50Q368 865 394.50 893.50Q421 922 435 944L520 944Q535 905 560 865.50Q585 826 604 797L604 784L549 784Q531 800 510.50 824Q490 848 470 875Q440 848 409.50 824.50Q379 801 353 784L295 784Z"  horiz-adv-x="587" vert-adv-y="1000"  />

      
      <glyph glyph-name="uni0109" unicode="&#x0109;" d="M247-10Q158-10 103 40Q48 90 48 190Q48 262 67.50 326.50Q87 391 123.50 440Q160 489 212 517.50Q264 546 328 546Q363 546 397.50 539Q432 532 461 520L436 447Q416 456 388.50 464Q361 472 329 472Q272 472 229 433.50Q186 395 162 331Q138 267 138 191Q138 130 169 96.50Q200 63 256 63Q291 63 322.50 72.50Q354 82 385 96L385 22Q357 8 322.50-1Q288-10 247-10M157 606L157 619Q174 634 202 660.50Q230 687 256.50 715.50Q283 744 297 766L382 766Q397 727 422 687.50Q447 648 466 619L466 606L411 606Q393 622 372.50 646Q352 670 332 697Q302 670 271.50 646.50Q241 623 215 606L157 606Z"  horiz-adv-x="453" vert-adv-y="1000"  />

      
      <glyph glyph-name="uni010A" unicode="&#x010A;" d="M326-10Q207-10 139.50 63Q72 136 72 263Q72 327 87 393Q102 459 132.50 518Q163 577 209.50 623.50Q256 670 318 697Q380 724 458 724Q558 724 632 684L596 610Q569 624 535.50 634.50Q502 645 458 645Q383 645 328.50 611.50Q274 578 238 522.50Q202 467 184.50 399.50Q167 332 167 265Q167 174 213.50 121.50Q260 69 342 69Q383 69 422.50 77Q462 85 500 98L500 20Q461 6 421.50-2Q382-10 326-10M466 803Q446 803 432 815.50Q418 828 418 850Q418 876 433.50 895Q449 914 477 914Q523 914 523 869Q523 838 505 820.50Q487 803 466 803Z"  horiz-adv-x="587" vert-adv-y="1000"  />

      
      <glyph glyph-name="uni010B" unicode="&#x010B;" d="M247-10Q158-10 103 40Q48 90 48 190Q48 262 67.50 326.50Q87 391 123.50 440Q160 489 212 517.50Q264 546 328 546Q363 546 397.50 539Q432 532 461 520L436 447Q416 456 388.50 464Q361 472 329 472Q272 472 229 433.50Q186 395 162 331Q138 267 138 191Q138 130 169 96.50Q200 63 256 63Q291 63 322.50 72.50Q354 82 385 96L385 22Q357 8 322.50-1Q288-10 247-10M328 625Q308 625 294 637.50Q280 650 280 672Q280 698 295.50 717Q311 736 339 736Q385 736 385 691Q385 660 367 642.50Q349 625 328 625Z"  horiz-adv-x="453" vert-adv-y="1000"  />

      
      <glyph glyph-name="uni010C" unicode="&#x010C;" d="M326-10Q207-10 139.50 63Q72 136 72 263Q72 327 87 393Q102 459 132.50 518Q163 577 209.50 623.50Q256 670 318 697Q380 724 458 724Q558 724 632 684L596 610Q569 624 535.50 634.50Q502 645 458 645Q383 645 328.50 611.50Q274 578 238 522.50Q202 467 184.50 399.50Q167 332 167 265Q167 174 213.50 121.50Q260 69 342 69Q383 69 422.50 77Q462 85 500 98L500 20Q461 6 421.50-2Q382-10 326-10M412 784Q398 822 373.50 862Q349 902 330 931L330 944L383 944Q402 928 422 904Q442 880 462 853Q493 880 524 903.50Q555 927 582 944L639 944L639 931Q622 916 594 889.50Q566 863 539 834.50Q512 806 498 784L412 784Z"  horiz-adv-x="587" vert-adv-y="1000"  />

      
      <glyph glyph-name="uni010D" unicode="&#x010D;" d="M247-10Q158-10 103 40Q48 90 48 190Q48 262 67.50 326.50Q87 391 123.50 440Q160 489 212 517.50Q264 546 328 546Q363 546 397.50 539Q432 532 461 520L436 447Q416 456 388.50 464Q361 472 329 472Q272 472 229 433.50Q186 395 162 331Q138 267 138 191Q138 130 169 96.50Q200 63 256 63Q291 63 322.50 72.50Q354 82 385 96L385 22Q357 8 322.50-1Q288-10 247-10M274 606Q260 644 235.50 684Q211 724 192 753L192 766L245 766Q264 750 284 726Q304 702 324 675Q355 702 386 725.50Q417 749 444 766L501 766L501 753Q484 738 456 711.50Q428 685 401 656.50Q374 628 360 606L274 606Z"  horiz-adv-x="453" vert-adv-y="1000"  />

      
      <glyph glyph-name="uni010E" unicode="&#x010E;" d="M41 0L192 714L361 714Q490 714 563 644Q636 574 636 429Q636 305 587.50 208Q539 111 445.50 55.50Q352 0 217 0L41 0M146 77L222 77Q326 77 397 124Q468 171 505 250.50Q542 330 542 430Q542 540 489.50 588.50Q437 637 350 637L265 637L146 77M397 784Q383 822 358.50 862Q334 902 315 931L315 944L368 944Q387 928 407 904Q427 880 447 853Q478 880 509 903.50Q540 927 567 944L624 944L624 931Q607 916 579 889.50Q551 863 524 834.50Q497 806 483 784L397 784Z"  horiz-adv-x="667" vert-adv-y="1000"  />

      
      <glyph glyph-name="uni010F" unicode="&#x010F;" d="M193-10Q128-10 88 36Q48 82 48 173Q48 246 66 313Q84 380 118.50 432.50Q153 485 201.50 515Q250 545 311 545Q365 545 397.50 517.50Q430 490 446 453L451 453Q456 487 460.50 518Q465 549 473 585L510 760L597 760L436 0L364 0L375 99L371 99Q335 54 292 22Q249-10 193-10M223 63Q256 63 290 87.50Q324 112 353 154Q382 196 399.50 250Q417 304 417 364Q417 412 393.50 442Q370 472 317 472Q277 472 244.50 446.50Q212 421 188 378Q164 335 151 281Q138 227 138 171Q138 63 223 63M608 600L608 613Q619 630 632.50 656Q646 682 659 710Q672 738 680 760L763 760L763 750Q756 734 739 707Q722 680 700 651Q678 622 657 600L608 600Z"  horiz-adv-x="613" vert-adv-y="1000"  />

      
      <glyph glyph-name="uni0110" unicode="&#x0110;" d="M41 0L106 315L33 315L50 392L123 392L192 714L361 714Q490 714 563 644Q636 574 636 429Q636 305 587.50 208Q539 111 445.50 55.50Q352 0 217 0L41 0M146 77L222 77Q326 77 397 124Q468 171 505 250.50Q542 330 542 430Q542 540 489.50 588.50Q437 637 350 637L265 637L213 392L370 392L353 315L196 315L146 77Z"  horiz-adv-x="667" vert-adv-y="1000"  />

      
      <glyph glyph-name="uni0111" unicode="&#x0111;" d="M193-10Q128-10 88 36Q48 82 48 173Q48 246 66 313Q84 380 117.50 432.50Q151 485 199 515.50Q247 546 308 546Q363 546 396.50 518.50Q430 491 446 455L451 455Q453 473 456.50 497.50Q460 522 464 544L476 604L298 604L311 670L492 670L510 760L597 760L578 670L651 670L637 604L564 604L436 0L364 0L375 99L371 99Q335 55 292 22.50Q249-10 193-10M223 63Q256 63 290 87.50Q324 112 353 154Q382 196 399.50 250Q417 304 417 364Q417 413 392.50 443Q368 473 316 473Q276 473 243 447.50Q210 422 186.50 378.50Q163 335 150.50 281Q138 227 138 171Q138 63 223 63Z"  horiz-adv-x="579" vert-adv-y="1000"  />

      
      <glyph glyph-name="uni0112" unicode="&#x0112;" d="M41 0L192 714L554 714L537 635L264 635L217 412L472 412L457 334L201 334L146 79L420 79L403 0L41 0M246 784L261 855L530 855L515 784L246 784Z"  horiz-adv-x="514" vert-adv-y="1000"  />

      
      <glyph glyph-name="uni0113" unicode="&#x0113;" d="M242-10Q149-10 98.50 44.50Q48 99 48 192Q48 256 66.50 318.50Q85 381 120 432.50Q155 484 204.50 515Q254 546 316 546Q392 546 430.50 513Q469 480 469 421Q469 368 436.50 325.50Q404 283 335 257.50Q266 232 156 232L139 232Q138 223 137.50 213Q137 203 137 195Q137 134 166.50 98.50Q196 63 258 63Q296 63 330 73.50Q364 84 404 104L404 29Q366 12 329.50 1Q293-10 242-10M152 303L159 303Q219 303 270 313.50Q321 324 352 348.50Q383 373 383 414Q383 440 365.50 456.50Q348 473 311 473Q263 473 218.50 428.50Q174 384 152 303M190 606L205 677L474 677L459 606L190 606Z"  horiz-adv-x="499" vert-adv-y="1000"  />

      
      <glyph glyph-name="uni0114" unicode="&#x0114;" d="M41 0L192 714L554 714L537 635L264 635L217 412L472 412L457 334L201 334L146 79L420 79L403 0L41 0M382 784Q328 784 293 812.50Q258 841 258 896Q258 901 258 906.50Q258 912 259 918L311 918Q311 889 329 873Q347 857 391 857Q437 857 460 873.50Q483 890 490 918L545 918Q529 846 487 815Q445 784 382 784Z"  horiz-adv-x="514" vert-adv-y="1000"  />

      
      <glyph glyph-name="uni0115" unicode="&#x0115;" d="M242-10Q149-10 98.50 44.50Q48 99 48 192Q48 256 66.50 318.50Q85 381 120 432.50Q155 484 204.50 515Q254 546 316 546Q392 546 430.50 513Q469 480 469 421Q469 368 436.50 325.50Q404 283 335 257.50Q266 232 156 232L139 232Q138 223 137.50 213Q137 203 137 195Q137 134 166.50 98.50Q196 63 258 63Q296 63 330 73.50Q364 84 404 104L404 29Q366 12 329.50 1Q293-10 242-10M152 303L159 303Q219 303 270 313.50Q321 324 352 348.50Q383 373 383 414Q383 440 365.50 456.50Q348 473 311 473Q263 473 218.50 428.50Q174 384 152 303M326 606Q272 606 237 634.50Q202 663 202 718Q202 723 202 728.50Q202 734 203 740L255 740Q255 711 273 695Q291 679 335 679Q381 679 404 695.50Q427 712 434 740L489 740Q473 668 431 637Q389 606 326 606Z"  horiz-adv-x="499" vert-adv-y="1000"  />

      
      <glyph glyph-name="uni0116" unicode="&#x0116;" d="M41 0L192 714L554 714L537 635L264 635L217 412L472 412L457 334L201 334L146 79L420 79L403 0L41 0M392 803Q372 803 358 815.50Q344 828 344 850Q344 876 359.50 895Q375 914 403 914Q449 914 449 869Q449 838 431 820.50Q413 803 392 803Z"  horiz-adv-x="514" vert-adv-y="1000"  />

      
      <glyph glyph-name="uni0117" unicode="&#x0117;" d="M242-10Q149-10 98.50 44.50Q48 99 48 192Q48 256 66.50 318.50Q85 381 120 432.50Q155 484 204.50 515Q254 546 316 546Q392 546 430.50 513Q469 480 469 421Q469 368 436.50 325.50Q404 283 335 257.50Q266 232 156 232L139 232Q138 223 137.50 213Q137 203 137 195Q137 134 166.50 98.50Q196 63 258 63Q296 63 330 73.50Q364 84 404 104L404 29Q366 12 329.50 1Q293-10 242-10M152 303L159 303Q219 303 270 313.50Q321 324 352 348.50Q383 373 383 414Q383 440 365.50 456.50Q348 473 311 473Q263 473 218.50 428.50Q174 384 152 303M336 625Q316 625 302 637.50Q288 650 288 672Q288 698 303.50 717Q319 736 347 736Q393 736 393 691Q393 660 375 642.50Q357 625 336 625Z"  horiz-adv-x="499" vert-adv-y="1000"  />

      
      </font>
</defs>
</svg>
