<?xml version="1.0" standalone="no"?>
<!DOCTYPE svg PUBLIC "-//W3C//DTD SVG 1.1//EN" "http://www.w3.org/Graphics/SVG/1.1/DTD/svg11.dtd" >
<svg xmlns="http://www.w3.org/2000/svg" xmlns:xlink="http://www.w3.org/1999/xlink" version="1.1">
<metadata>
Created by FontForge 20170910 at Tue Sep 19 23:59:25 2017
 By Jimmy Wärting
Copyright 2015 Google Inc. All Rights Reserved.
</metadata>
<defs>
<font id="NotoSans-Regular" horiz-adv-x="0" >
  <font-face 
    font-family="Noto Sans"
    font-weight="400"
    font-stretch="normal"
    units-per-em="1000"
    panose-1="2 11 5 2 4 5 4 2 2 4"
    ascent="800"
    descent="-200"
    x-height="536"
    cap-height="714"
    bbox="-621 -389 2800 1067"
    underline-thickness="50"
    underline-position="-125"
    unicode-range="U+000D-FFFD"
  />
<missing-glyph horiz-adv-x="600" 
d="M94 0v714h411v-714h-411zM145 51h309v612h-309v-612z" />
    <glyph glyph-name=".notdef" horiz-adv-x="600" 
d="M94 0v714h411v-714h-411zM145 51h309v612h-309v-612z" />
    <glyph glyph-name="NULL" 
 />
    <glyph glyph-name="NULL" 
 />
    <glyph glyph-name="CR" unicode="&#xd;" horiz-adv-x="260" 
 />
    <glyph glyph-name="space" unicode=" " horiz-adv-x="260" 
 />
    <glyph glyph-name="exclam" unicode="!" horiz-adv-x="269" 
d="M163 201h-57l-25 513h107zM72 54q0 37 18 52t44 15q25 0 43.5 -15t18.5 -52q0 -36 -18.5 -52t-43.5 -16q-26 0 -44 16t-18 52z" />
    <glyph glyph-name="quotedbl" unicode="&#x22;" horiz-adv-x="408" 
d="M160 714l-20 -258h-55l-20 258h95zM343 714l-20 -258h-55l-20 258h95z" />
    <glyph glyph-name="numbersign" unicode="#" horiz-adv-x="646" 
d="M480 436l-31 -160h137v-67h-150l-41 -209h-71l41 209h-143l-39 -209h-70l38 209h-126v67h139l32 160h-134v66h146l40 212h72l-40 -212h144l40 212h69l-40 -212h127v-66h-140zM235 276h143l31 160h-143z" />
    <glyph glyph-name="dollar" unicode="$" horiz-adv-x="572" 
d="M253 -58v107q-55 1 -107 9.5t-84 23.5v85q34 -16 87 -28t104 -13v202q-99 27 -145 68t-46 112q0 74 51.5 116t139.5 47v88h64v-87q53 -2 96.5 -12t79.5 -25l-27 -74q-32 13 -70.5 22.5t-78.5 12.5v-201q66 -19 110 -40.5t66.5 -53t22.5 -81.5q0 -70 -52 -113.5
t-147 -53.5v-111h-64zM253 417v177q-54 -4 -79.5 -25t-25.5 -54q0 -40 22.5 -61.5t82.5 -36.5zM317 131q59 6 86 27.5t27 55.5q0 38 -24 57t-89 36v-176z" />
    <glyph glyph-name="percent" unicode="%" horiz-adv-x="831" 
d="M195 724q73 0 111.5 -58.5t38.5 -164.5t-36.5 -165.5t-113.5 -59.5q-71 0 -108.5 59.5t-37.5 165.5t35 164.5t111 58.5zM652 714l-396 -714h-77l396 714h77zM195 662q-38 0 -55.5 -40.5t-17.5 -120.5t17.5 -121t55.5 -41q77 0 77 162q0 161 -77 161zM632 438
q73 0 111.5 -58.5t38.5 -164.5t-36.5 -165.5t-113.5 -59.5q-71 0 -108.5 59.5t-37.5 165.5t35 164.5t111 58.5zM632 375q-38 0 -55.5 -40t-17.5 -120q0 -81 17.5 -121.5t55.5 -40.5q77 0 77 162q0 160 -77 160z" />
    <glyph glyph-name="ampersand" unicode="&#x26;" horiz-adv-x="732" 
d="M304 725q80 0 126.5 -40.5t46.5 -113.5q0 -63 -40.5 -107t-102.5 -80l193 -186q26 31 42.5 71.5t27.5 87.5h89q-16 -65 -40 -119.5t-62 -95.5l146 -142h-119l-87 84q-47 -42 -105 -68t-141 -26q-104 0 -164.5 51t-60.5 145q0 76 41.5 123t112.5 87q-32 36 -59.5 77
t-27.5 96q0 73 49 114.5t135 41.5zM301 653q-42 0 -68.5 -22t-26.5 -61q0 -36 19 -66.5t55 -67.5q59 34 84.5 64t25.5 71q0 36 -24 59t-65 23zM260 341q-54 -32 -84.5 -65t-30.5 -87q0 -55 37 -88t99 -33q64 0 109.5 21t77.5 50z" />
    <glyph glyph-name="quotesingle" unicode="'" horiz-adv-x="225" 
d="M160 714l-20 -258h-55l-20 258h95z" />
    <glyph glyph-name="parenleft" unicode="(" horiz-adv-x="300" 
d="M40 274q0 122 35.5 235.5t111.5 204.5h83q-70 -94 -105.5 -207t-35.5 -232q0 -116 35.5 -227.5t104.5 -205.5h-82q-76 88 -111.5 199.5t-35.5 232.5z" />
    <glyph glyph-name="parenright" unicode=")" horiz-adv-x="300" 
d="M260 274q0 -121 -35.5 -232.5t-111.5 -199.5h-82q69 94 104.5 205.5t35.5 227.5q0 119 -35.5 232t-105.5 207h83q76 -91 111.5 -204.5t35.5 -235.5z" />
    <glyph glyph-name="asterisk" unicode="*" horiz-adv-x="551" 
d="M322 760l-20 -192l192 54l14 -92l-184 -15l119 -158l-86 -47l-85 175l-77 -175l-89 47l117 158l-182 15l14 92l190 -54l-21 192h98z" />
    <glyph glyph-name="plus" unicode="+" horiz-adv-x="572" 
d="M321 388h199v-71h-199v-206h-72v206h-199v71h199v207h72v-207z" />
    <glyph glyph-name="comma" unicode="," horiz-adv-x="268" 
d="M185 116l7 -11q-14 -53 -38 -116.5t-48 -117.5h-65q14 57 28.5 125t21.5 120h94z" />
    <glyph glyph-name="hyphen" unicode="-" horiz-adv-x="322" 
d="M40 229v78h242v-78h-242z" />
    <glyph glyph-name="period" unicode="." horiz-adv-x="268" 
d="M72 54q0 37 18 52t43 15t44 -15t19 -52q0 -36 -19 -52t-44 -16t-43 16t-18 52z" />
    <glyph glyph-name="slash" unicode="/" horiz-adv-x="372" 
d="M362 714l-266 -714h-86l266 714h86z" />
    <glyph glyph-name="zero" unicode="0" horiz-adv-x="572" 
d="M523 358q0 -116 -24 -198t-76.5 -126t-137.5 -44q-121 0 -178.5 97.5t-57.5 270.5q0 116 23.5 198t75.5 125.5t137 43.5q120 0 179 -96.5t59 -270.5zM137 358q0 -147 33.5 -220t114.5 -73q80 0 114.5 72.5t34.5 220.5q0 146 -34.5 219t-114.5 73q-81 0 -114.5 -73
t-33.5 -219z" />
    <glyph glyph-name="one" unicode="1" horiz-adv-x="572" 
d="M355 0h-86v499q0 43 1 69t3 54q-16 -16 -29.5 -27t-32.5 -28l-76 -62l-46 59l193 150h73v-714z" />
    <glyph glyph-name="two" unicode="2" horiz-adv-x="572" 
d="M520 0h-472v73l187 189q53 54 90.5 96t56.5 82t19 89q0 59 -35 89.5t-91 30.5q-53 0 -92 -18t-80 -50l-47 59q42 35 96.5 59.5t122.5 24.5q100 0 158 -51t58 -139q0 -56 -23 -105t-64 -97t-96 -101l-149 -147v-4h361v-80z" />
    <glyph glyph-name="three" unicode="3" horiz-adv-x="572" 
d="M493 547q0 -72 -40.5 -114.5t-107.5 -56.5v-4q85 -10 127.5 -54t42.5 -115q0 -63 -29 -111t-89.5 -75t-155.5 -27q-56 0 -104 8.5t-92 30.5v82q45 -23 97 -35t100 -12q96 0 138.5 37.5t42.5 103.5q0 67 -52.5 96.5t-147.5 29.5h-69v75h70q88 0 133.5 37t45.5 98
q0 52 -35 80.5t-95 28.5q-58 0 -99 -17t-81 -43l-44 60q38 30 94.5 52t128.5 22q112 0 166.5 -50t54.5 -127z" />
    <glyph glyph-name="four" unicode="4" horiz-adv-x="572" 
d="M552 162h-104v-162h-85v162h-342v75l336 481h91v-477h104v-79zM363 241v225q0 52 1.5 88.5t3.5 69.5h-4q-8 -19 -20 -41t-23 -37l-214 -305h256z" />
    <glyph glyph-name="five" unicode="5" horiz-adv-x="572" 
d="M275 438q109 0 174.5 -55t65.5 -155q0 -111 -70.5 -174.5t-196.5 -63.5q-56 0 -104 10t-81 29v83q36 -22 87.5 -34.5t98.5 -12.5q79 0 127.5 37.5t48.5 116.5q0 70 -43 107.5t-136 37.5q-28 0 -64 -5t-58 -10l-44 28l27 337h358v-80h-283l-17 -207q17 3 46 7t64 4z" />
    <glyph glyph-name="six" unicode="6" horiz-adv-x="572" 
d="M55 305q0 77 13.5 151.5t49 135t99.5 96.5t165 36q21 0 46.5 -2t41.5 -7v-75q-18 6 -41 9t-45 3q-69 0 -115 -23t-72.5 -63t-38.5 -92t-15 -111h6q23 35 64 59.5t105 24.5q93 0 150 -56.5t57 -160.5q0 -112 -61.5 -176t-165.5 -64q-68 0 -123 34t-87.5 104t-32.5 177z
M297 64q63 0 102 40.5t39 125.5q0 68 -34.5 108t-103.5 40q-47 0 -82 -19.5t-54.5 -50t-19.5 -61.5q0 -43 17 -85.5t51 -70t85 -27.5z" />
    <glyph glyph-name="seven" unicode="7" horiz-adv-x="572" 
d="M136 0l293 634h-385v80h479v-68l-290 -646h-97z" />
    <glyph glyph-name="eight" unicode="8" horiz-adv-x="572" 
d="M285 724q94 0 154 -44t60 -127q0 -43 -18.5 -75t-49.5 -56.5t-68 -43.5q44 -22 80 -48t57.5 -61t21.5 -84q0 -90 -64 -142.5t-170 -52.5q-116 0 -177.5 50.5t-61.5 141.5q0 48 20.5 84.5t54.5 62.5t73 44q-53 30 -89 72.5t-36 108.5q0 54 28 92t76 58t109 20zM284 653
q-56 0 -91 -26.5t-35 -76.5q0 -37 17.5 -62t47.5 -42.5t66 -33.5q52 22 87.5 53t35.5 85q0 50 -35 76.5t-93 26.5zM135 181q0 -52 37 -86.5t114 -34.5q73 0 111.5 34.5t38.5 89.5q0 52 -41 86.5t-109 60.5l-16 6q-66 -29 -100.5 -65t-34.5 -91z" />
    <glyph glyph-name="nine" unicode="9" horiz-adv-x="572" 
d="M520 409q0 -77 -13.5 -151.5t-49 -135t-100 -96.5t-165.5 -36q-20 0 -47 2.5t-43 7.5v75q39 -13 88 -13q70 0 115.5 23t72.5 62.5t39 92t14 110.5h-6q-23 -34 -64 -58.5t-106 -24.5q-92 0 -148.5 56.5t-56.5 159.5q0 75 28 129t79.5 83t120.5 29q68 0 123 -34.5t87 -104
t32 -176.5zM278 650q-62 0 -101.5 -41t-39.5 -125q0 -69 33.5 -108.5t103.5 -39.5q48 0 83 19.5t54.5 49.5t19.5 62q0 43 -17 85t-51 70t-85 28z" />
    <glyph glyph-name="colon" unicode=":" horiz-adv-x="268" 
d="M72 482q0 38 18 53t43 15t44 -15t19 -53q0 -36 -19 -52t-44 -16t-43 16t-18 52zM72 54q0 37 18 52t43 15t44 -15t19 -52q0 -36 -19 -52t-44 -16t-43 16t-18 52z" />
    <glyph glyph-name="semicolon" unicode=";" horiz-adv-x="268" 
d="M70 482q0 38 18 53t43 15q26 0 44.5 -15t18.5 -53q0 -36 -18.5 -52t-44.5 -16q-25 0 -43 16t-18 52zM176 116l7 -11q-13 -53 -37.5 -117t-48.5 -117h-66q9 37 19 81t18.5 86.5t13.5 77.5h94z" />
    <glyph glyph-name="less" unicode="&#x3c;" horiz-adv-x="572" 
d="M521 116l-471 207v50l471 235v-78l-377 -178l377 -158v-78z" />
    <glyph glyph-name="equal" unicode="=" horiz-adv-x="572" 
d="M56 416v71h458v-71h-458zM56 217v71h458v-71h-458z" />
    <glyph glyph-name="greater" unicode="&#x3e;" horiz-adv-x="572" 
d="M50 194l377 157l-377 179v78l471 -235v-50l-471 -207v78z" />
    <glyph glyph-name="question" unicode="?" horiz-adv-x="434" 
d="M140 201v27q0 38 7.5 65.5t26 52t50.5 52.5q38 32 60 54.5t31 43.5t9 51q0 48 -31 74t-90 26q-49 0 -87 -12.5t-73 -29.5l-31 70q40 21 88.5 35t108.5 14q95 0 147 -47t52 -128q0 -45 -14.5 -76.5t-41 -58t-62.5 -56.5q-34 -28 -51 -49t-23 -42t-6 -49v-17h-70zM117 54
q0 37 17.5 52t44.5 15q25 0 43 -15t18 -52q0 -36 -18 -52t-43 -16q-27 0 -44.5 16t-17.5 52z" />
    <glyph glyph-name="at" unicode="@" horiz-adv-x="899" 
d="M841 357q0 -46 -10.5 -90t-32.5 -79.5t-54 -57t-76 -21.5q-46 0 -72.5 26.5t-32.5 60.5h-5q-18 -37 -53 -62t-88 -25q-77 0 -118 51t-41 135q0 65 26 116t73.5 80t112.5 29q44 0 86.5 -7.5t66.5 -16.5l-10 -203q-1 -18 -1 -25.5v-10.5q0 -53 18.5 -69.5t43.5 -16.5
q31 0 52.5 25.5t33 67.5t11.5 94q0 92 -37.5 157t-103 99t-148.5 34q-114 0 -192.5 -47t-119 -129.5t-40.5 -188.5q0 -148 78 -227t225 -79q61 0 116.5 13.5t98.5 29.5v-68q-43 -18 -96.5 -29.5t-118.5 -11.5q-118 0 -202 44t-128.5 126.5t-44.5 198.5q0 93 29 172.5t84 138
t133.5 91t177.5 32.5q104 0 185 -43t127.5 -123t46.5 -191zM336 293q0 -65 25 -93.5t69 -28.5q56 0 80.5 42t28.5 109l6 125q-13 4 -33 7t-41 3q-49 0 -79 -24t-43 -61.5t-13 -78.5z" />
    <glyph glyph-name="A" unicode="A" horiz-adv-x="639" 
d="M545 0l-86 221h-283l-85 -221h-91l279 717h81l278 -717h-93zM432 301l-80 216q-3 8 -10 29t-13.5 43.5t-10.5 34.5q-8 -31 -16.5 -60.5t-14.5 -46.5l-81 -216h226z" />
    <glyph glyph-name="B" unicode="B" horiz-adv-x="650" 
d="M97 714h204q133 0 202 -40t69 -137q0 -63 -35 -104.5t-101 -53.5v-5q45 -8 81.5 -27t57.5 -54t21 -90q0 -97 -66.5 -150t-181.5 -53h-251v714zM187 410h132q91 0 125.5 29.5t34.5 87.5q0 59 -41.5 84.5t-132.5 25.5h-118v-227zM187 335v-259h144q95 0 132 37t37 97
q0 56 -38.5 90.5t-137.5 34.5h-137z" />
    <glyph glyph-name="C" unicode="C" horiz-adv-x="632" 
d="M403 645q-115 0 -181 -77t-66 -211q0 -133 61.5 -210.5t184.5 -77.5q46 0 88 8t83 20v-78q-40 -15 -82.5 -22t-101.5 -7q-109 0 -182 45t-109.5 128t-36.5 195q0 108 39.5 190.5t116.5 129t187 46.5q113 0 197 -42l-36 -76q-33 15 -73.5 27t-88.5 12z" />
    <glyph glyph-name="D" unicode="D" horiz-adv-x="730" 
d="M669 364q0 -181 -98.5 -272.5t-274.5 -91.5h-199v714h220q107 0 186.5 -40t122.5 -118t43 -192zM574 361q0 143 -70.5 209.5t-199.5 66.5h-117v-560h97q290 0 290 284z" />
    <glyph glyph-name="E" unicode="E" horiz-adv-x="556" 
d="M496 0h-399v714h399v-79h-309v-223h291v-78h-291v-255h309v-79z" />
    <glyph glyph-name="F" unicode="F" horiz-adv-x="519" 
d="M187 0h-90v714h399v-79h-309v-253h290v-79h-290v-303z" />
    <glyph glyph-name="G" unicode="G" horiz-adv-x="728" 
d="M407 377h247v-350q-58 -19 -117 -28t-134 -9q-111 0 -187 44.5t-115.5 127t-39.5 195.5q0 111 43.5 193.5t126.5 128t200 45.5q60 0 113.5 -11t99.5 -31l-34 -78q-38 16 -85.5 28.5t-98.5 12.5q-128 0 -199.5 -77.5t-71.5 -210.5q0 -85 27.5 -150.5t86.5 -102t155 -36.5
q47 0 80 5t60 12v212h-157v80z" />
    <glyph glyph-name="H" unicode="H" horiz-adv-x="741" 
d="M643 0h-90v333h-366v-333h-90v714h90v-302h366v302h90v-714z" />
    <glyph glyph-name="I" unicode="I" horiz-adv-x="339" 
d="M298 0h-258v52l84 19v571l-84 20v52h258v-52l-84 -20v-571l84 -19v-52z" />
    <glyph glyph-name="J" unicode="J" horiz-adv-x="273" 
d="M-4 -190q-24 0 -42 3.5t-32 9.5v76q16 -5 34 -7.5t38 -2.5q25 0 47.5 10t36.5 34.5t14 70.5v710h90v-703q0 -103 -51 -152t-135 -49z" />
    <glyph glyph-name="K" unicode="K" horiz-adv-x="619" 
d="M619 0h-106l-253 341l-73 -64v-277h-90v714h90v-352q30 34 61 68l62 68l193 216h105l-283 -311z" />
    <glyph glyph-name="L" unicode="L" horiz-adv-x="524" 
d="M97 0v714h90v-634h312v-80h-402z" />
    <glyph glyph-name="M" unicode="M" horiz-adv-x="907" 
d="M412 0l-235 626h-4q3 -31 5 -83.5t2 -109.5v-433h-83v714h133l220 -585h4l224 585h132v-714h-89v439q0 52 2.5 103t4.5 83h-4l-238 -625h-74z" />
    <glyph glyph-name="N" unicode="N" horiz-adv-x="760" 
d="M663 0h-105l-382 593h-4q2 -35 5 -87t3 -107v-399h-83v714h104l381 -591h4q-1 16 -2.5 48t-3 69.5t-1.5 70.5v403h84v-714z" />
    <glyph glyph-name="O" unicode="O" horiz-adv-x="781" 
d="M720 358q0 -111 -37.5 -193.5t-111 -128.5t-180.5 -46q-111 0 -184.5 46t-109.5 129t-36 194q0 109 36 191.5t109.5 128.5t185.5 46q107 0 180 -45.5t110.5 -128t37.5 -193.5zM156 358q0 -135 57 -212.5t178 -77.5t177.5 77.5t56.5 212.5t-56 211.5t-177 76.5
q-122 0 -179 -76.5t-57 -211.5z" />
    <glyph glyph-name="P" unicode="P" horiz-adv-x="605" 
d="M286 714q140 0 204 -55t64 -155q0 -59 -26.5 -110.5t-89 -83.5t-169.5 -32h-82v-278h-90v714h189zM278 637h-91v-282h72q102 0 152 33t50 112q0 69 -44.5 103t-138.5 34z" />
    <glyph glyph-name="Q" unicode="Q" horiz-adv-x="781" 
d="M720 358q0 -131 -52.5 -223.5t-155.5 -126.5l171 -178h-129l-138 161q-6 0 -12.5 -0.5t-12.5 -0.5q-111 0 -184.5 46t-109.5 129t-36 194q0 109 36 191.5t109.5 128.5t185.5 46q107 0 180 -45.5t110.5 -128t37.5 -193.5zM156 358q0 -135 57 -212.5t178 -77.5t177.5 77.5
t56.5 212.5t-56 211.5t-177 76.5q-122 0 -179 -76.5t-57 -211.5z" />
    <glyph glyph-name="R" unicode="R" horiz-adv-x="622" 
d="M294 714q133 0 196.5 -50.5t63.5 -152.5q0 -57 -21 -95t-53.5 -61t-68.5 -35l196 -320h-105l-173 295h-142v-295h-90v714h197zM289 636h-102v-265h107q87 0 127 34.5t40 101.5q0 70 -42 99.5t-130 29.5z" />
    <glyph glyph-name="S" unicode="S" horiz-adv-x="549" 
d="M502 191q0 -95 -69 -148t-186 -53q-60 0 -111 9t-85 25v86q36 -16 89.5 -29t110.5 -13q79 0 120 31t41 84q0 35 -15 59t-52 44t-101 44q-92 33 -138 81t-46 131q0 56 29 97t80 63t119 22q58 0 107 -11t90 -29l-28 -77q-37 16 -81 27t-90 11q-67 0 -101 -28.5t-34 -75.5
q0 -36 15 -60t49 -43.5t92 -40.5q63 -23 106.5 -49.5t66 -63.5t22.5 -93z" />
    <glyph glyph-name="T" unicode="T" horiz-adv-x="556" 
d="M323 0h-90v635h-223v79h535v-79h-222v-635z" />
    <glyph glyph-name="U" unicode="U" horiz-adv-x="731" 
d="M640 714v-462q0 -74 -30 -133.5t-92 -94t-156 -34.5q-134 0 -203 72.5t-69 191.5v460h90v-463q0 -87 46.5 -135t140.5 -48q97 0 140.5 51.5t43.5 132.5v462h89z" />
    <glyph glyph-name="V" unicode="V" horiz-adv-x="600" 
d="M600 714l-255 -714h-90l-255 714h94l161 -458q16 -44 26.5 -82.5t18.5 -73.5q7 35 18 74t27 84l160 456h95z" />
    <glyph glyph-name="W" unicode="W" horiz-adv-x="930" 
d="M917 714l-190 -714h-91l-139 468q-9 28 -16.5 57.5t-13 52t-6.5 31.5q-1 -13 -11 -55.5t-23 -88.5l-135 -465h-91l-189 714h94l111 -436q12 -46 20.5 -89t13.5 -81q5 39 15 85t23 90l126 431h93l131 -434q14 -46 24 -92t15 -80q4 37 13.5 80.5t21.5 90.5l110 435h94z" />
    <glyph glyph-name="X" unicode="X" horiz-adv-x="586" 
d="M582 0h-102l-189 310l-192 -310h-95l237 372l-222 342h100l175 -280l176 280h95l-221 -340z" />
    <glyph glyph-name="Y" unicode="Y" horiz-adv-x="566" 
d="M283 363l186 351h97l-238 -437v-277h-90v273l-238 441h98z" />
    <glyph glyph-name="Z" unicode="Z" horiz-adv-x="572" 
d="M533 0h-495v68l376 566h-364v80h473v-68l-376 -566h386v-80z" />
    <glyph glyph-name="bracketleft" unicode="[" horiz-adv-x="329" 
d="M304 -158h-224v872h224v-72h-138v-728h138v-72z" />
    <glyph glyph-name="backslash" unicode="\" horiz-adv-x="372" 
d="M96 714l267 -714h-87l-266 714h86z" />
    <glyph glyph-name="bracketright" unicode="]" horiz-adv-x="329" 
d="M25 -86h138v728h-138v72h224v-872h-224v72z" />
    <glyph glyph-name="asciicircum" unicode="^" horiz-adv-x="572" 
d="M38 267l212 452h50l234 -452h-78l-180 359l-160 -359h-78z" />
    <glyph glyph-name="underscore" unicode="_" horiz-adv-x="444" 
d="M446 -154h-448v64h448v-64z" />
    <glyph glyph-name="grave" unicode="`" horiz-adv-x="281" 
d="M145 766q11 -22 27.5 -49.5t35 -54t33.5 -44.5v-12h-59q-23 18 -52 46.5t-53.5 57t-36.5 46.5v10h105z" />
    <glyph glyph-name="a" unicode="a" horiz-adv-x="561" 
d="M288 545q98 0 145 -43t47 -137v-365h-64l-17 76h-4q-35 -44 -74 -65t-106 -21q-73 0 -121 38.5t-48 120.5q0 80 63 123.5t194 47.5l91 3v32q0 67 -29 93t-82 26q-42 0 -80 -12.5t-71 -28.5l-27 66q35 19 83 32.5t100 13.5zM393 262l-79 -3q-100 -4 -138.5 -32t-38.5 -79
q0 -45 27.5 -66t70.5 -21q67 0 112.5 37.5t45.5 115.5v48z" />
    <glyph glyph-name="b" unicode="b" horiz-adv-x="615" 
d="M173 760v-185q0 -34 -1.5 -63.5t-3.5 -46.5h5q23 34 63 57t103 23q100 0 160.5 -69.5t60.5 -207.5t-61 -208t-160 -70q-63 0 -103 23t-63 55h-7l-18 -68h-63v760h88zM324 472q-86 0 -118.5 -49t-32.5 -152v-4q0 -99 32.5 -151.5t120.5 -52.5q72 0 107.5 53t35.5 153
q0 203 -145 203z" />
    <glyph glyph-name="c" unicode="c" horiz-adv-x="480" 
d="M300 -10q-72 0 -127 29t-86.5 90t-31.5 156q0 99 32.5 161t89.5 91t129 29q40 0 78.5 -8.5t62.5 -20.5l-27 -73q-24 9 -56 17t-60 8q-158 0 -158 -203q0 -97 38.5 -148.5t114.5 -51.5q43 0 77 9t62 22v-78q-27 -14 -59.5 -21.5t-78.5 -7.5z" />
    <glyph glyph-name="d" unicode="d" horiz-adv-x="615" 
d="M275 -10q-100 0 -160 69.5t-60 207.5t60.5 208.5t160.5 70.5q62 0 101.5 -23t64.5 -56h6q-2 13 -4 38.5t-2 40.5v214h88v-760h-71l-13 72h-4q-24 -34 -64 -58t-103 -24zM289 63q85 0 119.5 46.5t34.5 140.5v16q0 100 -33 153.5t-122 53.5q-71 0 -106.5 -56.5
t-35.5 -151.5q0 -96 35.5 -149t107.5 -53z" />
    <glyph glyph-name="e" unicode="e" horiz-adv-x="564" 
d="M292 546q68 0 118 -30t76.5 -84.5t26.5 -127.5v-53h-367q2 -91 46.5 -138.5t124.5 -47.5q51 0 90.5 9.5t81.5 27.5v-77q-41 -18 -81 -26.5t-95 -8.5q-77 0 -135 31t-90.5 92t-32.5 151q0 88 29.5 151t83 97t124.5 34zM291 474q-63 0 -99.5 -40.5t-43.5 -112.5h273
q-1 68 -32 110.5t-98 42.5z" />
    <glyph glyph-name="f" unicode="f" horiz-adv-x="344" 
d="M332 468h-135v-468h-88v468h-94v41l94 30v31q0 104 45.5 149.5t128.5 45.5q31 0 58 -5.5t46 -12.5l-23 -69q-16 5 -37 10t-43 5q-44 0 -65.5 -29.5t-21.5 -92.5v-35h135v-68z" />
    <glyph glyph-name="g" unicode="g" horiz-adv-x="615" 
d="M275 546q53 0 95.5 -20t72.5 -61h5l12 71h70v-545q0 -115 -58.5 -173t-181.5 -58q-118 0 -193 34v81q79 -42 198 -42q69 0 108.5 40.5t39.5 110.5v21q0 12 1 34.5t2 31.5h-4q-54 -81 -166 -81q-104 0 -162.5 73t-58.5 204q0 128 58.5 203.5t161.5 75.5zM287 472
q-67 0 -104 -53.5t-37 -152.5t36 -151.5t107 -52.5q81 0 118 43.5t37 140.5v21q0 109 -38 157t-119 48z" />
    <glyph glyph-name="h" unicode="h" horiz-adv-x="618" 
d="M173 760v-223q0 -40 -5 -75h6q26 41 70.5 62t96.5 21q97 0 146.5 -46.5t49.5 -149.5v-349h-87v343q0 129 -120 129q-90 0 -123.5 -50.5t-33.5 -144.5v-277h-88v760h88z" />
    <glyph glyph-name="i" unicode="i" horiz-adv-x="258" 
d="M130 737q20 0 35.5 -13.5t15.5 -42.5t-15.5 -42.5t-35.5 -13.5q-22 0 -37 13.5t-15 42.5t15 42.5t37 13.5zM173 536v-536h-88v536h88z" />
    <glyph glyph-name="j" unicode="j" horiz-adv-x="258" 
d="M78 681q0 29 15 42.5t37 13.5q20 0 35.5 -13.5t15.5 -42.5t-15.5 -42.5t-35.5 -13.5q-22 0 -37 13.5t-15 42.5zM22 -240q-26 0 -45 3.5t-32 8.5v71q15 -5 31 -7.5t35 -2.5q32 0 53 17.5t21 66.5v619h88v-616q0 -75 -36 -117.5t-115 -42.5z" />
    <glyph glyph-name="k" unicode="k" horiz-adv-x="534" 
d="M172 760v-397q0 -16 -1.5 -42t-2.5 -45h4q6 8 18 23t24.5 30.5t21.5 25.5l171 181h103l-217 -229l232 -307h-106l-186 250l-61 -53v-197h-87v760h87z" />
    <glyph glyph-name="l" unicode="l" horiz-adv-x="258" 
d="M173 0h-88v760h88v-760z" />
    <glyph glyph-name="m" unicode="m" horiz-adv-x="935" 
d="M673 546q91 0 136 -47t45 -150v-349h-87v345q0 127 -109 127q-78 0 -111.5 -45t-33.5 -131v-296h-87v345q0 127 -110 127q-81 0 -112 -50t-31 -144v-278h-88v536h71l13 -73h5q25 42 67.5 62.5t90.5 20.5q126 0 164 -90h5q27 46 73 68t99 22z" />
    <glyph glyph-name="n" unicode="n" horiz-adv-x="618" 
d="M343 546q96 0 145 -47t49 -150v-349h-87v343q0 129 -120 129q-89 0 -123 -50t-34 -144v-278h-88v536h71l13 -73h5q26 42 72 62.5t97 20.5z" />
    <glyph glyph-name="o" unicode="o" horiz-adv-x="605" 
d="M551 269q0 -133 -67.5 -206t-182.5 -73q-71 0 -126.5 32.5t-87.5 95t-32 151.5q0 133 66.5 205t182.5 72q72 0 128 -32.5t87.5 -94t31.5 -150.5zM146 269q0 -95 37.5 -150.5t119.5 -55.5q81 0 119 55.5t38 150.5t-38 149t-120 54t-119 -54t-37 -149z" />
    <glyph glyph-name="p" unicode="p" horiz-adv-x="615" 
d="M340 546q99 0 159.5 -69t60.5 -208q0 -137 -60.5 -208t-160.5 -71q-62 0 -102.5 23t-63.5 55h-6q1 -17 3.5 -43t2.5 -45v-220h-88v776h72l12 -73h4q24 35 63 59t104 24zM324 472q-82 0 -116 -46t-35 -140v-17q0 -99 32.5 -152.5t120.5 -53.5q48 0 80 26.5t47.5 73.5
t15.5 107q0 92 -35.5 147t-109.5 55z" />
    <glyph glyph-name="q" unicode="q" horiz-adv-x="615" 
d="M442 -240v229q0 18 1 42t4 41h-6q-23 -34 -63.5 -58t-104.5 -24q-97 0 -157.5 69.5t-60.5 207.5t61.5 208.5t159.5 70.5q63 0 103 -24t64 -59h4l13 73h70v-776h-88zM290 63q82 0 117 45.5t36 139.5v18q0 102 -34 154.5t-121 52.5q-72 0 -107 -56.5t-35 -151.5t35 -148.5
t109 -53.5z" />
    <glyph glyph-name="r" unicode="r" horiz-adv-x="413" 
d="M335 546q15 0 32 -1.5t31 -4.5l-11 -81q-13 3 -29 5t-29 2q-41 0 -77 -22.5t-57.5 -63t-21.5 -94.5v-286h-88v536h72l10 -98h4q25 44 66.5 76t97.5 32z" />
    <glyph glyph-name="s" unicode="s" horiz-adv-x="479" 
d="M434 148q0 -78 -58 -118t-156 -40q-56 0 -96.5 9t-71.5 25v80q32 -16 77.5 -29.5t92.5 -13.5q67 0 97 21.5t30 57.5q0 20 -11 36t-39.5 32t-81.5 36q-52 20 -89 40t-57 48t-20 72q0 68 55.5 105t145.5 37q49 0 91.5 -10t79.5 -26l-30 -70q-34 14 -71 24t-76 10
q-54 0 -82.5 -17.5t-28.5 -47.5q0 -23 13 -38t43.5 -30t81.5 -34t87 -39t55 -48.5t19 -71.5z" />
    <glyph glyph-name="t" unicode="t" horiz-adv-x="361" 
d="M264 62q20 0 41 3t34 8v-67q-14 -7 -40 -11.5t-50 -4.5q-42 0 -77.5 14.5t-57.5 50.5t-22 101v312h-76v42l77 35l35 114h52v-123h155v-68h-155v-310q0 -49 23.5 -72.5t60.5 -23.5z" />
    <glyph glyph-name="u" unicode="u" horiz-adv-x="618" 
d="M533 536v-536h-72l-13 71h-4q-26 -42 -72 -61.5t-98 -19.5q-97 0 -146 46.5t-49 148.5v351h89v-345q0 -128 119 -128q89 0 123.5 50t34.5 144v279h88z" />
    <glyph glyph-name="v" unicode="v" horiz-adv-x="508" 
d="M203 0l-203 536h94l114 -316q8 -22 17 -49t16 -52t10 -41h4q3 16 11 41.5t17 52t17 48.5l114 316h94l-204 -536h-101z" />
    <glyph glyph-name="w" unicode="w" horiz-adv-x="786" 
d="M523 1l-92 302q-13 41 -23 80t-14 62h-4q-4 -23 -13 -62t-23 -81l-96 -301h-100l-147 536h91l74 -286q11 -43 21 -87t14 -73h4q3 17 9 42t13 52.5t14 49.5l95 302h96l92 -302q10 -35 21 -75t15 -68h4q3 25 13.5 69t22.5 90l75 286h90l-149 -536h-103z" />
    <glyph glyph-name="x" unicode="x" horiz-adv-x="529" 
d="M212 274l-185 262h100l138 -202l137 202h99l-185 -262l195 -274h-100l-146 214l-148 -214h-99z" />
    <glyph glyph-name="y" unicode="y" horiz-adv-x="510" 
d="M1 536h94l116 -305q15 -41 27 -77t18 -69h4q6 25 19 65.5t27 81.5l109 304h95l-231 -610q-29 -76 -73 -121t-122 -45q-24 0 -42 2.5t-31 5.5v70q11 -2 26.5 -4t32.5 -2q46 0 74 26t45 69l28 71z" />
    <glyph glyph-name="z" unicode="z" horiz-adv-x="470" 
d="M431 0h-392v58l288 410h-271v68h368v-66l-284 -402h291v-68z" />
    <glyph glyph-name="braceleft" unicode="{" horiz-adv-x="380" 
d="M348 -158q-92 1 -145 40t-53 119v147q0 51 -31.5 72.5t-90.5 21.5v73q59 1 90.5 22t31.5 71v148q0 80 55 119t143 39v-72q-52 -2 -81.5 -23.5t-29.5 -70.5v-144q0 -103 -109 -122v-6q109 -19 109 -122v-147q0 -49 29 -70.5t82 -22.5v-72z" />
    <glyph glyph-name="bar" unicode="|" horiz-adv-x="551" 
d="M239 760h73v-1001h-73v1001z" />
    <glyph glyph-name="braceright" unicode="}" horiz-adv-x="380" 
d="M32 -158v72q52 2 81.5 23.5t29.5 70.5v145q0 103 109 122v6q-109 19 -109 122v146q0 49 -29 70.5t-82 22.5v72q92 -1 145 -40t53 -119v-146q0 -51 31.5 -72.5t90.5 -21.5v-73q-59 -1 -90.5 -22t-31.5 -71v-149q0 -80 -55 -119t-143 -39z" />
    <glyph glyph-name="asciitilde" unicode="~" horiz-adv-x="572" 
d="M269 319q-36 16 -59.5 21.5t-45.5 5.5q-28 0 -59 -17t-55 -42v78q48 53 120 53q28 0 57 -6t75 -26q36 -16 59.5 -21.5t44.5 -5.5q29 0 60 17t55 42v-77q-49 -54 -120 -54q-29 0 -58 6.5t-74 25.5z" />
    <glyph glyph-name="uni00A0" unicode="&#xa0;" horiz-adv-x="260" 
 />
    <glyph glyph-name="exclamdown" unicode="&#xa1;" horiz-adv-x="269" 
d="M196 478q0 -38 -18 -52.5t-44 -14.5t-44 14.5t-18 52.5q0 36 18 52t44 16t44 -16t18 -52zM104 330h58l25 -512h-108z" />
    <glyph glyph-name="cent" unicode="&#xa2;" horiz-adv-x="572" 
d="M353 724v-80q37 -2 72 -10t60 -19l-26 -73q-26 10 -59 18t-60 8q-82 0 -120.5 -51t-38.5 -154q0 -104 39.5 -151.5t115.5 -47.5q44 0 76.5 8.5t63.5 21.5v-77q-27 -13 -56 -21t-68 -9v-97h-67v100q-59 9 -102.5 39t-67.5 86.5t-24 146.5q0 91 24 149t67.5 89t102.5 40v84
h68z" />
    <glyph glyph-name="sterling" unicode="&#xa3;" horiz-adv-x="572" 
d="M334 723q55 0 98.5 -12t78.5 -29l-31 -70q-30 14 -67 26t-77 12q-57 0 -87 -29.5t-30 -95.5v-139h204v-66h-204v-104q0 -61 -21 -90.5t-47 -45.5h384v-80h-503v74q43 10 71 42.5t28 98.5v105h-96v66h96v148q0 89 55.5 139t147.5 50z" />
    <glyph glyph-name="currency" unicode="&#xa4;" horiz-adv-x="572" 
d="M90 353q0 30 9.5 58.5t25.5 51.5l-66 68l49 47l66 -64q23 16 51.5 25.5t60.5 9.5q31 0 58.5 -9.5t51.5 -25.5l67 64l48 -47l-64 -67q15 -23 25 -51.5t10 -59.5q0 -63 -35 -112l63 -66l-47 -47l-67 64q-23 -16 -51 -25t-59 -9q-64 0 -112 35l-66 -64l-48 47l65 66
q-16 23 -25.5 51.5t-9.5 59.5zM157 353q0 -36 17 -65.5t46.5 -46.5t65.5 -17t65.5 17t47 46.5t17.5 65.5q0 37 -17.5 66.5t-47 47t-65.5 17.5t-65.5 -17.5t-46.5 -47t-17 -66.5z" />
    <glyph glyph-name="yen" unicode="&#xa5;" horiz-adv-x="572" 
d="M285 365l179 349h92l-201 -375h124v-64h-151v-82h151v-64h-151v-129h-86v129h-151v64h151v82h-151v64h122l-199 375h93z" />
    <glyph glyph-name="brokenbar" unicode="&#xa6;" horiz-adv-x="551" 
d="M239 760h73v-381h-73v381zM239 140h73v-381h-73v381z" />
    <glyph glyph-name="section" unicode="&#xa7;" horiz-adv-x="513" 
d="M67 395q0 49 24 80t55 46q-36 19 -56 47t-20 68q0 60 51 94.5t146 34.5q56 0 94.5 -9.5t76.5 -24.5l-27 -67q-35 14 -68.5 23.5t-81.5 9.5q-60 0 -84.5 -15.5t-24.5 -43.5t28 -47.5t104 -47.5q77 -29 120 -64.5t43 -95.5q0 -51 -23 -83.5t-52 -49.5q35 -19 54.5 -45.5
t19.5 -64.5q0 -69 -57.5 -107t-160.5 -38q-56 0 -97 8.5t-72 24.5v75q32 -15 79 -28t94 -13q74 0 102 21t28 50q0 19 -9.5 33t-37 29t-82.5 36q-53 19 -90 40.5t-56.5 50.5t-19.5 73zM142 405q0 -37 31.5 -62.5t111.5 -55.5l22 -8q23 13 43.5 35t20.5 56q0 25 -13.5 45
t-47.5 38.5t-96 37.5q-28 -7 -50 -30t-22 -56z" />
    <glyph glyph-name="dieresis" unicode="&#xa8;" horiz-adv-x="580" 
d="M149 681q0 26 13.5 37.5t33.5 11.5q19 0 33 -11.5t14 -37.5q0 -25 -14 -37.5t-33 -12.5q-20 0 -33.5 12.5t-13.5 37.5zM337 681q0 26 13.5 37.5t32.5 11.5t33 -11.5t14 -37.5q0 -25 -14 -37.5t-33 -12.5t-32.5 12.5t-13.5 37.5z" />
    <glyph glyph-name="copyright" unicode="&#xa9;" horiz-adv-x="832" 
d="M416 -10q-80 0 -147 27t-116.5 76.5t-76.5 116.5t-27 147t27 147t76.5 116.5t116.5 76.5t147 27q76 0 142.5 -27t117 -76.5t79 -116.5t28.5 -147t-27 -147t-76.5 -116.5t-116.5 -76.5t-147 -27zM416 43q64 0 120 23t99 65.5t67 99.5t24 126q0 65 -23 122t-64.5 100
t-98 67.5t-124.5 24.5q-90 0 -160.5 -40.5t-110.5 -111.5t-40 -162q0 -65 23 -122t64.5 -100t98.5 -67.5t125 -24.5zM431 133q-99 0 -148 61.5t-49 162.5q0 65 23 115.5t68 79t110 28.5t123 -30l-29 -61q-50 26 -93 26q-59 0 -91.5 -42.5t-32.5 -115.5q0 -77 28.5 -118
t94.5 -41q23 0 51.5 6.5t53.5 16.5v-64q-24 -11 -49 -17.5t-60 -6.5z" />
    <glyph glyph-name="ordfeminine" unicode="&#xaa;" horiz-adv-x="357" 
d="M177 722q65 0 98 -27t33 -86v-220h-47l-12 42q-20 -21 -48.5 -34.5t-65.5 -13.5q-47 0 -75 24.5t-28 74.5q0 99 158 105l56 2v22q0 33 -21 46t-50 13q-28 0 -53.5 -7.5t-47.5 -18.5l-22 49q26 13 58 21t67 8zM246 544l-48 -2q-60 -2 -81 -17.5t-21 -42.5q0 -26 14.5 -37
t39.5 -11q51 0 73.5 23.5t22.5 63.5v23z" />
    <glyph glyph-name="guillemotleft" unicode="&#xab;" horiz-adv-x="509" 
d="M40 270l168 201l63 -36l-140 -171l140 -171l-63 -37l-168 201v13zM238 270l170 201l62 -36l-140 -171l140 -171l-62 -37l-170 201v13z" />
    <glyph glyph-name="logicalnot" unicode="&#xac;" horiz-adv-x="572" 
d="M520 388v-260h-71v189h-399v71h470z" />
    <glyph glyph-name="uni00AD" unicode="&#xad;" horiz-adv-x="322" 
d="M40 229v78h242v-78h-242z" />
    <glyph glyph-name="registered" unicode="&#xae;" horiz-adv-x="832" 
d="M416 -10q-80 0 -147 27t-116.5 76.5t-76.5 116.5t-27 147t27 147t76.5 116.5t116.5 76.5t147 27q76 0 142.5 -27t117 -76.5t79 -116.5t28.5 -147t-27 -147t-76.5 -116.5t-116.5 -76.5t-147 -27zM416 43q64 0 120 23t99 65.5t67 99.5t24 126q0 65 -23 122t-64.5 100
t-98 67.5t-124.5 24.5q-90 0 -160.5 -40.5t-110.5 -111.5t-40 -162q0 -65 23 -122t64.5 -100t98.5 -67.5t125 -24.5zM279 138v437h128q82 0 120 -32.5t38 -96.5q0 -47 -24 -74.5t-54 -39.5l116 -194h-86l-100 173h-62v-173h-76zM355 373h50q39 0 61 19.5t22 51.5
q0 35 -20 51t-64 16h-49v-138z" />
    <glyph glyph-name="overscore" unicode="&#xaf;" horiz-adv-x="500" 
d="M503 760h-506v66h506v-66z" />
    <glyph glyph-name="degree" unicode="&#xb0;" horiz-adv-x="428" 
d="M214 417q-72 0 -115.5 42.5t-43.5 110.5t42.5 111t116.5 43q70 0 114.5 -43t44.5 -111t-44.5 -110.5t-114.5 -42.5zM215 476q48 0 70.5 26t22.5 68q0 44 -23.5 70t-69.5 26q-49 0 -72 -26t-23 -70q0 -42 23 -68t72 -26z" />
    <glyph glyph-name="plusminus" unicode="&#xb1;" horiz-adv-x="572" 
d="M321 391h199v-71h-199v-206h-72v206h-199v71h199v207h72v-207zM50 0v71h471v-71h-471z" />
    <glyph glyph-name="uni00B2" unicode="&#xb2;" horiz-adv-x="350" 
d="M306 416h-282v54l115 112q41 39 61.5 63.5t28 43.5t7.5 42q0 31 -18.5 47.5t-48.5 16.5t-54.5 -11.5t-50.5 -31.5l-35 46q29 25 63.5 40t77.5 15q64 0 100.5 -31.5t36.5 -86.5q0 -49 -29.5 -88t-85.5 -92l-81 -77h195v-62z" />
    <glyph glyph-name="uni00B3" unicode="&#xb3;" horiz-adv-x="350" 
d="M165 853q71 0 107 -31t36 -79q0 -41 -21.5 -66.5t-51.5 -35.5v-3q39 -8 62.5 -33t23.5 -66q0 -58 -42.5 -94.5t-130.5 -36.5q-37 0 -69 6.5t-62 21.5v63q70 -34 132 -34q52 0 76 20.5t24 55.5q0 36 -29 52.5t-81 16.5h-57v55h57q50 0 73.5 19.5t23.5 50.5t-20.5 46
t-49.5 15q-31 0 -57.5 -10.5t-53.5 -27.5l-36 46q31 22 65 35.5t81 13.5z" />
    <glyph glyph-name="acute" unicode="&#xb4;" horiz-adv-x="281" 
d="M241 766v-10q-13 -18 -37.5 -46.5t-53 -57t-52.5 -46.5h-58v12q14 18 32 44.5t35 54t28 49.5h106z" />
    <glyph glyph-name="uni00B5" unicode="&#xb5;" horiz-adv-x="623" 
d="M538 536v-536h-71l-14 72h-5q-26 -40 -65.5 -61t-95.5 -21q-39 0 -67 12.5t-48 32.5h-4q2 -18 3.5 -48.5t1.5 -70.5v-156h-88v776h88v-346q0 -127 120 -127q89 0 123 50t34 144v279h88z" />
    <glyph glyph-name="paragraph" unicode="&#xb6;" horiz-adv-x="655" 
d="M549 -127h-58v831h-102v-831h-58v400q-15 -5 -34.5 -7t-36.5 -2q-62 0 -108 23t-71.5 77t-25.5 145q0 95 27.5 150t77.5 78t115 23h274v-887z" />
    <glyph glyph-name="periodcentered" unicode="&#xb7;" horiz-adv-x="268" 
d="M72 353q0 37 18 52t43 15t44 -15t19 -52q0 -36 -19 -52t-44 -16t-43 16t-18 52z" />
    <glyph glyph-name="cedilla" unicode="&#xb8;" horiz-adv-x="225" 
d="M212 -139q0 -48 -37 -74.5t-111 -26.5q-32 0 -50 5v55q9 -2 24 -3.5t29 -1.5q36 0 55 9.5t19 34.5q0 26 -26.5 38t-64.5 17l43 86h58l-26 -53q36 -8 61.5 -28t25.5 -58z" />
    <glyph glyph-name="uni00B9" unicode="&#xb9;" horiz-adv-x="350" 
d="M240 844v-428h-71v276q0 26 1.5 47t2.5 42q-10 -9 -22 -19.5t-25 -19.5l-54 -39l-35 49l130 92h73z" />
    <glyph glyph-name="ordmasculine" unicode="&#xba;" horiz-adv-x="376" 
d="M345 553q0 -81 -43 -125.5t-115 -44.5q-67 0 -111 43.5t-44 126.5q0 82 42 125.5t115 43.5q71 0 113.5 -43t42.5 -126zM95 553q0 -59 21.5 -88t71.5 -29q49 0 71 29t22 88t-22 87.5t-71 28.5t-71 -28.5t-22 -87.5z" />
    <glyph glyph-name="guillemotright" unicode="&#xbb;" horiz-adv-x="509" 
d="M469 257l-170 -201l-62 37l140 171l-140 171l62 36l170 -201v-13zM270 257l-169 -201l-62 37l140 171l-140 171l62 36l169 -201v-13z" />
    <glyph glyph-name="onequarter" unicode="&#xbc;" horiz-adv-x="745" 
d="M126 0l436 714h75l-436 -714h-75zM166 286v276q0 26 1 47t3 42q-10 -9 -22 -19.5t-25 -19.5l-54 -39l-35 49l130 92h73v-428h-71zM600 0v96h-195v52l197 283h73v-275h61v-60h-61v-96h-75zM475 156h125v93q0 21 1 49t2 52q-5 -11 -21 -35.5t-27 -41.5z" />
    <glyph glyph-name="onehalf" unicode="&#xbd;" horiz-adv-x="771" 
d="M96 0l436 714h75l-436 -714h-75zM154 286v276q0 26 1 47t3 42q-10 -9 -22 -19.5t-25 -19.5l-54 -39l-35 49l130 92h73v-428h-71zM445 0v54l115 112q40 39 61 63.5t28.5 43.5t7.5 42q0 31 -18.5 47.5t-48.5 16.5t-55 -11.5t-50 -31.5l-35 46q29 25 63.5 40t77.5 15
q64 0 100.5 -31.5t36.5 -86.5q0 -49 -30 -88t-85 -92l-81 -77h195v-62h-282z" />
    <glyph glyph-name="threequarters" unicode="&#xbe;" horiz-adv-x="781" 
d="M146 278q-37 0 -69 6.5t-62 21.5v63q70 -34 132 -34q52 0 76 20.5t24 55.5q0 36 -29 52.5t-81 16.5h-57v55h57q50 0 73.5 19.5t23.5 50.5t-20.5 46t-49.5 15q-31 0 -57.5 -10.5t-53.5 -27.5l-36 46q31 22 65 35.5t81 13.5q71 0 107 -31t36 -79q0 -41 -21.5 -66.5
t-51.5 -35.5v-3q39 -8 62.5 -33t23.5 -66q0 -58 -42.5 -94.5t-130.5 -36.5zM170 0l436 714h75l-436 -714h-75zM636 0v96h-195v52l197 283h73v-275h61v-60h-61v-96h-75zM511 156h125v93q0 21 1 49t2 52q-5 -11 -21 -35.5t-27 -41.5z" />
    <glyph glyph-name="questiondown" unicode="&#xbf;" horiz-adv-x="434" 
d="M292 331v-27q0 -38 -7.5 -65.5t-26 -52t-50.5 -52.5q-38 -32 -60 -54.5t-31 -43.5t-9 -51q0 -48 31 -74t90 -26q49 0 87 12.5t73 29.5l31 -70q-40 -21 -88.5 -35t-108.5 -14q-95 0 -147 47t-52 128q0 45 14.5 76.5t41 58t62.5 56.5q34 28 51 49t23 42t6 49v17h70z
M315 478q0 -37 -17.5 -52t-44.5 -15q-25 0 -43 15t-18 52q0 36 18 52t43 16q27 0 44.5 -16t17.5 -52z" />
    <glyph glyph-name="Agrave" unicode="&#xc0;" horiz-adv-x="639" 
d="M545 0l-86 221h-283l-85 -221h-91l279 717h81l278 -717h-93zM432 301l-80 216q-3 8 -10 29t-13.5 43.5t-10.5 34.5q-8 -31 -16.5 -60.5t-14.5 -46.5l-81 -216h226zM292 944q11 -22 27.5 -49.5t35 -54t33.5 -44.5v-12h-59q-23 18 -52 46.5t-53.5 57t-36.5 46.5v10h105z
" />
    <glyph glyph-name="Aacute" unicode="&#xc1;" horiz-adv-x="639" 
d="M545 0l-86 221h-283l-85 -221h-91l279 717h81l278 -717h-93zM432 301l-80 216q-3 8 -10 29t-13.5 43.5t-10.5 34.5q-8 -31 -16.5 -60.5t-14.5 -46.5l-81 -216h226zM459 944v-10q-13 -18 -37.5 -46.5t-53 -57t-52.5 -46.5h-58v12q14 18 32 44.5t35 54t28 49.5h106z" />
    <glyph glyph-name="Acircumflex" unicode="&#xc2;" horiz-adv-x="639" 
d="M545 0l-86 221h-283l-85 -221h-91l279 717h81l278 -717h-93zM432 301l-80 216q-3 8 -10 29t-13.5 43.5t-10.5 34.5q-8 -31 -16.5 -60.5t-14.5 -46.5l-81 -216h226zM364 944q12 -22 34.5 -49.5t47 -54t43.5 -45.5v-11h-62q-26 16 -54 39.5t-55 50.5q-27 -27 -54 -50.5
t-53 -39.5h-60v11q18 19 42 45.5t46 54t35 49.5h90z" />
    <glyph glyph-name="Atilde" unicode="&#xc3;" horiz-adv-x="639" 
d="M545 0l-86 221h-283l-85 -221h-91l279 717h81l278 -717h-93zM432 301l-80 216q-3 8 -10 29t-13.5 43.5t-10.5 34.5q-8 -31 -16.5 -60.5t-14.5 -46.5l-81 -216h226zM134 784q6 59 34.5 93.5t75.5 34.5q30 0 56.5 -14.5t50.5 -28.5t45 -14q23 0 35.5 14.5t19.5 43.5h50
q-6 -59 -34 -93.5t-75 -34.5q-28 0 -54.5 14t-51 28.5t-46.5 14.5q-24 0 -36 -14.5t-19 -43.5h-51z" />
    <glyph glyph-name="Adieresis" unicode="&#xc4;" horiz-adv-x="639" 
d="M545 0l-86 221h-283l-85 -221h-91l279 717h81l278 -717h-93zM432 301l-80 216q-3 8 -10 29t-13.5 43.5t-10.5 34.5q-8 -31 -16.5 -60.5t-14.5 -46.5l-81 -216h226zM177 859q0 26 13.5 37.5t33.5 11.5q19 0 33 -11.5t14 -37.5q0 -25 -14 -37.5t-33 -12.5q-20 0 -33.5 12.5
t-13.5 37.5zM365 859q0 26 13.5 37.5t32.5 11.5t33 -11.5t14 -37.5q0 -25 -14 -37.5t-33 -12.5t-32.5 12.5t-13.5 37.5z" />
    <glyph glyph-name="Aring" unicode="&#xc5;" horiz-adv-x="639" 
d="M545 0l-86 221h-283l-85 -221h-91l279 717h81l278 -717h-93zM432 301l-80 216q-3 8 -10 29t-13.5 43.5t-10.5 34.5q-8 -31 -16.5 -60.5t-14.5 -46.5l-81 -216h226zM317 667q-49 0 -79 28t-30 78t30 77.5t79 27.5q47 0 79 -27.5t32 -76.5q0 -51 -31.5 -79t-79.5 -28z
M317 717q25 0 40.5 15t15.5 41t-16 41t-40 15t-40 -15t-16 -41t14.5 -41t41.5 -15z" />
    <glyph glyph-name="AE" unicode="&#xc6;" horiz-adv-x="881" 
d="M821 0h-372v221h-250l-107 -221h-93l339 714h483v-79h-282v-223h263v-78h-263v-255h282v-79zM234 301h215v333h-58z" />
    <glyph glyph-name="Ccedilla" unicode="&#xc7;" horiz-adv-x="632" 
d="M403 645q-115 0 -181 -77t-66 -211q0 -133 61.5 -210.5t184.5 -77.5q46 0 88 8t83 20v-78q-40 -15 -82.5 -22t-101.5 -7q-109 0 -182 45t-109.5 128t-36.5 195q0 108 39.5 190.5t116.5 129t187 46.5q113 0 197 -42l-36 -76q-33 15 -73.5 27t-88.5 12zM473 -139
q0 -48 -37 -74.5t-111 -26.5q-32 0 -50 5v55q9 -2 24 -3.5t29 -1.5q36 0 55 9.5t19 34.5q0 26 -26.5 38t-64.5 17l43 86h58l-26 -53q36 -8 61.5 -28t25.5 -58z" />
    <glyph glyph-name="Egrave" unicode="&#xc8;" horiz-adv-x="556" 
d="M496 0h-399v714h399v-79h-309v-223h291v-78h-291v-255h309v-79zM279 944q11 -22 27.5 -49.5t35 -54t33.5 -44.5v-12h-59q-23 18 -52 46.5t-53.5 57t-36.5 46.5v10h105z" />
    <glyph glyph-name="Eacute" unicode="&#xc9;" horiz-adv-x="556" 
d="M496 0h-399v714h399v-79h-309v-223h291v-78h-291v-255h309v-79zM446 944v-10q-13 -18 -37.5 -46.5t-53 -57t-52.5 -46.5h-58v12q14 18 32 44.5t35 54t28 49.5h106z" />
    <glyph glyph-name="Ecircumflex" unicode="&#xca;" horiz-adv-x="556" 
d="M496 0h-399v714h399v-79h-309v-223h291v-78h-291v-255h309v-79zM351 944q12 -22 34.5 -49.5t47 -54t43.5 -45.5v-11h-62q-26 16 -54 39.5t-55 50.5q-27 -27 -54 -50.5t-53 -39.5h-60v11q18 19 42 45.5t46 54t35 49.5h90z" />
    <glyph glyph-name="Edieresis" unicode="&#xcb;" horiz-adv-x="556" 
d="M496 0h-399v714h399v-79h-309v-223h291v-78h-291v-255h309v-79zM164 859q0 26 13.5 37.5t33.5 11.5q19 0 33 -11.5t14 -37.5q0 -25 -14 -37.5t-33 -12.5q-20 0 -33.5 12.5t-13.5 37.5zM352 859q0 26 13.5 37.5t32.5 11.5t33 -11.5t14 -37.5q0 -25 -14 -37.5t-33 -12.5
t-32.5 12.5t-13.5 37.5z" />
    <glyph glyph-name="Igrave" unicode="&#xcc;" horiz-adv-x="339" 
d="M298 0h-258v52l84 19v571l-84 20v52h258v-52l-84 -20v-571l84 -19v-52zM144 944q11 -22 27.5 -49.5t35 -54t33.5 -44.5v-12h-59q-23 18 -52 46.5t-53.5 57t-36.5 46.5v10h105z" />
    <glyph glyph-name="Iacute" unicode="&#xcd;" horiz-adv-x="339" 
d="M298 0h-258v52l84 19v571l-84 20v52h258v-52l-84 -20v-571l84 -19v-52zM311 944v-10q-13 -18 -37.5 -46.5t-53 -57t-52.5 -46.5h-58v12q14 18 32 44.5t35 54t28 49.5h106z" />
    <glyph glyph-name="Icircumflex" unicode="&#xce;" horiz-adv-x="339" 
d="M298 0h-258v52l84 19v571l-84 20v52h258v-52l-84 -20v-571l84 -19v-52zM216 944q12 -22 34.5 -49.5t47 -54t43.5 -45.5v-11h-62q-26 16 -54 39.5t-55 50.5q-27 -27 -54 -50.5t-53 -39.5h-60v11q18 19 42 45.5t46 54t35 49.5h90z" />
    <glyph glyph-name="Idieresis" unicode="&#xcf;" horiz-adv-x="339" 
d="M298 0h-258v52l84 19v571l-84 20v52h258v-52l-84 -20v-571l84 -19v-52zM29 859q0 26 13.5 37.5t33.5 11.5q19 0 33 -11.5t14 -37.5q0 -25 -14 -37.5t-33 -12.5q-20 0 -33.5 12.5t-13.5 37.5zM217 859q0 26 13.5 37.5t32.5 11.5t33 -11.5t14 -37.5q0 -25 -14 -37.5
t-33 -12.5t-32.5 12.5t-13.5 37.5z" />
    <glyph glyph-name="Eth" unicode="&#xd0;" horiz-adv-x="730" 
d="M317 714q107 0 186 -40t122.5 -118t43.5 -192q0 -181 -98.5 -272.5t-275.5 -91.5h-191v314h-74v78h74v322h213zM304 637h-110v-245h178v-78h-178v-237h90q290 0 290 284q0 143 -71 209.5t-199 66.5z" />
    <glyph glyph-name="Ntilde" unicode="&#xd1;" horiz-adv-x="760" 
d="M663 0h-105l-382 593h-4q2 -35 5 -87t3 -107v-399h-83v714h104l381 -591h4q-1 16 -2.5 48t-3 69.5t-1.5 70.5v403h84v-714zM196 784q6 59 34.5 93.5t75.5 34.5q30 0 56.5 -14.5t50.5 -28.5t45 -14q23 0 35.5 14.5t19.5 43.5h50q-6 -59 -34 -93.5t-75 -34.5
q-28 0 -54.5 14t-51 28.5t-46.5 14.5q-24 0 -36 -14.5t-19 -43.5h-51z" />
    <glyph glyph-name="Ograve" unicode="&#xd2;" horiz-adv-x="781" 
d="M720 358q0 -111 -37.5 -193.5t-111 -128.5t-180.5 -46q-111 0 -184.5 46t-109.5 129t-36 194q0 109 36 191.5t109.5 128.5t185.5 46q107 0 180 -45.5t110.5 -128t37.5 -193.5zM156 358q0 -135 57 -212.5t178 -77.5t177.5 77.5t56.5 212.5t-56 211.5t-177 76.5
q-122 0 -179 -76.5t-57 -211.5zM365 944q11 -22 27.5 -49.5t35 -54t33.5 -44.5v-12h-59q-23 18 -52 46.5t-53.5 57t-36.5 46.5v10h105z" />
    <glyph glyph-name="Oacute" unicode="&#xd3;" horiz-adv-x="781" 
d="M720 358q0 -111 -37.5 -193.5t-111 -128.5t-180.5 -46q-111 0 -184.5 46t-109.5 129t-36 194q0 109 36 191.5t109.5 128.5t185.5 46q107 0 180 -45.5t110.5 -128t37.5 -193.5zM156 358q0 -135 57 -212.5t178 -77.5t177.5 77.5t56.5 212.5t-56 211.5t-177 76.5
q-122 0 -179 -76.5t-57 -211.5zM532 944v-10q-13 -18 -37.5 -46.5t-53 -57t-52.5 -46.5h-58v12q14 18 32 44.5t35 54t28 49.5h106z" />
    <glyph glyph-name="Ocircumflex" unicode="&#xd4;" horiz-adv-x="781" 
d="M720 358q0 -111 -37.5 -193.5t-111 -128.5t-180.5 -46q-111 0 -184.5 46t-109.5 129t-36 194q0 109 36 191.5t109.5 128.5t185.5 46q107 0 180 -45.5t110.5 -128t37.5 -193.5zM156 358q0 -135 57 -212.5t178 -77.5t177.5 77.5t56.5 212.5t-56 211.5t-177 76.5
q-122 0 -179 -76.5t-57 -211.5zM437 944q12 -22 34.5 -49.5t47 -54t43.5 -45.5v-11h-62q-26 16 -54 39.5t-55 50.5q-27 -27 -54 -50.5t-53 -39.5h-60v11q18 19 42 45.5t46 54t35 49.5h90z" />
    <glyph glyph-name="Otilde" unicode="&#xd5;" horiz-adv-x="781" 
d="M720 358q0 -111 -37.5 -193.5t-111 -128.5t-180.5 -46q-111 0 -184.5 46t-109.5 129t-36 194q0 109 36 191.5t109.5 128.5t185.5 46q107 0 180 -45.5t110.5 -128t37.5 -193.5zM156 358q0 -135 57 -212.5t178 -77.5t177.5 77.5t56.5 212.5t-56 211.5t-177 76.5
q-122 0 -179 -76.5t-57 -211.5zM207 784q6 59 34.5 93.5t75.5 34.5q30 0 56.5 -14.5t50.5 -28.5t45 -14q23 0 35.5 14.5t19.5 43.5h50q-6 -59 -34 -93.5t-75 -34.5q-28 0 -54.5 14t-51 28.5t-46.5 14.5q-24 0 -36 -14.5t-19 -43.5h-51z" />
    <glyph glyph-name="Odieresis" unicode="&#xd6;" horiz-adv-x="781" 
d="M720 358q0 -111 -37.5 -193.5t-111 -128.5t-180.5 -46q-111 0 -184.5 46t-109.5 129t-36 194q0 109 36 191.5t109.5 128.5t185.5 46q107 0 180 -45.5t110.5 -128t37.5 -193.5zM156 358q0 -135 57 -212.5t178 -77.5t177.5 77.5t56.5 212.5t-56 211.5t-177 76.5
q-122 0 -179 -76.5t-57 -211.5zM250 859q0 26 13.5 37.5t33.5 11.5q19 0 33 -11.5t14 -37.5q0 -25 -14 -37.5t-33 -12.5q-20 0 -33.5 12.5t-13.5 37.5zM438 859q0 26 13.5 37.5t32.5 11.5t33 -11.5t14 -37.5q0 -25 -14 -37.5t-33 -12.5t-32.5 12.5t-13.5 37.5z" />
    <glyph glyph-name="multiply" unicode="&#xd7;" horiz-adv-x="572" 
d="M456 574l50 -51l-170 -170l169 -170l-50 -51l-171 169l-167 -169l-52 51l169 170l-170 169l52 52l169 -171z" />
    <glyph glyph-name="Oslash" unicode="&#xd8;" horiz-adv-x="781" 
d="M720 358q0 -111 -37.5 -193.5t-111 -128.5t-180.5 -46q-112 0 -185 47l-48 -68l-61 40l52 74q-44 49 -66 119t-22 157q0 109 36 191.5t109.5 128.5t185.5 46q52 0 96.5 -12t81.5 -33l46 66l61 -41l-51 -71q94 -99 94 -276zM156 358q0 -62 11.5 -111.5t35.5 -86.5l319 451
q-52 35 -130 35q-122 0 -179 -76.5t-57 -211.5zM625 358q0 128 -51 202l-320 -454q26 -18 60.5 -28t76.5 -10q121 0 177.5 77.5t56.5 212.5z" />
    <glyph glyph-name="Ugrave" unicode="&#xd9;" horiz-adv-x="731" 
d="M640 714v-462q0 -74 -30 -133.5t-92 -94t-156 -34.5q-134 0 -203 72.5t-69 191.5v460h90v-463q0 -87 46.5 -135t140.5 -48q97 0 140.5 51.5t43.5 132.5v462h89zM340 944q11 -22 27.5 -49.5t35 -54t33.5 -44.5v-12h-59q-23 18 -52 46.5t-53.5 57t-36.5 46.5v10h105z" />
    <glyph glyph-name="Uacute" unicode="&#xda;" horiz-adv-x="731" 
d="M640 714v-462q0 -74 -30 -133.5t-92 -94t-156 -34.5q-134 0 -203 72.5t-69 191.5v460h90v-463q0 -87 46.5 -135t140.5 -48q97 0 140.5 51.5t43.5 132.5v462h89zM507 944v-10q-13 -18 -37.5 -46.5t-53 -57t-52.5 -46.5h-58v12q14 18 32 44.5t35 54t28 49.5h106z" />
    <glyph glyph-name="Ucircumflex" unicode="&#xdb;" horiz-adv-x="731" 
d="M640 714v-462q0 -74 -30 -133.5t-92 -94t-156 -34.5q-134 0 -203 72.5t-69 191.5v460h90v-463q0 -87 46.5 -135t140.5 -48q97 0 140.5 51.5t43.5 132.5v462h89zM412 944q12 -22 34.5 -49.5t47 -54t43.5 -45.5v-11h-62q-26 16 -54 39.5t-55 50.5q-27 -27 -54 -50.5
t-53 -39.5h-60v11q18 19 42 45.5t46 54t35 49.5h90z" />
    <glyph glyph-name="Udieresis" unicode="&#xdc;" horiz-adv-x="731" 
d="M640 714v-462q0 -74 -30 -133.5t-92 -94t-156 -34.5q-134 0 -203 72.5t-69 191.5v460h90v-463q0 -87 46.5 -135t140.5 -48q97 0 140.5 51.5t43.5 132.5v462h89zM225 859q0 26 13.5 37.5t33.5 11.5q19 0 33 -11.5t14 -37.5q0 -25 -14 -37.5t-33 -12.5q-20 0 -33.5 12.5
t-13.5 37.5zM413 859q0 26 13.5 37.5t32.5 11.5t33 -11.5t14 -37.5q0 -25 -14 -37.5t-33 -12.5t-32.5 12.5t-13.5 37.5z" />
    <glyph glyph-name="Yacute" unicode="&#xdd;" horiz-adv-x="566" 
d="M283 363l186 351h97l-238 -437v-277h-90v273l-238 441h98zM424 944v-10q-13 -18 -37.5 -46.5t-53 -57t-52.5 -46.5h-58v12q14 18 32 44.5t35 54t28 49.5h106z" />
    <glyph glyph-name="Thorn" unicode="&#xde;" horiz-adv-x="605" 
d="M554 382q0 -60 -26 -112t-88.5 -83.5t-171.5 -31.5h-81v-155h-90v714h90v-124h96q145 0 208 -55t63 -153zM187 231h72q105 0 153.5 33.5t48.5 112.5q0 69 -43.5 102.5t-141.5 33.5h-89v-282z" />
    <glyph glyph-name="germandbls" unicode="&#xdf;" horiz-adv-x="631" 
d="M522 617q0 -34 -14 -59.5t-35 -45t-42 -35.5t-35 -31.5t-14 -33.5q0 -14 6.5 -24.5t25.5 -25t56 -39.5q54 -36 85 -73.5t31 -96.5q0 -85 -52 -124t-134 -39q-47 0 -83 9t-62 25v79q25 -16 63.5 -29t78.5 -13q55 0 79 23t24 63q0 36 -20.5 60.5t-73.5 59.5
q-63 41 -86 70.5t-23 69.5q0 31 13.5 53t34 38.5t41 32.5t34 35t13.5 46q0 42 -35.5 61t-91.5 19q-35 0 -65.5 -9.5t-49 -33t-18.5 -65.5v-584h-88v584q0 67 29 106.5t79 57t113 17.5q97 0 156.5 -37t59.5 -111z" />
    <glyph glyph-name="agrave" unicode="&#xe0;" horiz-adv-x="561" 
d="M288 545q98 0 145 -43t47 -137v-365h-64l-17 76h-4q-35 -44 -74 -65t-106 -21q-73 0 -121 38.5t-48 120.5q0 80 63 123.5t194 47.5l91 3v32q0 67 -29 93t-82 26q-42 0 -80 -12.5t-71 -28.5l-27 66q35 19 83 32.5t100 13.5zM393 262l-79 -3q-100 -4 -138.5 -32t-38.5 -79
q0 -45 27.5 -66t70.5 -21q67 0 112.5 37.5t45.5 115.5v48zM255 766q11 -22 27.5 -49.5t35 -54t33.5 -44.5v-12h-59q-23 18 -52 46.5t-53.5 57t-36.5 46.5v10h105z" />
    <glyph glyph-name="aacute" unicode="&#xe1;" horiz-adv-x="561" 
d="M288 545q98 0 145 -43t47 -137v-365h-64l-17 76h-4q-35 -44 -74 -65t-106 -21q-73 0 -121 38.5t-48 120.5q0 80 63 123.5t194 47.5l91 3v32q0 67 -29 93t-82 26q-42 0 -80 -12.5t-71 -28.5l-27 66q35 19 83 32.5t100 13.5zM393 262l-79 -3q-100 -4 -138.5 -32t-38.5 -79
q0 -45 27.5 -66t70.5 -21q67 0 112.5 37.5t45.5 115.5v48zM422 766v-10q-13 -18 -37.5 -46.5t-53 -57t-52.5 -46.5h-58v12q14 18 32 44.5t35 54t28 49.5h106z" />
    <glyph glyph-name="acircumflex" unicode="&#xe2;" horiz-adv-x="561" 
d="M288 545q98 0 145 -43t47 -137v-365h-64l-17 76h-4q-35 -44 -74 -65t-106 -21q-73 0 -121 38.5t-48 120.5q0 80 63 123.5t194 47.5l91 3v32q0 67 -29 93t-82 26q-42 0 -80 -12.5t-71 -28.5l-27 66q35 19 83 32.5t100 13.5zM393 262l-79 -3q-100 -4 -138.5 -32t-38.5 -79
q0 -45 27.5 -66t70.5 -21q67 0 112.5 37.5t45.5 115.5v48zM327 766q12 -22 34.5 -49.5t47 -54t43.5 -45.5v-11h-62q-26 16 -54 39.5t-55 50.5q-27 -27 -54 -50.5t-53 -39.5h-60v11q18 19 42 45.5t46 54t35 49.5h90z" />
    <glyph glyph-name="atilde" unicode="&#xe3;" horiz-adv-x="561" 
d="M288 545q98 0 145 -43t47 -137v-365h-64l-17 76h-4q-35 -44 -74 -65t-106 -21q-73 0 -121 38.5t-48 120.5q0 80 63 123.5t194 47.5l91 3v32q0 67 -29 93t-82 26q-42 0 -80 -12.5t-71 -28.5l-27 66q35 19 83 32.5t100 13.5zM393 262l-79 -3q-100 -4 -138.5 -32t-38.5 -79
q0 -45 27.5 -66t70.5 -21q67 0 112.5 37.5t45.5 115.5v48zM97 606q6 59 34.5 93.5t75.5 34.5q30 0 56.5 -14.5t50.5 -28.5t45 -14q23 0 35.5 14.5t19.5 43.5h50q-6 -59 -34 -93.5t-75 -34.5q-28 0 -54.5 14t-51 28.5t-46.5 14.5q-24 0 -36 -14.5t-19 -43.5h-51z" />
    <glyph glyph-name="adieresis" unicode="&#xe4;" horiz-adv-x="561" 
d="M288 545q98 0 145 -43t47 -137v-365h-64l-17 76h-4q-35 -44 -74 -65t-106 -21q-73 0 -121 38.5t-48 120.5q0 80 63 123.5t194 47.5l91 3v32q0 67 -29 93t-82 26q-42 0 -80 -12.5t-71 -28.5l-27 66q35 19 83 32.5t100 13.5zM393 262l-79 -3q-100 -4 -138.5 -32t-38.5 -79
q0 -45 27.5 -66t70.5 -21q67 0 112.5 37.5t45.5 115.5v48zM140 681q0 26 13.5 37.5t33.5 11.5q19 0 33 -11.5t14 -37.5q0 -25 -14 -37.5t-33 -12.5q-20 0 -33.5 12.5t-13.5 37.5zM328 681q0 26 13.5 37.5t32.5 11.5t33 -11.5t14 -37.5q0 -25 -14 -37.5t-33 -12.5t-32.5 12.5
t-13.5 37.5z" />
    <glyph glyph-name="aring" unicode="&#xe5;" horiz-adv-x="561" 
d="M288 545q98 0 145 -43t47 -137v-365h-64l-17 76h-4q-35 -44 -74 -65t-106 -21q-73 0 -121 38.5t-48 120.5q0 80 63 123.5t194 47.5l91 3v32q0 67 -29 93t-82 26q-42 0 -80 -12.5t-71 -28.5l-27 66q35 19 83 32.5t100 13.5zM393 262l-79 -3q-100 -4 -138.5 -32t-38.5 -79
q0 -45 27.5 -66t70.5 -21q67 0 112.5 37.5t45.5 115.5v48zM282 606q-49 0 -79 28t-30 78t30 77.5t79 27.5q47 0 79 -27.5t32 -76.5q0 -51 -31.5 -79t-79.5 -28zM282 656q25 0 40.5 15t15.5 41t-16 41t-40 15t-40 -15t-16 -41t14.5 -41t41.5 -15z" />
    <glyph glyph-name="ae" unicode="&#xe6;" horiz-adv-x="864" 
d="M603 546q65 0 112 -30t72.5 -84t25.5 -126v-54h-343q2 -96 41.5 -141.5t113.5 -45.5q49 0 87.5 9.5t76.5 27.5v-77q-40 -18 -78.5 -26.5t-88.5 -8.5q-141 0 -203 113q-35 -52 -80.5 -82.5t-122.5 -30.5q-73 0 -121.5 38.5t-48.5 120.5q0 80 60 123.5t184 47.5l90 3v34
q0 65 -30.5 91t-81.5 26q-40 0 -78.5 -12t-71.5 -29l-27 66q35 19 85 32.5t99 13.5q62 0 102.5 -20.5t61.5 -65.5q26 41 68 64t96 23zM602 474q-58 0 -91.5 -39.5t-38.5 -113.5h248q0 69 -28.5 111t-89.5 42zM378 262l-75 -3q-94 -4 -130 -32t-36 -79q0 -45 25.5 -66
t67.5 -21q63 0 105.5 37.5t42.5 115.5v48z" />
    <glyph glyph-name="ccedilla" unicode="&#xe7;" horiz-adv-x="480" 
d="M300 -10q-72 0 -127 29t-86.5 90t-31.5 156q0 99 32.5 161t89.5 91t129 29q40 0 78.5 -8.5t62.5 -20.5l-27 -73q-24 9 -56 17t-60 8q-158 0 -158 -203q0 -97 38.5 -148.5t114.5 -51.5q43 0 77 9t62 22v-78q-27 -14 -59.5 -21.5t-78.5 -7.5zM382 -139q0 -48 -37 -74.5
t-111 -26.5q-32 0 -50 5v55q9 -2 24 -3.5t29 -1.5q36 0 55 9.5t19 34.5q0 26 -26.5 38t-64.5 17l43 86h58l-26 -53q36 -8 61.5 -28t25.5 -58z" />
    <glyph glyph-name="egrave" unicode="&#xe8;" horiz-adv-x="564" 
d="M292 546q68 0 118 -30t76.5 -84.5t26.5 -127.5v-53h-367q2 -91 46.5 -138.5t124.5 -47.5q51 0 90.5 9.5t81.5 27.5v-77q-41 -18 -81 -26.5t-95 -8.5q-77 0 -135 31t-90.5 92t-32.5 151q0 88 29.5 151t83 97t124.5 34zM291 474q-63 0 -99.5 -40.5t-43.5 -112.5h273
q-1 68 -32 110.5t-98 42.5zM259 766q11 -22 27.5 -49.5t35 -54t33.5 -44.5v-12h-59q-23 18 -52 46.5t-53.5 57t-36.5 46.5v10h105z" />
    <glyph glyph-name="eacute" unicode="&#xe9;" horiz-adv-x="564" 
d="M292 546q68 0 118 -30t76.5 -84.5t26.5 -127.5v-53h-367q2 -91 46.5 -138.5t124.5 -47.5q51 0 90.5 9.5t81.5 27.5v-77q-41 -18 -81 -26.5t-95 -8.5q-77 0 -135 31t-90.5 92t-32.5 151q0 88 29.5 151t83 97t124.5 34zM291 474q-63 0 -99.5 -40.5t-43.5 -112.5h273
q-1 68 -32 110.5t-98 42.5zM426 766v-10q-13 -18 -37.5 -46.5t-53 -57t-52.5 -46.5h-58v12q14 18 32 44.5t35 54t28 49.5h106z" />
    <glyph glyph-name="ecircumflex" unicode="&#xea;" horiz-adv-x="564" 
d="M292 546q68 0 118 -30t76.5 -84.5t26.5 -127.5v-53h-367q2 -91 46.5 -138.5t124.5 -47.5q51 0 90.5 9.5t81.5 27.5v-77q-41 -18 -81 -26.5t-95 -8.5q-77 0 -135 31t-90.5 92t-32.5 151q0 88 29.5 151t83 97t124.5 34zM291 474q-63 0 -99.5 -40.5t-43.5 -112.5h273
q-1 68 -32 110.5t-98 42.5zM331 766q12 -22 34.5 -49.5t47 -54t43.5 -45.5v-11h-62q-26 16 -54 39.5t-55 50.5q-27 -27 -54 -50.5t-53 -39.5h-60v11q18 19 42 45.5t46 54t35 49.5h90z" />
    <glyph glyph-name="edieresis" unicode="&#xeb;" horiz-adv-x="564" 
d="M292 546q68 0 118 -30t76.5 -84.5t26.5 -127.5v-53h-367q2 -91 46.5 -138.5t124.5 -47.5q51 0 90.5 9.5t81.5 27.5v-77q-41 -18 -81 -26.5t-95 -8.5q-77 0 -135 31t-90.5 92t-32.5 151q0 88 29.5 151t83 97t124.5 34zM291 474q-63 0 -99.5 -40.5t-43.5 -112.5h273
q-1 68 -32 110.5t-98 42.5zM144 681q0 26 13.5 37.5t33.5 11.5q19 0 33 -11.5t14 -37.5q0 -25 -14 -37.5t-33 -12.5q-20 0 -33.5 12.5t-13.5 37.5zM332 681q0 26 13.5 37.5t32.5 11.5t33 -11.5t14 -37.5q0 -25 -14 -37.5t-33 -12.5t-32.5 12.5t-13.5 37.5z" />
    <glyph glyph-name="igrave" unicode="&#xec;" horiz-adv-x="258" 
d="M173 0h-88v536h88v-536zM103 766q11 -22 27.5 -49.5t35 -54t33.5 -44.5v-12h-59q-23 18 -52 46.5t-53.5 57t-36.5 46.5v10h105z" />
    <glyph glyph-name="iacute" unicode="&#xed;" horiz-adv-x="258" 
d="M173 0h-88v536h88v-536zM270 766v-10q-13 -18 -37.5 -46.5t-53 -57t-52.5 -46.5h-58v12q14 18 32 44.5t35 54t28 49.5h106z" />
    <glyph glyph-name="icircumflex" unicode="&#xee;" horiz-adv-x="258" 
d="M173 0h-88v536h88v-536zM175 766q12 -22 34.5 -49.5t47 -54t43.5 -45.5v-11h-62q-26 16 -54 39.5t-55 50.5q-27 -27 -54 -50.5t-53 -39.5h-60v11q18 19 42 45.5t46 54t35 49.5h90z" />
    <glyph glyph-name="idieresis" unicode="&#xef;" horiz-adv-x="258" 
d="M173 0h-88v536h88v-536zM-12 681q0 26 13.5 37.5t33.5 11.5q19 0 33 -11.5t14 -37.5q0 -25 -14 -37.5t-33 -12.5q-20 0 -33.5 12.5t-13.5 37.5zM176 681q0 26 13.5 37.5t32.5 11.5t33 -11.5t14 -37.5q0 -25 -14 -37.5t-33 -12.5t-32.5 12.5t-13.5 37.5z" />
    <glyph glyph-name="eth" unicode="&#xf0;" horiz-adv-x="605" 
d="M216 765q32 -15 64.5 -33t61.5 -39l115 67l38 -54l-99 -57q68 -64 111.5 -158.5t43.5 -215.5q0 -143 -67 -214t-183 -71q-72 0 -127.5 29.5t-87 84t-31.5 129.5q0 112 63.5 176t171.5 64q52 0 92 -14t64 -44l4 2q-16 57 -49 105t-75 86l-130 -75l-38 55l112 64
q-21 14 -44 27.5t-46 25.5zM303 402q-84 0 -121.5 -44.5t-37.5 -127.5q0 -74 38 -121t121 -47t121 48.5t38 140.5q0 62 -39 106.5t-120 44.5z" />
    <glyph glyph-name="ntilde" unicode="&#xf1;" horiz-adv-x="618" 
d="M343 546q96 0 145 -47t49 -150v-349h-87v343q0 129 -120 129q-89 0 -123 -50t-34 -144v-278h-88v536h71l13 -73h5q26 42 72 62.5t97 20.5zM125 606q6 59 34.5 93.5t75.5 34.5q30 0 56.5 -14.5t50.5 -28.5t45 -14q23 0 35.5 14.5t19.5 43.5h50q-6 -59 -34 -93.5t-75 -34.5
q-28 0 -54.5 14t-51 28.5t-46.5 14.5q-24 0 -36 -14.5t-19 -43.5h-51z" />
    <glyph glyph-name="ograve" unicode="&#xf2;" horiz-adv-x="605" 
d="M551 269q0 -133 -67.5 -206t-182.5 -73q-71 0 -126.5 32.5t-87.5 95t-32 151.5q0 133 66.5 205t182.5 72q72 0 128 -32.5t87.5 -94t31.5 -150.5zM146 269q0 -95 37.5 -150.5t119.5 -55.5q81 0 119 55.5t38 150.5t-38 149t-120 54t-119 -54t-37 -149zM277 766
q11 -22 27.5 -49.5t35 -54t33.5 -44.5v-12h-59q-23 18 -52 46.5t-53.5 57t-36.5 46.5v10h105z" />
    <glyph glyph-name="oacute" unicode="&#xf3;" horiz-adv-x="605" 
d="M551 269q0 -133 -67.5 -206t-182.5 -73q-71 0 -126.5 32.5t-87.5 95t-32 151.5q0 133 66.5 205t182.5 72q72 0 128 -32.5t87.5 -94t31.5 -150.5zM146 269q0 -95 37.5 -150.5t119.5 -55.5q81 0 119 55.5t38 150.5t-38 149t-120 54t-119 -54t-37 -149zM444 766v-10
q-13 -18 -37.5 -46.5t-53 -57t-52.5 -46.5h-58v12q14 18 32 44.5t35 54t28 49.5h106z" />
    <glyph glyph-name="ocircumflex" unicode="&#xf4;" horiz-adv-x="605" 
d="M551 269q0 -133 -67.5 -206t-182.5 -73q-71 0 -126.5 32.5t-87.5 95t-32 151.5q0 133 66.5 205t182.5 72q72 0 128 -32.5t87.5 -94t31.5 -150.5zM146 269q0 -95 37.5 -150.5t119.5 -55.5q81 0 119 55.5t38 150.5t-38 149t-120 54t-119 -54t-37 -149zM349 766
q12 -22 34.5 -49.5t47 -54t43.5 -45.5v-11h-62q-26 16 -54 39.5t-55 50.5q-27 -27 -54 -50.5t-53 -39.5h-60v11q18 19 42 45.5t46 54t35 49.5h90z" />
    <glyph glyph-name="otilde" unicode="&#xf5;" horiz-adv-x="605" 
d="M551 269q0 -133 -67.5 -206t-182.5 -73q-71 0 -126.5 32.5t-87.5 95t-32 151.5q0 133 66.5 205t182.5 72q72 0 128 -32.5t87.5 -94t31.5 -150.5zM146 269q0 -95 37.5 -150.5t119.5 -55.5q81 0 119 55.5t38 150.5t-38 149t-120 54t-119 -54t-37 -149zM119 606
q6 59 34.5 93.5t75.5 34.5q30 0 56.5 -14.5t50.5 -28.5t45 -14q23 0 35.5 14.5t19.5 43.5h50q-6 -59 -34 -93.5t-75 -34.5q-28 0 -54.5 14t-51 28.5t-46.5 14.5q-24 0 -36 -14.5t-19 -43.5h-51z" />
    <glyph glyph-name="odieresis" unicode="&#xf6;" horiz-adv-x="605" 
d="M551 269q0 -133 -67.5 -206t-182.5 -73q-71 0 -126.5 32.5t-87.5 95t-32 151.5q0 133 66.5 205t182.5 72q72 0 128 -32.5t87.5 -94t31.5 -150.5zM146 269q0 -95 37.5 -150.5t119.5 -55.5q81 0 119 55.5t38 150.5t-38 149t-120 54t-119 -54t-37 -149zM162 681
q0 26 13.5 37.5t33.5 11.5q19 0 33 -11.5t14 -37.5q0 -25 -14 -37.5t-33 -12.5q-20 0 -33.5 12.5t-13.5 37.5zM350 681q0 26 13.5 37.5t32.5 11.5t33 -11.5t14 -37.5q0 -25 -14 -37.5t-33 -12.5t-32.5 12.5t-13.5 37.5z" />
    <glyph glyph-name="divide" unicode="&#xf7;" horiz-adv-x="572" 
d="M285 462q-23 0 -39.5 14.5t-16.5 46.5q0 34 16.5 47t39.5 13t39 -13t16 -47q0 -32 -16 -46.5t-39 -14.5zM50 317v71h471v-71h-471zM285 121q-23 0 -39.5 14.5t-16.5 46.5q0 34 16.5 47t39.5 13t39 -13t16 -47q0 -32 -16 -46.5t-39 -14.5z" />
    <glyph glyph-name="oslash" unicode="&#xf8;" horiz-adv-x="605" 
d="M551 269q0 -133 -67.5 -206t-182.5 -73q-73 0 -129 33l-40 -56l-58 39l45 62q-31 36 -47.5 86t-16.5 115q0 133 66.5 205t182.5 72q73 0 131 -36l39 56l59 -38l-45 -63q29 -35 46 -84.5t17 -111.5zM146 269q0 -38 5.5 -70.5t18.5 -57.5l220 306q-36 25 -88 25
q-82 0 -119 -54t-37 -149zM460 269q0 74 -23 123l-220 -306q34 -23 86 -23q81 0 119 55.5t38 150.5z" />
    <glyph glyph-name="ugrave" unicode="&#xf9;" horiz-adv-x="618" 
d="M533 536v-536h-72l-13 71h-4q-26 -42 -72 -61.5t-98 -19.5q-97 0 -146 46.5t-49 148.5v351h89v-345q0 -128 119 -128q89 0 123.5 50t34.5 144v279h88zM283 766q11 -22 27.5 -49.5t35 -54t33.5 -44.5v-12h-59q-23 18 -52 46.5t-53.5 57t-36.5 46.5v10h105z" />
    <glyph glyph-name="uacute" unicode="&#xfa;" horiz-adv-x="618" 
d="M533 536v-536h-72l-13 71h-4q-26 -42 -72 -61.5t-98 -19.5q-97 0 -146 46.5t-49 148.5v351h89v-345q0 -128 119 -128q89 0 123.5 50t34.5 144v279h88zM450 766v-10q-13 -18 -37.5 -46.5t-53 -57t-52.5 -46.5h-58v12q14 18 32 44.5t35 54t28 49.5h106z" />
    <glyph glyph-name="ucircumflex" unicode="&#xfb;" horiz-adv-x="618" 
d="M533 536v-536h-72l-13 71h-4q-26 -42 -72 -61.5t-98 -19.5q-97 0 -146 46.5t-49 148.5v351h89v-345q0 -128 119 -128q89 0 123.5 50t34.5 144v279h88zM355 766q12 -22 34.5 -49.5t47 -54t43.5 -45.5v-11h-62q-26 16 -54 39.5t-55 50.5q-27 -27 -54 -50.5t-53 -39.5h-60
v11q18 19 42 45.5t46 54t35 49.5h90z" />
    <glyph glyph-name="udieresis" unicode="&#xfc;" horiz-adv-x="618" 
d="M533 536v-536h-72l-13 71h-4q-26 -42 -72 -61.5t-98 -19.5q-97 0 -146 46.5t-49 148.5v351h89v-345q0 -128 119 -128q89 0 123.5 50t34.5 144v279h88zM168 681q0 26 13.5 37.5t33.5 11.5q19 0 33 -11.5t14 -37.5q0 -25 -14 -37.5t-33 -12.5q-20 0 -33.5 12.5t-13.5 37.5z
M356 681q0 26 13.5 37.5t32.5 11.5t33 -11.5t14 -37.5q0 -25 -14 -37.5t-33 -12.5t-32.5 12.5t-13.5 37.5z" />
    <glyph glyph-name="yacute" unicode="&#xfd;" horiz-adv-x="510" 
d="M1 536h94l116 -305q15 -41 27 -77t18 -69h4q6 25 19 65.5t27 81.5l109 304h95l-231 -610q-29 -76 -73 -121t-122 -45q-24 0 -42 2.5t-31 5.5v70q11 -2 26.5 -4t32.5 -2q46 0 74 26t45 69l28 71zM396 766v-10q-13 -18 -37.5 -46.5t-53 -57t-52.5 -46.5h-58v12
q14 18 32 44.5t35 54t28 49.5h106z" />
    <glyph glyph-name="thorn" unicode="&#xfe;" horiz-adv-x="615" 
d="M560 269q0 -137 -60.5 -208t-159.5 -71q-63 0 -103 23t-64 55h-6q1 -8 2.5 -24t2.5 -33t1 -27v-224h-88v1000h88v-224q0 -14 -1 -36.5t-2 -35.5h4q24 34 63 58t103 24q99 0 159.5 -70t60.5 -207zM469 270q0 101 -35 151.5t-109 50.5q-83 0 -117 -46t-35 -138v-19
q0 -99 32.5 -152.5t120.5 -53.5q74 0 108.5 53.5t34.5 153.5z" />
    <glyph glyph-name="ydieresis" unicode="&#xff;" horiz-adv-x="510" 
d="M1 536h94l116 -305q15 -41 27 -77t18 -69h4q6 25 19 65.5t27 81.5l109 304h95l-231 -610q-29 -76 -73 -121t-122 -45q-24 0 -42 2.5t-31 5.5v70q11 -2 26.5 -4t32.5 -2q46 0 74 26t45 69l28 71zM114 681q0 26 13.5 37.5t33.5 11.5q19 0 33 -11.5t14 -37.5
q0 -25 -14 -37.5t-33 -12.5q-20 0 -33.5 12.5t-13.5 37.5zM302 681q0 26 13.5 37.5t32.5 11.5t33 -11.5t14 -37.5q0 -25 -14 -37.5t-33 -12.5t-32.5 12.5t-13.5 37.5z" />
    <glyph glyph-name="Amacron" unicode="&#x100;" horiz-adv-x="639" 
d="M545 0l-86 221h-283l-85 -221h-91l279 717h81l278 -717h-93zM432 301l-80 216q-3 8 -10 29t-13.5 43.5t-10.5 34.5q-8 -31 -16.5 -60.5t-14.5 -46.5l-81 -216h226zM466 855v-71h-297v71h297z" />
    <glyph glyph-name="amacron" unicode="&#x101;" horiz-adv-x="561" 
d="M288 545q98 0 145 -43t47 -137v-365h-64l-17 76h-4q-35 -44 -74 -65t-106 -21q-73 0 -121 38.5t-48 120.5q0 80 63 123.5t194 47.5l91 3v32q0 67 -29 93t-82 26q-42 0 -80 -12.5t-71 -28.5l-27 66q35 19 83 32.5t100 13.5zM393 262l-79 -3q-100 -4 -138.5 -32t-38.5 -79
q0 -45 27.5 -66t70.5 -21q67 0 112.5 37.5t45.5 115.5v48zM429 677v-71h-297v71h297z" />
    <glyph glyph-name="Abreve" unicode="&#x102;" horiz-adv-x="639" 
d="M545 0l-86 221h-283l-85 -221h-91l279 717h81l278 -717h-93zM432 301l-80 216q-3 8 -10 29t-13.5 43.5t-10.5 34.5q-8 -31 -16.5 -60.5t-14.5 -46.5l-81 -216h226zM478 918q-5 -60 -45.5 -97t-112.5 -37q-74 0 -111.5 36t-41.5 98h54q4 -41 29.5 -52t71.5 -11
q39 0 67.5 12t33.5 51h55z" />
    <glyph glyph-name="abreve" unicode="&#x103;" horiz-adv-x="561" 
d="M288 545q98 0 145 -43t47 -137v-365h-64l-17 76h-4q-35 -44 -74 -65t-106 -21q-73 0 -121 38.5t-48 120.5q0 80 63 123.5t194 47.5l91 3v32q0 67 -29 93t-82 26q-42 0 -80 -12.5t-71 -28.5l-27 66q35 19 83 32.5t100 13.5zM393 262l-79 -3q-100 -4 -138.5 -32t-38.5 -79
q0 -45 27.5 -66t70.5 -21q67 0 112.5 37.5t45.5 115.5v48zM441 740q-5 -60 -45.5 -97t-112.5 -37q-74 0 -111.5 36t-41.5 98h54q4 -41 29.5 -52t71.5 -11q39 0 67.5 12t33.5 51h55z" />
    <glyph glyph-name="Aogonek" unicode="&#x104;" horiz-adv-x="639" 
d="M545 0l-86 221h-283l-85 -221h-91l279 717h81l278 -717h-93zM432 301l-80 216q-3 8 -10 29t-13.5 43.5t-10.5 34.5q-8 -31 -16.5 -60.5t-14.5 -46.5l-81 -216h226zM545 -116q0 -45 45 -45q17 0 28.5 2.5t19.5 3.5v-56q-14 -4 -28.5 -6.5t-33.5 -2.5q-53 0 -78 25t-25 69
q0 28 14.5 55.5t36 49.5t41.5 36l48 -15q-34 -32 -51 -58.5t-17 -57.5z" />
    <glyph glyph-name="aogonek" unicode="&#x105;" horiz-adv-x="561" 
d="M288 545q98 0 145 -43t47 -137v-365h-64l-17 76h-4q-35 -44 -74 -65t-106 -21q-73 0 -121 38.5t-48 120.5q0 80 63 123.5t194 47.5l91 3v32q0 67 -29 93t-82 26q-42 0 -80 -12.5t-71 -28.5l-27 66q35 19 83 32.5t100 13.5zM393 262l-79 -3q-100 -4 -138.5 -32t-38.5 -79
q0 -45 27.5 -66t70.5 -21q67 0 112.5 37.5t45.5 115.5v48zM412 -116q0 -45 45 -45q17 0 28.5 2.5t19.5 3.5v-56q-14 -4 -28.5 -6.5t-33.5 -2.5q-53 0 -78 25t-25 69q0 28 14.5 55.5t36 49.5t41.5 36l48 -15q-34 -32 -51 -58.5t-17 -57.5z" />
    <glyph glyph-name="Cacute" unicode="&#x106;" horiz-adv-x="632" 
d="M403 645q-115 0 -181 -77t-66 -211q0 -133 61.5 -210.5t184.5 -77.5q46 0 88 8t83 20v-78q-40 -15 -82.5 -22t-101.5 -7q-109 0 -182 45t-109.5 128t-36.5 195q0 108 39.5 190.5t116.5 129t187 46.5q113 0 197 -42l-36 -76q-33 15 -73.5 27t-88.5 12zM521 944v-10
q-13 -18 -37.5 -46.5t-53 -57t-52.5 -46.5h-58v12q14 18 32 44.5t35 54t28 49.5h106z" />
    <glyph glyph-name="cacute" unicode="&#x107;" horiz-adv-x="480" 
d="M300 -10q-72 0 -127 29t-86.5 90t-31.5 156q0 99 32.5 161t89.5 91t129 29q40 0 78.5 -8.5t62.5 -20.5l-27 -73q-24 9 -56 17t-60 8q-158 0 -158 -203q0 -97 38.5 -148.5t114.5 -51.5q43 0 77 9t62 22v-78q-27 -14 -59.5 -21.5t-78.5 -7.5zM425 766v-10
q-13 -18 -37.5 -46.5t-53 -57t-52.5 -46.5h-58v12q14 18 32 44.5t35 54t28 49.5h106z" />
    <glyph glyph-name="Ccircumflex" unicode="&#x108;" horiz-adv-x="632" 
d="M403 645q-115 0 -181 -77t-66 -211q0 -133 61.5 -210.5t184.5 -77.5q46 0 88 8t83 20v-78q-40 -15 -82.5 -22t-101.5 -7q-109 0 -182 45t-109.5 128t-36.5 195q0 108 39.5 190.5t116.5 129t187 46.5q113 0 197 -42l-36 -76q-33 15 -73.5 27t-88.5 12zM426 944
q12 -22 34.5 -49.5t47 -54t43.5 -45.5v-11h-62q-26 16 -54 39.5t-55 50.5q-27 -27 -54 -50.5t-53 -39.5h-60v11q18 19 42 45.5t46 54t35 49.5h90z" />
    <glyph glyph-name="ccircumflex" unicode="&#x109;" horiz-adv-x="480" 
d="M300 -10q-72 0 -127 29t-86.5 90t-31.5 156q0 99 32.5 161t89.5 91t129 29q40 0 78.5 -8.5t62.5 -20.5l-27 -73q-24 9 -56 17t-60 8q-158 0 -158 -203q0 -97 38.5 -148.5t114.5 -51.5q43 0 77 9t62 22v-78q-27 -14 -59.5 -21.5t-78.5 -7.5zM330 766q12 -22 34.5 -49.5
t47 -54t43.5 -45.5v-11h-62q-26 16 -54 39.5t-55 50.5q-27 -27 -54 -50.5t-53 -39.5h-60v11q18 19 42 45.5t46 54t35 49.5h90z" />
    <glyph glyph-name="Cdot" unicode="&#x10a;" horiz-adv-x="632" 
d="M403 645q-115 0 -181 -77t-66 -211q0 -133 61.5 -210.5t184.5 -77.5q46 0 88 8t83 20v-78q-40 -15 -82.5 -22t-101.5 -7q-109 0 -182 45t-109.5 128t-36.5 195q0 108 39.5 190.5t116.5 129t187 46.5q113 0 197 -42l-36 -76q-33 15 -73.5 27t-88.5 12zM383 915
q20 0 35.5 -13.5t15.5 -42.5t-15.5 -42.5t-35.5 -13.5q-22 0 -37 13.5t-15 42.5t15 42.5t37 13.5z" />
    <glyph glyph-name="cdot" unicode="&#x10b;" horiz-adv-x="480" 
d="M300 -10q-72 0 -127 29t-86.5 90t-31.5 156q0 99 32.5 161t89.5 91t129 29q40 0 78.5 -8.5t62.5 -20.5l-27 -73q-24 9 -56 17t-60 8q-158 0 -158 -203q0 -97 38.5 -148.5t114.5 -51.5q43 0 77 9t62 22v-78q-27 -14 -59.5 -21.5t-78.5 -7.5zM287 737q20 0 35.5 -13.5
t15.5 -42.5t-15.5 -42.5t-35.5 -13.5q-22 0 -37 13.5t-15 42.5t15 42.5t37 13.5z" />
    <glyph glyph-name="Ccaron" unicode="&#x10c;" horiz-adv-x="632" 
d="M403 645q-115 0 -181 -77t-66 -211q0 -133 61.5 -210.5t184.5 -77.5q46 0 88 8t83 20v-78q-40 -15 -82.5 -22t-101.5 -7q-109 0 -182 45t-109.5 128t-36.5 195q0 108 39.5 190.5t116.5 129t187 46.5q113 0 197 -42l-36 -76q-33 15 -73.5 27t-88.5 12zM334 784
q-13 22 -35 49t-46 53t-42 45v13h60q26 -17 54 -41t53 -51q27 27 55 51t54 41h62v-13q-19 -19 -43.5 -45t-47 -53t-34.5 -49h-90z" />
    <glyph glyph-name="ccaron" unicode="&#x10d;" horiz-adv-x="480" 
d="M300 -10q-72 0 -127 29t-86.5 90t-31.5 156q0 99 32.5 161t89.5 91t129 29q40 0 78.5 -8.5t62.5 -20.5l-27 -73q-24 9 -56 17t-60 8q-158 0 -158 -203q0 -97 38.5 -148.5t114.5 -51.5q43 0 77 9t62 22v-78q-27 -14 -59.5 -21.5t-78.5 -7.5zM238 606q-13 22 -35 49t-46 53
t-42 45v13h60q26 -17 54 -41t53 -51q27 27 55 51t54 41h62v-13q-19 -19 -43.5 -45t-47 -53t-34.5 -49h-90z" />
    <glyph glyph-name="Dcaron" unicode="&#x10e;" horiz-adv-x="730" 
d="M669 364q0 -181 -98.5 -272.5t-274.5 -91.5h-199v714h220q107 0 186.5 -40t122.5 -118t43 -192zM574 361q0 143 -70.5 209.5t-199.5 66.5h-117v-560h97q290 0 290 284zM315 784q-13 22 -35 49t-46 53t-42 45v13h60q26 -17 54 -41t53 -51q27 27 55 51t54 41h62v-13
q-19 -19 -43.5 -45t-47 -53t-34.5 -49h-90z" />
    <glyph glyph-name="dcaron" unicode="&#x10f;" horiz-adv-x="615" 
d="M275 -10q-100 0 -160 69.5t-60 207.5t60.5 208.5t160.5 70.5q62 0 101.5 -23t64.5 -56h6q-2 13 -4 38.5t-2 40.5v214h88v-760h-71l-13 72h-4q-24 -34 -64 -58t-103 -24zM289 63q85 0 119.5 46.5t34.5 140.5v16q0 100 -33 153.5t-122 53.5q-71 0 -106.5 -56.5
t-35.5 -151.5q0 -96 35.5 -149t107.5 -53zM688 760v-9q-4 -18 -15.5 -45t-26.5 -55.5t-30 -50.5h-48v12q6 19 13 45.5t12 53.5t8 49h87z" />
    <glyph glyph-name="Dcroat" unicode="&#x110;" horiz-adv-x="730" 
d="M317 714q107 0 186 -40t122.5 -118t43.5 -192q0 -181 -98.5 -272.5t-275.5 -91.5h-191v314h-74v78h74v322h213zM304 637h-110v-245h178v-78h-178v-237h90q290 0 290 284q0 143 -71 209.5t-199 66.5z" />
    <glyph glyph-name="dcroat" unicode="&#x111;" horiz-adv-x="617" 
d="M275 -10q-101 0 -160.5 69t-59.5 206q0 140 60.5 209t159.5 69q63 0 102.5 -23t64.5 -56h6q-2 13 -4 38.5t-2 41.5v61h-213v66h213v89h88v-89h76v-66h-76v-605h-72l-13 72h-4q-24 -34 -64 -58t-102 -24zM290 63q84 0 118.5 46t34.5 139v17q0 101 -33 153t-122 52
q-71 0 -106 -55t-35 -151t35 -148.5t108 -52.5z" />
    <glyph glyph-name="Emacron" unicode="&#x112;" horiz-adv-x="556" 
d="M496 0h-399v714h399v-79h-309v-223h291v-78h-291v-255h309v-79zM453 855v-71h-297v71h297z" />
    <glyph glyph-name="emacron" unicode="&#x113;" horiz-adv-x="564" 
d="M292 546q68 0 118 -30t76.5 -84.5t26.5 -127.5v-53h-367q2 -91 46.5 -138.5t124.5 -47.5q51 0 90.5 9.5t81.5 27.5v-77q-41 -18 -81 -26.5t-95 -8.5q-77 0 -135 31t-90.5 92t-32.5 151q0 88 29.5 151t83 97t124.5 34zM291 474q-63 0 -99.5 -40.5t-43.5 -112.5h273
q-1 68 -32 110.5t-98 42.5zM433 677v-71h-297v71h297z" />
    <glyph glyph-name="Ebreve" unicode="&#x114;" horiz-adv-x="556" 
d="M496 0h-399v714h399v-79h-309v-223h291v-78h-291v-255h309v-79zM465 918q-5 -60 -45.5 -97t-112.5 -37q-74 0 -111.5 36t-41.5 98h54q4 -41 29.5 -52t71.5 -11q39 0 67.5 12t33.5 51h55z" />
    <glyph glyph-name="ebreve" unicode="&#x115;" horiz-adv-x="564" 
d="M292 546q68 0 118 -30t76.5 -84.5t26.5 -127.5v-53h-367q2 -91 46.5 -138.5t124.5 -47.5q51 0 90.5 9.5t81.5 27.5v-77q-41 -18 -81 -26.5t-95 -8.5q-77 0 -135 31t-90.5 92t-32.5 151q0 88 29.5 151t83 97t124.5 34zM291 474q-63 0 -99.5 -40.5t-43.5 -112.5h273
q-1 68 -32 110.5t-98 42.5zM445 740q-5 -60 -45.5 -97t-112.5 -37q-74 0 -111.5 36t-41.5 98h54q4 -41 29.5 -52t71.5 -11q39 0 67.5 12t33.5 51h55z" />
    <glyph glyph-name="Edotaccent" unicode="&#x116;" horiz-adv-x="556" 
d="M496 0h-399v714h399v-79h-309v-223h291v-78h-291v-255h309v-79zM308 915q20 0 35.5 -13.5t15.5 -42.5t-15.5 -42.5t-35.5 -13.5q-22 0 -37 13.5t-15 42.5t15 42.5t37 13.5z" />
    <glyph glyph-name="edotaccent" unicode="&#x117;" horiz-adv-x="564" 
d="M292 546q68 0 118 -30t76.5 -84.5t26.5 -127.5v-53h-367q2 -91 46.5 -138.5t124.5 -47.5q51 0 90.5 9.5t81.5 27.5v-77q-41 -18 -81 -26.5t-95 -8.5q-77 0 -135 31t-90.5 92t-32.5 151q0 88 29.5 151t83 97t124.5 34zM291 474q-63 0 -99.5 -40.5t-43.5 -112.5h273
q-1 68 -32 110.5t-98 42.5zM288 737q20 0 35.5 -13.5t15.5 -42.5t-15.5 -42.5t-35.5 -13.5q-22 0 -37 13.5t-15 42.5t15 42.5t37 13.5z" />
    <glyph glyph-name="Eogonek" unicode="&#x118;" horiz-adv-x="556" 
d="M496 0h-399v714h399v-79h-309v-223h291v-78h-291v-255h309v-79zM398 -116q0 -45 45 -45q17 0 28.5 2.5t19.5 3.5v-56q-14 -4 -28.5 -6.5t-33.5 -2.5q-53 0 -78 25t-25 69q0 28 14.5 55.5t36 49.5t41.5 36l48 -15q-34 -32 -51 -58.5t-17 -57.5z" />
    <glyph glyph-name="eogonek" unicode="&#x119;" horiz-adv-x="564" 
d="M389 -116q0 -45 45 -45q16 0 28 2.5t20 3.5v-56q-14 -4 -28 -6.5t-34 -2.5q-53 0 -78 25t-25 69q0 34 20.5 65.5t45.5 54.5q-31 -4 -70 -4q-77 0 -135 31t-90.5 92t-32.5 151q0 88 29.5 151t83 97t124.5 34q68 0 118 -30t76.5 -84.5t26.5 -127.5v-53h-367
q2 -91 46.5 -138.5t124.5 -47.5q51 0 90.5 9.5t81.5 27.5v-77q-41 -32 -62.5 -56t-29.5 -44.5t-8 -40.5zM291 474q-63 0 -99.5 -40.5t-43.5 -112.5h273q-1 68 -32 110.5t-98 42.5z" />
    <glyph glyph-name="Ecaron" unicode="&#x11a;" horiz-adv-x="556" 
d="M496 0h-399v714h399v-79h-309v-223h291v-78h-291v-255h309v-79zM259 784q-13 22 -35 49t-46 53t-42 45v13h60q26 -17 54 -41t53 -51q27 27 55 51t54 41h62v-13q-19 -19 -43.5 -45t-47 -53t-34.5 -49h-90z" />
    <glyph glyph-name="ecaron" unicode="&#x11b;" horiz-adv-x="564" 
d="M292 546q68 0 118 -30t76.5 -84.5t26.5 -127.5v-53h-367q2 -91 46.5 -138.5t124.5 -47.5q51 0 90.5 9.5t81.5 27.5v-77q-41 -18 -81 -26.5t-95 -8.5q-77 0 -135 31t-90.5 92t-32.5 151q0 88 29.5 151t83 97t124.5 34zM291 474q-63 0 -99.5 -40.5t-43.5 -112.5h273
q-1 68 -32 110.5t-98 42.5zM239 606q-13 22 -35 49t-46 53t-42 45v13h60q26 -17 54 -41t53 -51q27 27 55 51t54 41h62v-13q-19 -19 -43.5 -45t-47 -53t-34.5 -49h-90z" />
    <glyph glyph-name="Gcircumflex" unicode="&#x11c;" horiz-adv-x="728" 
d="M407 377h247v-350q-58 -19 -117 -28t-134 -9q-111 0 -187 44.5t-115.5 127t-39.5 195.5q0 111 43.5 193.5t126.5 128t200 45.5q60 0 113.5 -11t99.5 -31l-34 -78q-38 16 -85.5 28.5t-98.5 12.5q-128 0 -199.5 -77.5t-71.5 -210.5q0 -85 27.5 -150.5t86.5 -102t155 -36.5
q47 0 80 5t60 12v212h-157v80zM451 944q12 -22 34.5 -49.5t47 -54t43.5 -45.5v-11h-62q-26 16 -54 39.5t-55 50.5q-27 -27 -54 -50.5t-53 -39.5h-60v11q18 19 42 45.5t46 54t35 49.5h90z" />
    <glyph glyph-name="gcircumflex" unicode="&#x11d;" horiz-adv-x="615" 
d="M275 546q53 0 95.5 -20t72.5 -61h5l12 71h70v-545q0 -115 -58.5 -173t-181.5 -58q-118 0 -193 34v81q79 -42 198 -42q69 0 108.5 40.5t39.5 110.5v21q0 12 1 34.5t2 31.5h-4q-54 -81 -166 -81q-104 0 -162.5 73t-58.5 204q0 128 58.5 203.5t161.5 75.5zM287 472
q-67 0 -104 -53.5t-37 -152.5t36 -151.5t107 -52.5q81 0 118 43.5t37 140.5v21q0 109 -38 157t-119 48zM343 766q12 -22 34.5 -49.5t47 -54t43.5 -45.5v-11h-62q-26 16 -54 39.5t-55 50.5q-27 -27 -54 -50.5t-53 -39.5h-60v11q18 19 42 45.5t46 54t35 49.5h90z" />
    <glyph glyph-name="Gbreve" unicode="&#x11e;" horiz-adv-x="728" 
d="M407 377h247v-350q-58 -19 -117 -28t-134 -9q-111 0 -187 44.5t-115.5 127t-39.5 195.5q0 111 43.5 193.5t126.5 128t200 45.5q60 0 113.5 -11t99.5 -31l-34 -78q-38 16 -85.5 28.5t-98.5 12.5q-128 0 -199.5 -77.5t-71.5 -210.5q0 -85 27.5 -150.5t86.5 -102t155 -36.5
q47 0 80 5t60 12v212h-157v80zM565 918q-5 -60 -45.5 -97t-112.5 -37q-74 0 -111.5 36t-41.5 98h54q4 -41 29.5 -52t71.5 -11q39 0 67.5 12t33.5 51h55z" />
    <glyph glyph-name="gbreve" unicode="&#x11f;" horiz-adv-x="615" 
d="M275 546q53 0 95.5 -20t72.5 -61h5l12 71h70v-545q0 -115 -58.5 -173t-181.5 -58q-118 0 -193 34v81q79 -42 198 -42q69 0 108.5 40.5t39.5 110.5v21q0 12 1 34.5t2 31.5h-4q-54 -81 -166 -81q-104 0 -162.5 73t-58.5 204q0 128 58.5 203.5t161.5 75.5zM287 472
q-67 0 -104 -53.5t-37 -152.5t36 -151.5t107 -52.5q81 0 118 43.5t37 140.5v21q0 109 -38 157t-119 48zM457 740q-5 -60 -45.5 -97t-112.5 -37q-74 0 -111.5 36t-41.5 98h54q4 -41 29.5 -52t71.5 -11q39 0 67.5 12t33.5 51h55z" />
    <glyph glyph-name="Gdot" unicode="&#x120;" horiz-adv-x="728" 
d="M407 377h247v-350q-58 -19 -117 -28t-134 -9q-111 0 -187 44.5t-115.5 127t-39.5 195.5q0 111 43.5 193.5t126.5 128t200 45.5q60 0 113.5 -11t99.5 -31l-34 -78q-38 16 -85.5 28.5t-98.5 12.5q-128 0 -199.5 -77.5t-71.5 -210.5q0 -85 27.5 -150.5t86.5 -102t155 -36.5
q47 0 80 5t60 12v212h-157v80zM408 915q20 0 35.5 -13.5t15.5 -42.5t-15.5 -42.5t-35.5 -13.5q-22 0 -37 13.5t-15 42.5t15 42.5t37 13.5z" />
    <glyph glyph-name="gdot" unicode="&#x121;" horiz-adv-x="615" 
d="M275 546q53 0 95.5 -20t72.5 -61h5l12 71h70v-545q0 -115 -58.5 -173t-181.5 -58q-118 0 -193 34v81q79 -42 198 -42q69 0 108.5 40.5t39.5 110.5v21q0 12 1 34.5t2 31.5h-4q-54 -81 -166 -81q-104 0 -162.5 73t-58.5 204q0 128 58.5 203.5t161.5 75.5zM287 472
q-67 0 -104 -53.5t-37 -152.5t36 -151.5t107 -52.5q81 0 118 43.5t37 140.5v21q0 109 -38 157t-119 48zM300 737q20 0 35.5 -13.5t15.5 -42.5t-15.5 -42.5t-35.5 -13.5q-22 0 -37 13.5t-15 42.5t15 42.5t37 13.5z" />
    <glyph glyph-name="uni0122" unicode="&#x122;" horiz-adv-x="728" 
d="M407 377h247v-350q-58 -19 -117 -28t-134 -9q-111 0 -187 44.5t-115.5 127t-39.5 195.5q0 111 43.5 193.5t126.5 128t200 45.5q60 0 113.5 -11t99.5 -31l-34 -78q-38 16 -85.5 28.5t-98.5 12.5q-128 0 -199.5 -77.5t-71.5 -210.5q0 -85 27.5 -150.5t86.5 -102t155 -36.5
q47 0 80 5t60 12v212h-157v80zM466 -61v-9q-5 -18 -17 -45.5t-28.5 -56t-34.5 -49.5h-48v12q7 17 16 43.5t16 55t9 49.5h87z" />
    <glyph glyph-name="uni0123" unicode="&#x123;" horiz-adv-x="615" 
d="M275 546q53 0 95.5 -20t72.5 -61h5l12 71h70v-545q0 -115 -58.5 -173t-181.5 -58q-118 0 -193 34v81q79 -42 198 -42q69 0 108.5 40.5t39.5 110.5v21q0 12 1 34.5t2 31.5h-4q-54 -81 -166 -81q-104 0 -162.5 73t-58.5 204q0 128 58.5 203.5t161.5 75.5zM287 472
q-67 0 -104 -53.5t-37 -152.5t36 -151.5t107 -52.5q81 0 118 43.5t37 140.5v21q0 109 -38 157t-119 48zM363 766v-12q-8 -17 -16.5 -43.5t-15.5 -54.5t-10 -50h-87v9q5 18 17 45t28.5 55.5t34.5 50.5h49z" />
    <glyph glyph-name="Hcircumflex" unicode="&#x124;" horiz-adv-x="741" 
d="M643 0h-90v333h-366v-333h-90v714h90v-302h366v302h90v-714zM417 944q12 -22 34.5 -49.5t47 -54t43.5 -45.5v-11h-62q-26 16 -54 39.5t-55 50.5q-27 -27 -54 -50.5t-53 -39.5h-60v11q18 19 42 45.5t46 54t35 49.5h90z" />
    <glyph glyph-name="hcircumflex" unicode="&#x125;" horiz-adv-x="618" 
d="M173 760v-223q0 -40 -5 -75h6q26 41 70.5 62t96.5 21q97 0 146.5 -46.5t49.5 -149.5v-349h-87v343q0 129 -120 129q-90 0 -123.5 -50.5t-33.5 -144.5v-277h-88v760h88zM176 990q12 -22 34.5 -49.5t47 -54t43.5 -45.5v-11h-62q-26 16 -54 39.5t-55 50.5q-27 -27 -54 -50.5
t-53 -39.5h-60v11q18 19 42 45.5t46 54t35 49.5h90z" />
    <glyph glyph-name="Hbar" unicode="&#x126;" horiz-adv-x="741" 
d="M97 0v523h-97v72h97v119h90v-119h366v119h90v-119h97v-72h-97v-523h-90v333h-366v-333h-90zM187 412h366v111h-366v-111z" />
    <glyph glyph-name="hbar" unicode="&#x127;" horiz-adv-x="618" 
d="M173 760v-90h212v-66h-212v-87q0 -19 -1.5 -38.5t-3.5 -35.5h6q26 41 71 62t97 21q97 0 146 -47t49 -150v-329h-87v323q0 129 -120 129q-90 0 -123.5 -50t-33.5 -144v-258h-88v604h-76v66h76v90h88z" />
    <glyph glyph-name="Itilde" unicode="&#x128;" horiz-adv-x="339" 
d="M298 0h-258v52l84 19v571l-84 20v52h258v-52l-84 -20v-571l84 -19v-52zM-14 784q6 59 34.5 93.5t75.5 34.5q30 0 56.5 -14.5t50.5 -28.5t45 -14q23 0 35.5 14.5t19.5 43.5h50q-6 -59 -34 -93.5t-75 -34.5q-28 0 -54.5 14t-51 28.5t-46.5 14.5q-24 0 -36 -14.5t-19 -43.5
h-51z" />
    <glyph glyph-name="itilde" unicode="&#x129;" horiz-adv-x="258" 
d="M173 0h-88v536h88v-536zM-55 606q6 59 34.5 93.5t75.5 34.5q30 0 56.5 -14.5t50.5 -28.5t45 -14q23 0 35.5 14.5t19.5 43.5h50q-6 -59 -34 -93.5t-75 -34.5q-28 0 -54.5 14t-51 28.5t-46.5 14.5q-24 0 -36 -14.5t-19 -43.5h-51z" />
    <glyph glyph-name="Imacron" unicode="&#x12a;" horiz-adv-x="339" 
d="M298 0h-258v52l84 19v571l-84 20v52h258v-52l-84 -20v-571l84 -19v-52zM318 855v-71h-297v71h297z" />
    <glyph glyph-name="imacron" unicode="&#x12b;" horiz-adv-x="258" 
d="M173 0h-88v536h88v-536zM277 677v-71h-297v71h297z" />
    <glyph glyph-name="Ibreve" unicode="&#x12c;" horiz-adv-x="339" 
d="M298 0h-258v52l84 19v571l-84 20v52h258v-52l-84 -20v-571l84 -19v-52zM330 918q-5 -60 -45.5 -97t-112.5 -37q-74 0 -111.5 36t-41.5 98h54q4 -41 29.5 -52t71.5 -11q39 0 67.5 12t33.5 51h55z" />
    <glyph glyph-name="ibreve" unicode="&#x12d;" horiz-adv-x="258" 
d="M173 0h-88v536h88v-536zM289 740q-5 -60 -45.5 -97t-112.5 -37q-74 0 -111.5 36t-41.5 98h54q4 -41 29.5 -52t71.5 -11q39 0 67.5 12t33.5 51h55z" />
    <glyph glyph-name="Iogonek" unicode="&#x12e;" horiz-adv-x="339" 
d="M298 0h-258v52l84 19v571l-84 20v52h258v-52l-84 -20v-571l84 -19v-52zM204 -116q0 -45 45 -45q17 0 28.5 2.5t19.5 3.5v-56q-14 -4 -28.5 -6.5t-33.5 -2.5q-53 0 -78 25t-25 69q0 28 14.5 55.5t36 49.5t41.5 36l48 -15q-34 -32 -51 -58.5t-17 -57.5z" />
    <glyph glyph-name="iogonek" unicode="&#x12f;" horiz-adv-x="258" 
d="M130 737q20 0 35.5 -13.5t15.5 -42.5t-15.5 -42.5t-35.5 -13.5q-22 0 -37 13.5t-15 42.5t15 42.5t37 13.5zM173 536v-536h-88v536h88zM99 -116q0 -45 45 -45q17 0 28.5 2.5t19.5 3.5v-56q-14 -4 -28.5 -6.5t-33.5 -2.5q-53 0 -78 25t-25 69q0 28 14.5 55.5t36 49.5
t41.5 36l48 -15q-34 -32 -51 -58.5t-17 -57.5z" />
    <glyph glyph-name="Idotaccent" unicode="&#x130;" horiz-adv-x="339" 
d="M298 0h-258v52l84 19v571l-84 20v52h258v-52l-84 -20v-571l84 -19v-52zM173 915q20 0 35.5 -13.5t15.5 -42.5t-15.5 -42.5t-35.5 -13.5q-22 0 -37 13.5t-15 42.5t15 42.5t37 13.5z" />
    <glyph glyph-name="IJ" unicode="&#x132;" horiz-adv-x="612" 
d="M298 0h-258v52l84 19v571l-84 20v52h258v-52l-84 -20v-571l84 -19v-52zM335 -190q-24 0 -42 3.5t-32 9.5v76q16 -5 34 -7.5t38 -2.5q25 0 47.5 10t36.5 34.5t14 70.5v710h90v-703q0 -103 -51 -152t-135 -49z" />
    <glyph glyph-name="ij" unicode="&#x133;" horiz-adv-x="516" 
d="M130 737q20 0 35.5 -13.5t15.5 -42.5t-15.5 -42.5t-35.5 -13.5q-22 0 -37 13.5t-15 42.5t15 42.5t37 13.5zM173 536v-536h-88v536h88zM336 681q0 29 15 42.5t37 13.5q20 0 35.5 -13.5t15.5 -42.5t-15.5 -42.5t-35.5 -13.5q-22 0 -37 13.5t-15 42.5zM280 -240
q-26 0 -45 3.5t-32 8.5v71q15 -5 31 -7.5t35 -2.5q32 0 53 17.5t21 66.5v619h88v-616q0 -75 -36 -117.5t-115 -42.5z" />
    <glyph glyph-name="Jcircumflex" unicode="&#x134;" horiz-adv-x="273" 
d="M-4 -190q-24 0 -42 3.5t-32 9.5v76q16 -5 34 -7.5t38 -2.5q25 0 47.5 10t36.5 34.5t14 70.5v710h90v-703q0 -103 -51 -152t-135 -49zM183 944q12 -22 34.5 -49.5t47 -54t43.5 -45.5v-11h-62q-26 16 -54 39.5t-55 50.5q-27 -27 -54 -50.5t-53 -39.5h-60v11q18 19 42 45.5
t46 54t35 49.5h90z" />
    <glyph glyph-name="jcircumflex" unicode="&#x135;" horiz-adv-x="258" 
d="M22 -240q-26 0 -45 3.5t-32 8.5v71q15 -5 31 -7.5t35 -2.5q32 0 53 17.5t21 66.5v619h88v-616q0 -75 -36 -117.5t-115 -42.5zM175 766q12 -22 34.5 -49.5t47 -54t43.5 -45.5v-11h-62q-26 16 -54 39.5t-55 50.5q-27 -27 -54 -50.5t-53 -39.5h-60v11q18 19 42 45.5t46 54
t35 49.5h90z" />
    <glyph glyph-name="uni0136" unicode="&#x136;" horiz-adv-x="619" 
d="M619 0h-106l-253 341l-73 -64v-277h-90v714h90v-352q30 34 61 68l62 68l193 216h105l-283 -311zM394 -61v-9q-5 -18 -17 -45.5t-28.5 -56t-34.5 -49.5h-48v12q7 17 16 43.5t16 55t9 49.5h87z" />
    <glyph glyph-name="uni0137" unicode="&#x137;" horiz-adv-x="534" 
d="M172 760v-397q0 -16 -1.5 -42t-2.5 -45h4q6 8 18 23t24.5 30.5t21.5 25.5l171 181h103l-217 -229l232 -307h-106l-186 250l-61 -53v-197h-87v760h87zM331 -61v-9q-5 -18 -17 -45.5t-28.5 -56t-34.5 -49.5h-48v12q7 17 16 43.5t16 55t9 49.5h87z" />
    <glyph glyph-name="kgreenlandic" unicode="&#x138;" horiz-adv-x="534" 
d="M509 536l-203 -237l219 -299h-105l-176 242l-66 -54v-188h-93v536h93v-139q0 -40 -2 -78t-4 -58h2q9 13 19.5 26.5t19.5 24.5l190 224h106z" />
    <glyph glyph-name="Lacute" unicode="&#x139;" horiz-adv-x="524" 
d="M97 0v714h90v-634h312v-80h-402zM281 944v-10q-13 -18 -37.5 -46.5t-53 -57t-52.5 -46.5h-58v12q14 18 32 44.5t35 54t28 49.5h106z" />
    <glyph glyph-name="lacute" unicode="&#x13a;" horiz-adv-x="258" 
d="M173 0h-88v760h88v-760zM270 990v-10q-13 -18 -37.5 -46.5t-53 -57t-52.5 -46.5h-58v12q14 18 32 44.5t35 54t28 49.5h106z" />
    <glyph glyph-name="uni013B" unicode="&#x13b;" horiz-adv-x="524" 
d="M97 0v714h90v-634h312v-80h-402zM364 -61v-9q-5 -18 -17 -45.5t-28.5 -56t-34.5 -49.5h-48v12q7 17 16 43.5t16 55t9 49.5h87z" />
    <glyph glyph-name="uni013C" unicode="&#x13c;" horiz-adv-x="258" 
d="M173 0h-88v760h88v-760zM193 -61v-9q-5 -18 -17 -45.5t-28.5 -56t-34.5 -49.5h-48v12q7 17 16 43.5t16 55t9 49.5h87z" />
    <glyph glyph-name="Lcaron" unicode="&#x13d;" horiz-adv-x="524" 
d="M97 0v714h90v-634h312v-80h-402zM499 714v-9q-4 -18 -15.5 -45t-26.5 -55.5t-30 -50.5h-48v12q6 19 13 45.5t12 53.5t8 49h87z" />
    <glyph glyph-name="lcaron" unicode="&#x13e;" horiz-adv-x="258" 
d="M173 0h-88v760h88v-760zM337 760v-9q-4 -18 -15.5 -45t-26.5 -55.5t-30 -50.5h-48v12q6 19 13 45.5t12 53.5t8 49h87z" />
    <glyph glyph-name="Ldot" unicode="&#x13f;" horiz-adv-x="524" 
d="M97 0v714h90v-634h312v-80h-402zM383 413q20 0 35.5 -13.5t15.5 -42.5t-15.5 -42.5t-35.5 -13.5q-22 0 -37 13.5t-15 42.5t15 42.5t37 13.5z" />
    <glyph glyph-name="ldot" unicode="&#x140;" horiz-adv-x="268" 
d="M173 0h-88v760h88v-760zM263 435q20 0 35.5 -13.5t15.5 -42.5t-15.5 -42.5t-35.5 -13.5q-22 0 -37 13.5t-15 42.5t15 42.5t37 13.5z" />
    <glyph glyph-name="Lslash" unicode="&#x141;" horiz-adv-x="524" 
d="M97 0v247l-49 -28l-35 60l84 50v385h90v-332l137 81l36 -63l-173 -100v-220h312v-80h-402z" />
    <glyph glyph-name="lslash" unicode="&#x142;" horiz-adv-x="258" 
d="M78 0v285l-51 -32l-36 59l87 56v392h88v-335l64 44l37 -59l-101 -68v-342h-88z" />
    <glyph glyph-name="Nacute" unicode="&#x143;" horiz-adv-x="760" 
d="M663 0h-105l-382 593h-4q2 -35 5 -87t3 -107v-399h-83v714h104l381 -591h4q-1 16 -2.5 48t-3 69.5t-1.5 70.5v403h84v-714zM521 944v-10q-13 -18 -37.5 -46.5t-53 -57t-52.5 -46.5h-58v12q14 18 32 44.5t35 54t28 49.5h106z" />
    <glyph glyph-name="nacute" unicode="&#x144;" horiz-adv-x="618" 
d="M343 546q96 0 145 -47t49 -150v-349h-87v343q0 129 -120 129q-89 0 -123 -50t-34 -144v-278h-88v536h71l13 -73h5q26 42 72 62.5t97 20.5zM450 766v-10q-13 -18 -37.5 -46.5t-53 -57t-52.5 -46.5h-58v12q14 18 32 44.5t35 54t28 49.5h106z" />
    <glyph glyph-name="uni0145" unicode="&#x145;" horiz-adv-x="760" 
d="M663 0h-105l-382 593h-4q2 -35 5 -87t3 -107v-399h-83v714h104l381 -591h4q-1 16 -2.5 48t-3 69.5t-1.5 70.5v403h84v-714zM444 -61v-9q-5 -18 -17 -45.5t-28.5 -56t-34.5 -49.5h-48v12q7 17 16 43.5t16 55t9 49.5h87z" />
    <glyph glyph-name="uni0146" unicode="&#x146;" horiz-adv-x="618" 
d="M343 546q96 0 145 -47t49 -150v-349h-87v343q0 129 -120 129q-89 0 -123 -50t-34 -144v-278h-88v536h71l13 -73h5q26 42 72 62.5t97 20.5zM373 -61v-9q-5 -18 -17 -45.5t-28.5 -56t-34.5 -49.5h-48v12q7 17 16 43.5t16 55t9 49.5h87z" />
    <glyph glyph-name="Ncaron" unicode="&#x147;" horiz-adv-x="760" 
d="M663 0h-105l-382 593h-4q2 -35 5 -87t3 -107v-399h-83v714h104l381 -591h4q-1 16 -2.5 48t-3 69.5t-1.5 70.5v403h84v-714zM334 784q-13 22 -35 49t-46 53t-42 45v13h60q26 -17 54 -41t53 -51q27 27 55 51t54 41h62v-13q-19 -19 -43.5 -45t-47 -53t-34.5 -49h-90z" />
    <glyph glyph-name="ncaron" unicode="&#x148;" horiz-adv-x="618" 
d="M343 546q96 0 145 -47t49 -150v-349h-87v343q0 129 -120 129q-89 0 -123 -50t-34 -144v-278h-88v536h71l13 -73h5q26 42 72 62.5t97 20.5zM263 606q-13 22 -35 49t-46 53t-42 45v13h60q26 -17 54 -41t53 -51q27 27 55 51t54 41h62v-13q-19 -19 -43.5 -45t-47 -53
t-34.5 -49h-90z" />
    <glyph glyph-name="napostrophe" unicode="&#x149;" horiz-adv-x="688" 
d="M413 546q96 0 145 -47t49 -150v-349h-87v343q0 129 -120 129q-89 0 -123 -50t-34 -144v-278h-88v536h71l13 -73h5q26 42 72 62.5t97 20.5zM145 714l7 -11q-13 -53 -37.5 -117t-48.5 -117h-65q10 37 19.5 81t17.5 86.5t13 77.5h94z" />
    <glyph glyph-name="Eng" unicode="&#x14a;" horiz-adv-x="760" 
d="M475 -190q-25 0 -44 3.5t-32 9.5v76q16 -5 35 -7.5t41 -2.5q25 0 49 9.5t39 33.5t16 68l-403 593h-4q2 -19 3.5 -54t3 -75t1.5 -77v-387h-83v714h104l381 -572h4q-3 32 -5 88t-2 112v372h84v-708q0 -100 -51 -148t-137 -48z" />
    <glyph glyph-name="eng" unicode="&#x14b;" horiz-adv-x="618" 
d="M394 -240q-24 0 -41 3.5t-30 8.5v71q13 -5 27.5 -7.5t32.5 -2.5q29 0 48 17.5t19 66.5v427q0 128 -119 128q-89 0 -123.5 -49.5t-34.5 -143.5v-279h-88v536h71l14 -73h5q26 42 70.5 62.5t96.5 20.5q98 0 147 -46.5t49 -149.5v-430q0 -75 -35 -117.5t-109 -42.5z" />
    <glyph glyph-name="Omacron" unicode="&#x14c;" horiz-adv-x="781" 
d="M720 358q0 -111 -37.5 -193.5t-111 -128.5t-180.5 -46q-111 0 -184.5 46t-109.5 129t-36 194q0 109 36 191.5t109.5 128.5t185.5 46q107 0 180 -45.5t110.5 -128t37.5 -193.5zM156 358q0 -135 57 -212.5t178 -77.5t177.5 77.5t56.5 212.5t-56 211.5t-177 76.5
q-122 0 -179 -76.5t-57 -211.5zM539 855v-71h-297v71h297z" />
    <glyph glyph-name="omacron" unicode="&#x14d;" horiz-adv-x="605" 
d="M551 269q0 -133 -67.5 -206t-182.5 -73q-71 0 -126.5 32.5t-87.5 95t-32 151.5q0 133 66.5 205t182.5 72q72 0 128 -32.5t87.5 -94t31.5 -150.5zM146 269q0 -95 37.5 -150.5t119.5 -55.5q81 0 119 55.5t38 150.5t-38 149t-120 54t-119 -54t-37 -149zM451 677v-71h-297v71
h297z" />
    <glyph glyph-name="Obreve" unicode="&#x14e;" horiz-adv-x="781" 
d="M720 358q0 -111 -37.5 -193.5t-111 -128.5t-180.5 -46q-111 0 -184.5 46t-109.5 129t-36 194q0 109 36 191.5t109.5 128.5t185.5 46q107 0 180 -45.5t110.5 -128t37.5 -193.5zM156 358q0 -135 57 -212.5t178 -77.5t177.5 77.5t56.5 212.5t-56 211.5t-177 76.5
q-122 0 -179 -76.5t-57 -211.5zM551 918q-5 -60 -45.5 -97t-112.5 -37q-74 0 -111.5 36t-41.5 98h54q4 -41 29.5 -52t71.5 -11q39 0 67.5 12t33.5 51h55z" />
    <glyph glyph-name="obreve" unicode="&#x14f;" horiz-adv-x="605" 
d="M551 269q0 -133 -67.5 -206t-182.5 -73q-71 0 -126.5 32.5t-87.5 95t-32 151.5q0 133 66.5 205t182.5 72q72 0 128 -32.5t87.5 -94t31.5 -150.5zM146 269q0 -95 37.5 -150.5t119.5 -55.5q81 0 119 55.5t38 150.5t-38 149t-120 54t-119 -54t-37 -149zM463 740
q-5 -60 -45.5 -97t-112.5 -37q-74 0 -111.5 36t-41.5 98h54q4 -41 29.5 -52t71.5 -11q39 0 67.5 12t33.5 51h55z" />
    <glyph glyph-name="Ohungarumlaut" unicode="&#x150;" horiz-adv-x="781" 
d="M720 358q0 -111 -37.5 -193.5t-111 -128.5t-180.5 -46q-111 0 -184.5 46t-109.5 129t-36 194q0 109 36 191.5t109.5 128.5t185.5 46q107 0 180 -45.5t110.5 -128t37.5 -193.5zM156 358q0 -135 57 -212.5t178 -77.5t177.5 77.5t56.5 212.5t-56 211.5t-177 76.5
q-122 0 -179 -76.5t-57 -211.5zM626 944v-10q-11 -18 -34 -46.5t-50 -57t-49 -46.5h-50v12q14 19 30 45t31 53.5t26 49.5h96zM450 944v-10q-11 -18 -34 -46.5t-50 -57t-49 -46.5h-50v12q21 28 45.5 71t41.5 77h96z" />
    <glyph glyph-name="ohungarumlaut" unicode="&#x151;" horiz-adv-x="605" 
d="M551 269q0 -133 -67.5 -206t-182.5 -73q-71 0 -126.5 32.5t-87.5 95t-32 151.5q0 133 66.5 205t182.5 72q72 0 128 -32.5t87.5 -94t31.5 -150.5zM146 269q0 -95 37.5 -150.5t119.5 -55.5q81 0 119 55.5t38 150.5t-38 149t-120 54t-119 -54t-37 -149zM538 766v-10
q-11 -18 -34 -46.5t-50 -57t-49 -46.5h-50v12q14 19 30 45t31 53.5t26 49.5h96zM362 766v-10q-11 -18 -34 -46.5t-50 -57t-49 -46.5h-50v12q21 28 45.5 71t41.5 77h96z" />
    <glyph glyph-name="OE" unicode="&#x152;" horiz-adv-x="928" 
d="M386 725q50 0 96 -11h386v-79h-287v-223h268v-78h-268v-255h287v-79h-380q-22 -4 -47 -7t-50 -3q-111 0 -184.5 46t-109.5 129t-36 194t35.5 193t107.5 127.5t182 45.5zM394 646q-123 0 -181 -76.5t-58 -211.5t58 -212.5t180 -77.5q57 0 99 17v545q-41 16 -98 16z" />
    <glyph glyph-name="oe" unicode="&#x153;" horiz-adv-x="946" 
d="M677 545q101 0 159 -65.5t58 -175.5v-53h-356q2 -96 43.5 -141t118.5 -45q52 0 91 9.5t79 27.5v-77q-40 -18 -79 -26.5t-92 -8.5q-68 0 -120.5 28t-83.5 83q-31 -55 -82 -83t-117 -28q-70 0 -124.5 32.5t-86 95t-31.5 151.5q0 132 65.5 204t179.5 72q63 0 113 -28t80 -82
q29 53 76.5 81.5t108.5 28.5zM676 473q-60 0 -95 -39t-41 -113h261q0 69 -30 110.5t-95 41.5zM295 472q-79 0 -114 -51t-35 -152t36 -153.5t115 -52.5q78 0 114 51t36 151q0 104 -36.5 155.5t-115.5 51.5z" />
    <glyph glyph-name="Racute" unicode="&#x154;" horiz-adv-x="622" 
d="M294 714q133 0 196.5 -50.5t63.5 -152.5q0 -57 -21 -95t-53.5 -61t-68.5 -35l196 -320h-105l-173 295h-142v-295h-90v714h197zM289 636h-102v-265h107q87 0 127 34.5t40 101.5q0 70 -42 99.5t-130 29.5zM452 944v-10q-13 -18 -37.5 -46.5t-53 -57t-52.5 -46.5h-58v12
q14 18 32 44.5t35 54t28 49.5h106z" />
    <glyph glyph-name="racute" unicode="&#x155;" horiz-adv-x="413" 
d="M335 546q15 0 32 -1.5t31 -4.5l-11 -81q-13 3 -29 5t-29 2q-41 0 -77 -22.5t-57.5 -63t-21.5 -94.5v-286h-88v536h72l10 -98h4q25 44 66.5 76t97.5 32zM381 766v-10q-13 -18 -37.5 -46.5t-53 -57t-52.5 -46.5h-58v12q14 18 32 44.5t35 54t28 49.5h106z" />
    <glyph glyph-name="uni0156" unicode="&#x156;" horiz-adv-x="622" 
d="M294 714q133 0 196.5 -50.5t63.5 -152.5q0 -57 -21 -95t-53.5 -61t-68.5 -35l196 -320h-105l-173 295h-142v-295h-90v714h197zM289 636h-102v-265h107q87 0 127 34.5t40 101.5q0 70 -42 99.5t-130 29.5zM392 -61v-9q-5 -18 -17 -45.5t-28.5 -56t-34.5 -49.5h-48v12
q7 17 16 43.5t16 55t9 49.5h87z" />
    <glyph glyph-name="uni0157" unicode="&#x157;" horiz-adv-x="413" 
d="M335 546q15 0 32 -1.5t31 -4.5l-11 -81q-13 3 -29 5t-29 2q-41 0 -77 -22.5t-57.5 -63t-21.5 -94.5v-286h-88v536h72l10 -98h4q25 44 66.5 76t97.5 32zM190 -61v-9q-5 -18 -17 -45.5t-28.5 -56t-34.5 -49.5h-48v12q7 17 16 43.5t16 55t9 49.5h87z" />
    <glyph glyph-name="Rcaron" unicode="&#x158;" horiz-adv-x="622" 
d="M294 714q133 0 196.5 -50.5t63.5 -152.5q0 -57 -21 -95t-53.5 -61t-68.5 -35l196 -320h-105l-173 295h-142v-295h-90v714h197zM289 636h-102v-265h107q87 0 127 34.5t40 101.5q0 70 -42 99.5t-130 29.5zM265 784q-13 22 -35 49t-46 53t-42 45v13h60q26 -17 54 -41t53 -51
q27 27 55 51t54 41h62v-13q-19 -19 -43.5 -45t-47 -53t-34.5 -49h-90z" />
    <glyph glyph-name="rcaron" unicode="&#x159;" horiz-adv-x="413" 
d="M335 546q15 0 32 -1.5t31 -4.5l-11 -81q-13 3 -29 5t-29 2q-41 0 -77 -22.5t-57.5 -63t-21.5 -94.5v-286h-88v536h72l10 -98h4q25 44 66.5 76t97.5 32zM194 606q-13 22 -35 49t-46 53t-42 45v13h60q26 -17 54 -41t53 -51q27 27 55 51t54 41h62v-13q-19 -19 -43.5 -45
t-47 -53t-34.5 -49h-90z" />
    <glyph glyph-name="Sacute" unicode="&#x15a;" horiz-adv-x="549" 
d="M502 191q0 -95 -69 -148t-186 -53q-60 0 -111 9t-85 25v86q36 -16 89.5 -29t110.5 -13q79 0 120 31t41 84q0 35 -15 59t-52 44t-101 44q-92 33 -138 81t-46 131q0 56 29 97t80 63t119 22q58 0 107 -11t90 -29l-28 -77q-37 16 -81 27t-90 11q-67 0 -101 -28.5t-34 -75.5
q0 -36 15 -60t49 -43.5t92 -40.5q63 -23 106.5 -49.5t66 -63.5t22.5 -93zM426 944v-10q-13 -18 -37.5 -46.5t-53 -57t-52.5 -46.5h-58v12q14 18 32 44.5t35 54t28 49.5h106z" />
    <glyph glyph-name="sacute" unicode="&#x15b;" horiz-adv-x="479" 
d="M434 148q0 -78 -58 -118t-156 -40q-56 0 -96.5 9t-71.5 25v80q32 -16 77.5 -29.5t92.5 -13.5q67 0 97 21.5t30 57.5q0 20 -11 36t-39.5 32t-81.5 36q-52 20 -89 40t-57 48t-20 72q0 68 55.5 105t145.5 37q49 0 91.5 -10t79.5 -26l-30 -70q-34 14 -71 24t-76 10
q-54 0 -82.5 -17.5t-28.5 -47.5q0 -23 13 -38t43.5 -30t81.5 -34t87 -39t55 -48.5t19 -71.5zM381 766v-10q-13 -18 -37.5 -46.5t-53 -57t-52.5 -46.5h-58v12q14 18 32 44.5t35 54t28 49.5h106z" />
    <glyph glyph-name="Scircumflex" unicode="&#x15c;" horiz-adv-x="549" 
d="M502 191q0 -95 -69 -148t-186 -53q-60 0 -111 9t-85 25v86q36 -16 89.5 -29t110.5 -13q79 0 120 31t41 84q0 35 -15 59t-52 44t-101 44q-92 33 -138 81t-46 131q0 56 29 97t80 63t119 22q58 0 107 -11t90 -29l-28 -77q-37 16 -81 27t-90 11q-67 0 -101 -28.5t-34 -75.5
q0 -36 15 -60t49 -43.5t92 -40.5q63 -23 106.5 -49.5t66 -63.5t22.5 -93zM331 944q12 -22 34.5 -49.5t47 -54t43.5 -45.5v-11h-62q-26 16 -54 39.5t-55 50.5q-27 -27 -54 -50.5t-53 -39.5h-60v11q18 19 42 45.5t46 54t35 49.5h90z" />
    <glyph glyph-name="scircumflex" unicode="&#x15d;" horiz-adv-x="479" 
d="M434 148q0 -78 -58 -118t-156 -40q-56 0 -96.5 9t-71.5 25v80q32 -16 77.5 -29.5t92.5 -13.5q67 0 97 21.5t30 57.5q0 20 -11 36t-39.5 32t-81.5 36q-52 20 -89 40t-57 48t-20 72q0 68 55.5 105t145.5 37q49 0 91.5 -10t79.5 -26l-30 -70q-34 14 -71 24t-76 10
q-54 0 -82.5 -17.5t-28.5 -47.5q0 -23 13 -38t43.5 -30t81.5 -34t87 -39t55 -48.5t19 -71.5zM286 766q12 -22 34.5 -49.5t47 -54t43.5 -45.5v-11h-62q-26 16 -54 39.5t-55 50.5q-27 -27 -54 -50.5t-53 -39.5h-60v11q18 19 42 45.5t46 54t35 49.5h90z" />
    <glyph glyph-name="Scedilla" unicode="&#x15e;" horiz-adv-x="549" 
d="M502 191q0 -95 -69 -148t-186 -53q-60 0 -111 9t-85 25v86q36 -16 89.5 -29t110.5 -13q79 0 120 31t41 84q0 35 -15 59t-52 44t-101 44q-92 33 -138 81t-46 131q0 56 29 97t80 63t119 22q58 0 107 -11t90 -29l-28 -77q-37 16 -81 27t-90 11q-67 0 -101 -28.5t-34 -75.5
q0 -36 15 -60t49 -43.5t92 -40.5q63 -23 106.5 -49.5t66 -63.5t22.5 -93zM358 -139q0 -48 -37 -74.5t-111 -26.5q-32 0 -50 5v55q9 -2 24 -3.5t29 -1.5q36 0 55 9.5t19 34.5q0 26 -26.5 38t-64.5 17l43 86h58l-26 -53q36 -8 61.5 -28t25.5 -58z" />
    <glyph glyph-name="scedilla" unicode="&#x15f;" horiz-adv-x="479" 
d="M434 148q0 -78 -58 -118t-156 -40q-56 0 -96.5 9t-71.5 25v80q32 -16 77.5 -29.5t92.5 -13.5q67 0 97 21.5t30 57.5q0 20 -11 36t-39.5 32t-81.5 36q-52 20 -89 40t-57 48t-20 72q0 68 55.5 105t145.5 37q49 0 91.5 -10t79.5 -26l-30 -70q-34 14 -71 24t-76 10
q-54 0 -82.5 -17.5t-28.5 -47.5q0 -23 13 -38t43.5 -30t81.5 -34t87 -39t55 -48.5t19 -71.5zM341 -139q0 -48 -37 -74.5t-111 -26.5q-32 0 -50 5v55q9 -2 24 -3.5t29 -1.5q36 0 55 9.5t19 34.5q0 26 -26.5 38t-64.5 17l43 86h58l-26 -53q36 -8 61.5 -28t25.5 -58z" />
    <glyph glyph-name="Scaron" unicode="&#x160;" horiz-adv-x="549" 
d="M502 191q0 -95 -69 -148t-186 -53q-60 0 -111 9t-85 25v86q36 -16 89.5 -29t110.5 -13q79 0 120 31t41 84q0 35 -15 59t-52 44t-101 44q-92 33 -138 81t-46 131q0 56 29 97t80 63t119 22q58 0 107 -11t90 -29l-28 -77q-37 16 -81 27t-90 11q-67 0 -101 -28.5t-34 -75.5
q0 -36 15 -60t49 -43.5t92 -40.5q63 -23 106.5 -49.5t66 -63.5t22.5 -93zM239 784q-13 22 -35 49t-46 53t-42 45v13h60q26 -17 54 -41t53 -51q27 27 55 51t54 41h62v-13q-19 -19 -43.5 -45t-47 -53t-34.5 -49h-90z" />
    <glyph glyph-name="scaron" unicode="&#x161;" horiz-adv-x="479" 
d="M434 148q0 -78 -58 -118t-156 -40q-56 0 -96.5 9t-71.5 25v80q32 -16 77.5 -29.5t92.5 -13.5q67 0 97 21.5t30 57.5q0 20 -11 36t-39.5 32t-81.5 36q-52 20 -89 40t-57 48t-20 72q0 68 55.5 105t145.5 37q49 0 91.5 -10t79.5 -26l-30 -70q-34 14 -71 24t-76 10
q-54 0 -82.5 -17.5t-28.5 -47.5q0 -23 13 -38t43.5 -30t81.5 -34t87 -39t55 -48.5t19 -71.5zM194 606q-13 22 -35 49t-46 53t-42 45v13h60q26 -17 54 -41t53 -51q27 27 55 51t54 41h62v-13q-19 -19 -43.5 -45t-47 -53t-34.5 -49h-90z" />
    <glyph glyph-name="uni021A" unicode="&#x21a;" horiz-adv-x="556" 
d="M323 0h-90v635h-223v79h535v-79h-222v-635zM342 -61v-9q-5 -18 -17 -45.5t-28.5 -56t-34.5 -49.5h-48v12q7 17 16 43.5t16 55t9 49.5h87z" />
    <glyph glyph-name="uni021B" unicode="&#x21b;" horiz-adv-x="361" 
d="M264 62q20 0 41 3t34 8v-67q-14 -7 -40 -11.5t-50 -4.5q-42 0 -77.5 14.5t-57.5 50.5t-22 101v312h-76v42l77 35l35 114h52v-123h155v-68h-155v-310q0 -49 23.5 -72.5t60.5 -23.5zM278 -61v-9q-5 -18 -17 -45.5t-28.5 -56t-34.5 -49.5h-48v12q7 17 16 43.5t16 55t9 49.5
h87z" />
    <glyph glyph-name="Tcaron" unicode="&#x164;" horiz-adv-x="556" 
d="M323 0h-90v635h-223v79h535v-79h-222v-635zM232 784q-13 22 -35 49t-46 53t-42 45v13h60q26 -17 54 -41t53 -51q27 27 55 51t54 41h62v-13q-19 -19 -43.5 -45t-47 -53t-34.5 -49h-90z" />
    <glyph glyph-name="tcaron" unicode="&#x165;" horiz-adv-x="361" 
d="M264 62q20 0 41 3t34 8v-67q-14 -7 -40 -11.5t-50 -4.5q-42 0 -77.5 14.5t-57.5 50.5t-22 101v312h-76v42l77 35l35 114h52v-123h155v-68h-155v-310q0 -49 23.5 -72.5t60.5 -23.5zM470 760v-9q-4 -18 -15.5 -45t-26.5 -55.5t-30 -50.5h-48v12q6 19 13 45.5t12 53.5t8 49
h87z" />
    <glyph glyph-name="Tbar" unicode="&#x166;" horiz-adv-x="556" 
d="M232 0v325h-149v74h149v235h-222v80h535v-80h-223v-235h148v-74h-148v-325h-90z" />
    <glyph glyph-name="tbar" unicode="&#x167;" horiz-adv-x="361" 
d="M264 62q20 0 41 3t34 8v-67q-14 -7 -40 -11.5t-50 -4.5q-42 0 -77.5 14.5t-57.5 50.5t-22 101v124h-68v66h68v122h-76v42l77 35l35 114h52v-123h155v-68h-155v-122h146v-66h-146v-122q0 -49 23.5 -72.5t60.5 -23.5z" />
    <glyph glyph-name="Utilde" unicode="&#x168;" horiz-adv-x="731" 
d="M640 714v-462q0 -74 -30 -133.5t-92 -94t-156 -34.5q-134 0 -203 72.5t-69 191.5v460h90v-463q0 -87 46.5 -135t140.5 -48q97 0 140.5 51.5t43.5 132.5v462h89zM182 784q6 59 34.5 93.5t75.5 34.5q30 0 56.5 -14.5t50.5 -28.5t45 -14q23 0 35.5 14.5t19.5 43.5h50
q-6 -59 -34 -93.5t-75 -34.5q-28 0 -54.5 14t-51 28.5t-46.5 14.5q-24 0 -36 -14.5t-19 -43.5h-51z" />
    <glyph glyph-name="utilde" unicode="&#x169;" horiz-adv-x="618" 
d="M533 536v-536h-72l-13 71h-4q-26 -42 -72 -61.5t-98 -19.5q-97 0 -146 46.5t-49 148.5v351h89v-345q0 -128 119 -128q89 0 123.5 50t34.5 144v279h88zM125 606q6 59 34.5 93.5t75.5 34.5q30 0 56.5 -14.5t50.5 -28.5t45 -14q23 0 35.5 14.5t19.5 43.5h50
q-6 -59 -34 -93.5t-75 -34.5q-28 0 -54.5 14t-51 28.5t-46.5 14.5q-24 0 -36 -14.5t-19 -43.5h-51z" />
    <glyph glyph-name="Umacron" unicode="&#x16a;" horiz-adv-x="731" 
d="M640 714v-462q0 -74 -30 -133.5t-92 -94t-156 -34.5q-134 0 -203 72.5t-69 191.5v460h90v-463q0 -87 46.5 -135t140.5 -48q97 0 140.5 51.5t43.5 132.5v462h89zM514 855v-71h-297v71h297z" />
    <glyph glyph-name="umacron" unicode="&#x16b;" horiz-adv-x="618" 
d="M533 536v-536h-72l-13 71h-4q-26 -42 -72 -61.5t-98 -19.5q-97 0 -146 46.5t-49 148.5v351h89v-345q0 -128 119 -128q89 0 123.5 50t34.5 144v279h88zM457 677v-71h-297v71h297z" />
    <glyph glyph-name="Ubreve" unicode="&#x16c;" horiz-adv-x="731" 
d="M640 714v-462q0 -74 -30 -133.5t-92 -94t-156 -34.5q-134 0 -203 72.5t-69 191.5v460h90v-463q0 -87 46.5 -135t140.5 -48q97 0 140.5 51.5t43.5 132.5v462h89zM526 918q-5 -60 -45.5 -97t-112.5 -37q-74 0 -111.5 36t-41.5 98h54q4 -41 29.5 -52t71.5 -11q39 0 67.5 12
t33.5 51h55z" />
    <glyph glyph-name="ubreve" unicode="&#x16d;" horiz-adv-x="618" 
d="M533 536v-536h-72l-13 71h-4q-26 -42 -72 -61.5t-98 -19.5q-97 0 -146 46.5t-49 148.5v351h89v-345q0 -128 119 -128q89 0 123.5 50t34.5 144v279h88zM469 740q-5 -60 -45.5 -97t-112.5 -37q-74 0 -111.5 36t-41.5 98h54q4 -41 29.5 -52t71.5 -11q39 0 67.5 12t33.5 51
h55z" />
    <glyph glyph-name="Uring" unicode="&#x16e;" horiz-adv-x="731" 
d="M640 714v-462q0 -74 -30 -133.5t-92 -94t-156 -34.5q-134 0 -203 72.5t-69 191.5v460h90v-463q0 -87 46.5 -135t140.5 -48q97 0 140.5 51.5t43.5 132.5v462h89zM367 784q-49 0 -79 28t-30 78t30 77.5t79 27.5q47 0 79 -27.5t32 -76.5q0 -51 -31.5 -79t-79.5 -28zM367 834
q25 0 40.5 15t15.5 41t-16 41t-40 15t-40 -15t-16 -41t14.5 -41t41.5 -15z" />
    <glyph glyph-name="uring" unicode="&#x16f;" horiz-adv-x="618" 
d="M533 536v-536h-72l-13 71h-4q-26 -42 -72 -61.5t-98 -19.5q-97 0 -146 46.5t-49 148.5v351h89v-345q0 -128 119 -128q89 0 123.5 50t34.5 144v279h88zM310 606q-49 0 -79 28t-30 78t30 77.5t79 27.5q47 0 79 -27.5t32 -76.5q0 -51 -31.5 -79t-79.5 -28zM310 656
q25 0 40.5 15t15.5 41t-16 41t-40 15t-40 -15t-16 -41t14.5 -41t41.5 -15z" />
    <glyph glyph-name="Uhungarumlaut" unicode="&#x170;" horiz-adv-x="731" 
d="M640 714v-462q0 -74 -30 -133.5t-92 -94t-156 -34.5q-134 0 -203 72.5t-69 191.5v460h90v-463q0 -87 46.5 -135t140.5 -48q97 0 140.5 51.5t43.5 132.5v462h89zM601 944v-10q-11 -18 -34 -46.5t-50 -57t-49 -46.5h-50v12q14 19 30 45t31 53.5t26 49.5h96zM425 944v-10
q-11 -18 -34 -46.5t-50 -57t-49 -46.5h-50v12q21 28 45.5 71t41.5 77h96z" />
    <glyph glyph-name="uhungarumlaut" unicode="&#x171;" horiz-adv-x="618" 
d="M533 536v-536h-72l-13 71h-4q-26 -42 -72 -61.5t-98 -19.5q-97 0 -146 46.5t-49 148.5v351h89v-345q0 -128 119 -128q89 0 123.5 50t34.5 144v279h88zM544 766v-10q-11 -18 -34 -46.5t-50 -57t-49 -46.5h-50v12q14 19 30 45t31 53.5t26 49.5h96zM368 766v-10
q-11 -18 -34 -46.5t-50 -57t-49 -46.5h-50v12q21 28 45.5 71t41.5 77h96z" />
    <glyph glyph-name="Uogonek" unicode="&#x172;" horiz-adv-x="731" 
d="M466 -107q0 -29 12 -41.5t33 -12.5q17 0 28.5 2.5t19.5 3.5v-56q-14 -4 -28.5 -6.5t-33.5 -2.5q-53 0 -78 26t-25 77q0 31 16 61.5t37 54.5q-39 -9 -85 -9q-134 0 -203 72.5t-69 191.5v460h90v-463q0 -87 46.5 -135t140.5 -48q97 0 140.5 51.5t43.5 132.5v462h89v-462
q0 -63 -22 -116t-66 -89q-44 -50 -65 -84.5t-21 -69.5z" />
    <glyph glyph-name="uogonek" unicode="&#x173;" horiz-adv-x="618" 
d="M533 536v-536h-72l-13 71h-4q-26 -42 -72 -61.5t-98 -19.5q-97 0 -146 46.5t-49 148.5v351h89v-345q0 -128 119 -128q89 0 123.5 50t34.5 144v279h88zM448 -116q0 -45 45 -45q17 0 28.5 2.5t19.5 3.5v-56q-14 -4 -28.5 -6.5t-33.5 -2.5q-53 0 -78 25t-25 69
q0 28 14.5 55.5t36 49.5t41.5 36l48 -15q-34 -32 -51 -58.5t-17 -57.5z" />
    <glyph glyph-name="Wcircumflex" unicode="&#x174;" horiz-adv-x="930" 
d="M917 714l-190 -714h-91l-139 468q-9 28 -16.5 57.5t-13 52t-6.5 31.5q-1 -13 -11 -55.5t-23 -88.5l-135 -465h-91l-189 714h94l111 -436q12 -46 20.5 -89t13.5 -81q5 39 15 85t23 90l126 431h93l131 -434q14 -46 24 -92t15 -80q4 37 13.5 80.5t21.5 90.5l110 435h94z
M511 944q12 -22 34.5 -49.5t47 -54t43.5 -45.5v-11h-62q-26 16 -54 39.5t-55 50.5q-27 -27 -54 -50.5t-53 -39.5h-60v11q18 19 42 45.5t46 54t35 49.5h90z" />
    <glyph glyph-name="wcircumflex" unicode="&#x175;" horiz-adv-x="786" 
d="M523 1l-92 302q-13 41 -23 80t-14 62h-4q-4 -23 -13 -62t-23 -81l-96 -301h-100l-147 536h91l74 -286q11 -43 21 -87t14 -73h4q3 17 9 42t13 52.5t14 49.5l95 302h96l92 -302q10 -35 21 -75t15 -68h4q3 25 13.5 69t22.5 90l75 286h90l-149 -536h-103zM439 766
q12 -22 34.5 -49.5t47 -54t43.5 -45.5v-11h-62q-26 16 -54 39.5t-55 50.5q-27 -27 -54 -50.5t-53 -39.5h-60v11q18 19 42 45.5t46 54t35 49.5h90z" />
    <glyph glyph-name="Ycircumflex" unicode="&#x176;" horiz-adv-x="566" 
d="M283 363l186 351h97l-238 -437v-277h-90v273l-238 441h98zM329 944q12 -22 34.5 -49.5t47 -54t43.5 -45.5v-11h-62q-26 16 -54 39.5t-55 50.5q-27 -27 -54 -50.5t-53 -39.5h-60v11q18 19 42 45.5t46 54t35 49.5h90z" />
    <glyph glyph-name="ycircumflex" unicode="&#x177;" horiz-adv-x="510" 
d="M1 536h94l116 -305q15 -41 27 -77t18 -69h4q6 25 19 65.5t27 81.5l109 304h95l-231 -610q-29 -76 -73 -121t-122 -45q-24 0 -42 2.5t-31 5.5v70q11 -2 26.5 -4t32.5 -2q46 0 74 26t45 69l28 71zM301 766q12 -22 34.5 -49.5t47 -54t43.5 -45.5v-11h-62q-26 16 -54 39.5
t-55 50.5q-27 -27 -54 -50.5t-53 -39.5h-60v11q18 19 42 45.5t46 54t35 49.5h90z" />
    <glyph glyph-name="Ydieresis" unicode="&#x178;" horiz-adv-x="566" 
d="M283 363l186 351h97l-238 -437v-277h-90v273l-238 441h98zM142 859q0 26 13.5 37.5t33.5 11.5q19 0 33 -11.5t14 -37.5q0 -25 -14 -37.5t-33 -12.5q-20 0 -33.5 12.5t-13.5 37.5zM330 859q0 26 13.5 37.5t32.5 11.5t33 -11.5t14 -37.5q0 -25 -14 -37.5t-33 -12.5
t-32.5 12.5t-13.5 37.5z" />
    <glyph glyph-name="Zacute" unicode="&#x179;" horiz-adv-x="572" 
d="M533 0h-495v68l376 566h-364v80h473v-68l-376 -566h386v-80zM431 944v-10q-13 -18 -37.5 -46.5t-53 -57t-52.5 -46.5h-58v12q14 18 32 44.5t35 54t28 49.5h106z" />
    <glyph glyph-name="zacute" unicode="&#x17a;" horiz-adv-x="470" 
d="M431 0h-392v58l288 410h-271v68h368v-66l-284 -402h291v-68zM376 766v-10q-13 -18 -37.5 -46.5t-53 -57t-52.5 -46.5h-58v12q14 18 32 44.5t35 54t28 49.5h106z" />
    <glyph glyph-name="Zdotaccent" unicode="&#x17b;" horiz-adv-x="572" 
d="M533 0h-495v68l376 566h-364v80h473v-68l-376 -566h386v-80zM293 915q20 0 35.5 -13.5t15.5 -42.5t-15.5 -42.5t-35.5 -13.5q-22 0 -37 13.5t-15 42.5t15 42.5t37 13.5z" />
    <glyph glyph-name="zdotaccent" unicode="&#x17c;" horiz-adv-x="470" 
d="M431 0h-392v58l288 410h-271v68h368v-66l-284 -402h291v-68zM238 737q20 0 35.5 -13.5t15.5 -42.5t-15.5 -42.5t-35.5 -13.5q-22 0 -37 13.5t-15 42.5t15 42.5t37 13.5z" />
    <glyph glyph-name="Zcaron" unicode="&#x17d;" horiz-adv-x="572" 
d="M533 0h-495v68l376 566h-364v80h473v-68l-376 -566h386v-80zM244 784q-13 22 -35 49t-46 53t-42 45v13h60q26 -17 54 -41t53 -51q27 27 55 51t54 41h62v-13q-19 -19 -43.5 -45t-47 -53t-34.5 -49h-90z" />
    <glyph glyph-name="zcaron" unicode="&#x17e;" horiz-adv-x="470" 
d="M431 0h-392v58l288 410h-271v68h368v-66l-284 -402h291v-68zM189 606q-13 22 -35 49t-46 53t-42 45v13h60q26 -17 54 -41t53 -51q27 27 55 51t54 41h62v-13q-19 -19 -43.5 -45t-47 -53t-34.5 -49h-90z" />
    <glyph glyph-name="longs" unicode="&#x17f;" horiz-adv-x="326" 
d="M261 692q-41 0 -64.5 -26t-23.5 -89v-577h-88v577q0 103 48.5 145.5t128.5 42.5q31 0 55.5 -5.5t44.5 -13.5l-23 -69q-16 5 -37 10t-41 5z" />
    <glyph glyph-name="florin" unicode="&#x192;" horiz-adv-x="572" 
d="M407 724q31 0 57.5 -7t45.5 -14l-22 -68q-16 5 -36.5 10.5t-41.5 5.5q-44 0 -64 -23.5t-20 -84.5v-69h135v-68h-133v-470q0 -98 -43.5 -137t-123.5 -39q-19 0 -37 2.5t-31 6.5v73q15 -4 31 -6.5t32 -2.5q42 0 62 22t20 81v470h-105v41l105 30v65q0 104 44 143t125 39z
" />
    <glyph glyph-name="Aringacute" unicode="&#x1fa;" horiz-adv-x="640" 
d="M271 829v9q21 24 45 58t40 62h106v-8q-10 -14 -33 -37t-50 -46t-49 -38h-59zM0 0l258 608q-49 27 -49 90q0 50 30.5 78t78.5 28q47 0 79.5 -28t32.5 -77q0 -31 -13 -54t-35 -36l258 -609h-93l-82 192h-295l-78 -192h-92zM318 642q25 0 40.5 14.5t15.5 41.5t-15.5 41.5
t-40.5 14.5q-24 0 -40 -14.5t-16 -41.5q0 -26 14.5 -41t41.5 -15zM201 272h238l-84 207q-7 18 -17.5 46t-18.5 55q-8 -27 -18 -56.5t-17 -46.5z" />
    <glyph glyph-name="aringacute" unicode="&#x1fb;" horiz-adv-x="561" 
d="M446 958v-6q-10 -12 -38 -30t-60 -36t-55 -30h-63v8q21 19 45 45.5t40 48.5h131zM285 817q47 0 79 -27.5t32 -76.5q0 -51 -31.5 -79t-79.5 -28q-49 0 -79 28t-30 78t30 77.5t79 27.5zM285 768q-24 0 -40 -15t-16 -41t14.5 -41t41.5 -15q25 0 40.5 15t15.5 41t-16 41
t-40 15zM288 545q98 0 145 -43t47 -137v-365h-64l-17 76h-4q-35 -44 -74 -65t-106 -21q-73 0 -121 38.5t-48 120.5q0 80 63 123.5t194 47.5l91 3v32q0 67 -29 93t-82 26q-42 0 -80 -12.5t-71 -28.5l-27 66q35 19 83 32.5t100 13.5zM393 262l-79 -3q-100 -4 -138.5 -32
t-38.5 -79q0 -45 27.5 -66t70.5 -21q67 0 112.5 37.5t45.5 115.5v48z" />
    <glyph glyph-name="AEacute" unicode="&#x1fc;" horiz-adv-x="881" 
d="M821 0h-372v221h-250l-107 -221h-93l339 714h483v-79h-282v-223h263v-78h-263v-255h282v-79zM234 301h215v333h-58zM634 944v-10q-13 -18 -37.5 -46.5t-53 -57t-52.5 -46.5h-58v12q14 18 32 44.5t35 54t28 49.5h106z" />
    <glyph glyph-name="aeacute" unicode="&#x1fd;" horiz-adv-x="864" 
d="M603 546q65 0 112 -30t72.5 -84t25.5 -126v-54h-343q2 -96 41.5 -141.5t113.5 -45.5q49 0 87.5 9.5t76.5 27.5v-77q-40 -18 -78.5 -26.5t-88.5 -8.5q-141 0 -203 113q-35 -52 -80.5 -82.5t-122.5 -30.5q-73 0 -121.5 38.5t-48.5 120.5q0 80 60 123.5t184 47.5l90 3v34
q0 65 -30.5 91t-81.5 26q-40 0 -78.5 -12t-71.5 -29l-27 66q35 19 85 32.5t99 13.5q62 0 102.5 -20.5t61.5 -65.5q26 41 68 64t96 23zM602 474q-58 0 -91.5 -39.5t-38.5 -113.5h248q0 69 -28.5 111t-89.5 42zM378 262l-75 -3q-94 -4 -130 -32t-36 -79q0 -45 25.5 -66
t67.5 -21q63 0 105.5 37.5t42.5 115.5v48zM580 766v-10q-13 -18 -37.5 -46.5t-53 -57t-52.5 -46.5h-58v12q14 18 32 44.5t35 54t28 49.5h106z" />
    <glyph glyph-name="Oslashacute" unicode="&#x1fe;" horiz-adv-x="781" 
d="M720 358q0 -111 -37.5 -193.5t-111 -128.5t-180.5 -46q-112 0 -185 47l-48 -68l-61 40l52 74q-44 49 -66 119t-22 157q0 109 36 191.5t109.5 128.5t185.5 46q52 0 96.5 -12t81.5 -33l46 66l61 -41l-51 -71q94 -99 94 -276zM156 358q0 -62 11.5 -111.5t35.5 -86.5l319 451
q-52 35 -130 35q-122 0 -179 -76.5t-57 -211.5zM625 358q0 128 -51 202l-320 -454q26 -18 60.5 -28t76.5 -10q121 0 177.5 77.5t56.5 212.5zM533 944v-10q-13 -18 -37.5 -46.5t-53 -57t-52.5 -46.5h-58v12q14 18 32 44.5t35 54t28 49.5h106z" />
    <glyph glyph-name="oslashacute" unicode="&#x1ff;" horiz-adv-x="605" 
d="M551 269q0 -133 -67.5 -206t-182.5 -73q-73 0 -129 33l-40 -56l-58 39l45 62q-31 36 -47.5 86t-16.5 115q0 133 66.5 205t182.5 72q73 0 131 -36l39 56l59 -38l-45 -63q29 -35 46 -84.5t17 -111.5zM146 269q0 -38 5.5 -70.5t18.5 -57.5l220 306q-36 25 -88 25
q-82 0 -119 -54t-37 -149zM460 269q0 74 -23 123l-220 -306q34 -23 86 -23q81 0 119 55.5t38 150.5zM444 766v-10q-13 -18 -37.5 -46.5t-53 -57t-52.5 -46.5h-58v12q14 18 32 44.5t35 54t28 49.5h106z" />
    <glyph glyph-name="uni0218" unicode="&#x218;" horiz-adv-x="549" 
d="M502 191q0 -95 -69 -148t-186 -53q-60 0 -111 9t-85 25v86q36 -16 89.5 -29t110.5 -13q79 0 120 31t41 84q0 35 -15 59t-52 44t-101 44q-92 33 -138 81t-46 131q0 56 29 97t80 63t119 22q58 0 107 -11t90 -29l-28 -77q-37 16 -81 27t-90 11q-67 0 -101 -28.5t-34 -75.5
q0 -36 15 -60t49 -43.5t92 -40.5q63 -23 106.5 -49.5t66 -63.5t22.5 -93zM321 -61v-9q-5 -18 -17 -45.5t-28.5 -56t-34.5 -49.5h-48v12q7 17 16 43.5t16 55t9 49.5h87z" />
    <glyph glyph-name="uni0219" unicode="&#x219;" horiz-adv-x="479" 
d="M434 148q0 -78 -58 -118t-156 -40q-56 0 -96.5 9t-71.5 25v80q32 -16 77.5 -29.5t92.5 -13.5q67 0 97 21.5t30 57.5q0 20 -11 36t-39.5 32t-81.5 36q-52 20 -89 40t-57 48t-20 72q0 68 55.5 105t145.5 37q49 0 91.5 -10t79.5 -26l-30 -70q-34 14 -71 24t-76 10
q-54 0 -82.5 -17.5t-28.5 -47.5q0 -23 13 -38t43.5 -30t81.5 -34t87 -39t55 -48.5t19 -71.5zM304 -61v-9q-5 -18 -17 -45.5t-28.5 -56t-34.5 -49.5h-48v12q7 17 16 43.5t16 55t9 49.5h87z" />
    <glyph glyph-name="circumflex" unicode="&#x2c6;" horiz-adv-x="418" 
d="M253 766q12 -22 34.5 -49.5t47 -54t43.5 -45.5v-11h-62q-26 16 -54 39.5t-55 50.5q-27 -27 -54 -50.5t-53 -39.5h-60v11q18 19 42 45.5t46 54t35 49.5h90z" />
    <glyph glyph-name="caron" unicode="&#x2c7;" horiz-adv-x="418" 
d="M163 606q-13 22 -35 49t-46 53t-42 45v13h60q26 -17 54 -41t53 -51q27 27 55 51t54 41h62v-13q-19 -19 -43.5 -45t-47 -53t-34.5 -49h-90z" />
    <glyph glyph-name="macron" unicode="&#x2c9;" horiz-adv-x="377" 
d="M337 677v-71h-297v71h297z" />
    <glyph glyph-name="breve" unicode="&#x2d8;" horiz-adv-x="391" 
d="M351 740q-5 -60 -45.5 -97t-112.5 -37q-74 0 -111.5 36t-41.5 98h54q4 -41 29.5 -52t71.5 -11q39 0 67.5 12t33.5 51h55z" />
    <glyph glyph-name="dotaccent" unicode="&#x2d9;" horiz-adv-x="183" 
d="M92 737q20 0 35.5 -13.5t15.5 -42.5t-15.5 -42.5t-35.5 -13.5q-22 0 -37 13.5t-15 42.5t15 42.5t37 13.5z" />
    <glyph glyph-name="ring" unicode="&#x2da;" horiz-adv-x="300" 
d="M149 606q-49 0 -79 28t-30 78t30 77.5t79 27.5q47 0 79 -27.5t32 -76.5q0 -51 -31.5 -79t-79.5 -28zM149 656q25 0 40.5 15t15.5 41t-16 41t-40 15t-40 -15t-16 -41t14.5 -41t41.5 -15z" />
    <glyph glyph-name="ogonek" unicode="&#x2db;" horiz-adv-x="245" 
d="M112 -116q0 -45 45 -45q17 0 28.5 2.5t19.5 3.5v-56q-14 -4 -28.5 -6.5t-33.5 -2.5q-53 0 -78 25t-25 69q0 28 14.5 55.5t36 49.5t41.5 36l48 -15q-34 -32 -51 -58.5t-17 -57.5z" />
    <glyph glyph-name="tilde" unicode="&#x2dc;" horiz-adv-x="447" 
d="M40 606q6 59 34.5 93.5t75.5 34.5q30 0 56.5 -14.5t50.5 -28.5t45 -14q23 0 35.5 14.5t19.5 43.5h50q-6 -59 -34 -93.5t-75 -34.5q-28 0 -54.5 14t-51 28.5t-46.5 14.5q-24 0 -36 -14.5t-19 -43.5h-51z" />
    <glyph glyph-name="hungarumlaut" unicode="&#x2dd;" horiz-adv-x="439" 
d="M399 766v-10q-11 -18 -34 -46.5t-50 -57t-49 -46.5h-50v12q14 19 30 45t31 53.5t26 49.5h96zM223 766v-10q-11 -18 -34 -46.5t-50 -57t-49 -46.5h-50v12q21 28 45.5 71t41.5 77h96z" />
    <glyph glyph-name="tonos" unicode="&#x384;" horiz-adv-x="577" 
d="M253 606v14q9 24 18 57t16 67t11 61h94v-11q-6 -22 -19.5 -55.5t-31 -69t-35.5 -63.5h-53z" />
    <glyph glyph-name="dieresistonos" unicode="&#x385;" horiz-adv-x="577" 
d="M395 838v-10q-16 -32 -43.5 -73.5t-55.5 -76.5h-42v12q11 30 24.5 72t20.5 76h96zM184 730q19 0 32.5 -11.5t13.5 -37.5q0 -25 -13.5 -37.5t-32.5 -12.5q-20 0 -33 12.5t-13 37.5q0 26 13 37.5t33 11.5zM403 730q18 0 32 -11.5t14 -37.5q0 -25 -14 -37.5t-32 -12.5
q-20 0 -33 12.5t-13 37.5q0 26 13 37.5t33 11.5z" />
    <glyph glyph-name="Alphatonos" unicode="&#x386;" horiz-adv-x="639" 
d="M545 0l-86 221h-283l-85 -221h-91l279 717h81l278 -717h-93zM432 301l-80 216q-3 8 -10 29t-13.5 43.5t-10.5 34.5q-8 -31 -16.5 -60.5t-14.5 -46.5l-81 -216h226zM9 553v14q9 24 18 57t16 67t11 61h94v-11q-6 -22 -19.5 -55.5t-31 -69t-35.5 -63.5h-53z" />
    <glyph glyph-name="anoteleia" unicode="&#x387;" horiz-adv-x="268" 
d="M72 483q0 37 18 52t43 15t44 -15t19 -52q0 -36 -19 -52t-44 -16t-43 16t-18 52z" />
    <glyph glyph-name="Epsilontonos" unicode="&#x388;" horiz-adv-x="641" 
d="M581 0h-399v714h399v-79h-309v-223h291v-78h-291v-255h309v-79zM-1 553v14q9 24 18 57t16 67t11 61h94v-11q-6 -22 -19.5 -55.5t-31 -69t-35.5 -63.5h-53z" />
    <glyph glyph-name="Etatonos" unicode="&#x389;" horiz-adv-x="826" 
d="M728 0h-90v333h-366v-333h-90v714h90v-302h366v302h90v-714zM-1 553v14q9 24 18 57t16 67t11 61h94v-11q-6 -22 -19.5 -55.5t-31 -69t-35.5 -63.5h-53z" />
    <glyph glyph-name="Iotatonos" unicode="&#x38a;" horiz-adv-x="464" 
d="M423 0h-258v52l84 19v571l-84 20v52h258v-52l-84 -20v-571l84 -19v-52zM-1 553v14q9 24 18 57t16 67t11 61h94v-11q-6 -22 -19.5 -55.5t-31 -69t-35.5 -63.5h-53z" />
    <glyph glyph-name="Omicrontonos" unicode="&#x38c;" horiz-adv-x="827" 
d="M766 358q0 -111 -37.5 -193.5t-111 -128.5t-180.5 -46q-111 0 -184.5 46t-109.5 129t-36 194q0 109 36 191.5t109.5 128.5t185.5 46q107 0 180 -45.5t110.5 -128t37.5 -193.5zM202 358q0 -135 57 -212.5t178 -77.5t177.5 77.5t56.5 212.5t-56 211.5t-177 76.5
q-122 0 -179 -76.5t-57 -211.5zM-1 553v14q9 24 18 57t16 67t11 61h94v-11q-6 -22 -19.5 -55.5t-31 -69t-35.5 -63.5h-53z" />
    <glyph glyph-name="Upsilontonos" unicode="&#x38e;" horiz-adv-x="721" 
d="M438 363l186 351h97l-238 -437v-277h-90v273l-238 441h98zM-1 553v14q9 24 18 57t16 67t11 61h94v-11q-6 -22 -19.5 -55.5t-31 -69t-35.5 -63.5h-53z" />
    <glyph glyph-name="Omegatonos" unicode="&#x38f;" horiz-adv-x="819" 
d="M428 646q-120 0 -176 -65.5t-56 -179.5q0 -100 37 -181t130 -148v-72h-288v79h178q-64 49 -108 131t-44 194q0 98 38 170t111 111.5t178 39.5q106 0 179 -39t111 -111t38 -170q0 -113 -43.5 -195t-107.5 -131h177v-79h-288v72q93 66 130.5 148t37.5 181
q0 114 -56.5 179.5t-177.5 65.5zM-8 554v14q9 24 18 57t16 67t11 61h94v-11q-6 -22 -19.5 -55.5t-31 -69t-35.5 -63.5h-53z" />
    <glyph glyph-name="iotadieresistonos" unicode="&#x390;" horiz-adv-x="346" 
d="M169 536v-378q0 -48 18.5 -72t58.5 -24q22 0 45.5 3.5t36.5 7.5v-67q-14 -7 -41 -11.5t-53 -4.5q-44 0 -78.5 14.5t-54 51t-19.5 101.5v379h87zM236 838v-10q-16 -32 -43.5 -73.5t-55.5 -76.5h-42v12q11 30 24.5 72t20.5 76h96zM25 730q19 0 32.5 -11.5t13.5 -37.5
q0 -25 -13.5 -37.5t-32.5 -12.5q-20 0 -33 12.5t-13 37.5q0 26 13 37.5t33 11.5zM244 730q18 0 32 -11.5t14 -37.5q0 -25 -14 -37.5t-32 -12.5q-20 0 -33 12.5t-13 37.5q0 26 13 37.5t33 11.5z" />
    <glyph glyph-name="Alpha" unicode="&#x391;" horiz-adv-x="639" 
d="M545 0l-86 221h-283l-85 -221h-91l279 717h81l278 -717h-93zM432 301l-80 216q-3 8 -10 29t-13.5 43.5t-10.5 34.5q-8 -31 -16.5 -60.5t-14.5 -46.5l-81 -216h226z" />
    <glyph glyph-name="Beta" unicode="&#x392;" horiz-adv-x="650" 
d="M97 714h204q133 0 202 -40t69 -137q0 -63 -35 -104.5t-101 -53.5v-5q45 -8 81.5 -27t57.5 -54t21 -90q0 -97 -66.5 -150t-181.5 -53h-251v714zM187 410h132q91 0 125.5 29.5t34.5 87.5q0 59 -41.5 84.5t-132.5 25.5h-118v-227zM187 335v-259h144q95 0 132 37t37 97
q0 56 -38.5 90.5t-137.5 34.5h-137z" />
    <glyph glyph-name="Gamma" unicode="&#x393;" horiz-adv-x="524" 
d="M500 714v-80h-313v-634h-90v714h403z" />
    <glyph glyph-name="uni0394" unicode="&#x394;" horiz-adv-x="581" 
d="M335 714l226 -660v-54h-541v55l225 659h90zM462 79l-125 372q-15 45 -27.5 87t-20.5 78q-9 -36 -20.5 -77.5t-25.5 -83.5l-127 -376h346z" />
    <glyph glyph-name="Epsilon" unicode="&#x395;" horiz-adv-x="556" 
d="M496 0h-399v714h399v-79h-309v-223h291v-78h-291v-255h309v-79z" />
    <glyph glyph-name="Zeta" unicode="&#x396;" horiz-adv-x="572" 
d="M533 0h-495v68l376 566h-364v80h473v-68l-376 -566h386v-80z" />
    <glyph glyph-name="Eta" unicode="&#x397;" horiz-adv-x="741" 
d="M643 0h-90v333h-366v-333h-90v714h90v-302h366v302h90v-714z" />
    <glyph glyph-name="Theta" unicode="&#x398;" horiz-adv-x="781" 
d="M720 358q0 -111 -37.5 -193.5t-111 -128.5t-180.5 -46q-111 0 -184.5 46t-109.5 129t-36 194q0 109 36 191.5t109.5 128.5t185.5 46q107 0 180 -45.5t110.5 -128t37.5 -193.5zM156 358q0 -135 57 -212.5t178 -77.5t177.5 77.5t56.5 212.5t-56 211.5t-177 76.5
q-122 0 -179 -76.5t-57 -211.5zM541 402v-78h-302v78h302z" />
    <glyph glyph-name="Iota" unicode="&#x399;" horiz-adv-x="339" 
d="M298 0h-258v52l84 19v571l-84 20v52h258v-52l-84 -20v-571l84 -19v-52z" />
    <glyph glyph-name="Kappa" unicode="&#x39a;" horiz-adv-x="619" 
d="M619 0h-106l-253 341l-73 -64v-277h-90v714h90v-352q30 34 61 68l62 68l193 216h105l-283 -311z" />
    <glyph glyph-name="Lambda" unicode="&#x39b;" horiz-adv-x="608" 
d="M350 714l257 -714h-95l-158 450q-16 46 -29.5 88t-22.5 78q-8 -36 -21 -78t-29 -87l-157 -451h-95l256 714h94z" />
    <glyph glyph-name="Mu" unicode="&#x39c;" horiz-adv-x="907" 
d="M412 0l-235 626h-4q3 -31 5 -83.5t2 -109.5v-433h-83v714h133l220 -585h4l224 585h132v-714h-89v439q0 52 2.5 103t4.5 83h-4l-238 -625h-74z" />
    <glyph glyph-name="Nu" unicode="&#x39d;" horiz-adv-x="760" 
d="M663 0h-105l-382 593h-4q2 -35 5 -87t3 -107v-399h-83v714h104l381 -591h4q-1 16 -2.5 48t-3 69.5t-1.5 70.5v403h84v-714z" />
    <glyph glyph-name="Xi" unicode="&#x39e;" horiz-adv-x="555" 
d="M55 635v79h444v-79h-444zM95 334v78h364v-78h-364zM35 0v79h484v-79h-484z" />
    <glyph glyph-name="Omicron" unicode="&#x39f;" horiz-adv-x="781" 
d="M720 358q0 -111 -37.5 -193.5t-111 -128.5t-180.5 -46q-111 0 -184.5 46t-109.5 129t-36 194q0 109 36 191.5t109.5 128.5t185.5 46q107 0 180 -45.5t110.5 -128t37.5 -193.5zM156 358q0 -135 57 -212.5t178 -77.5t177.5 77.5t56.5 212.5t-56 211.5t-177 76.5
q-122 0 -179 -76.5t-57 -211.5z" />
    <glyph glyph-name="Pi" unicode="&#x3a0;" horiz-adv-x="731" 
d="M97 0v714h536v-714h-89v635h-357v-635h-90z" />
    <glyph glyph-name="Rho" unicode="&#x3a1;" horiz-adv-x="605" 
d="M286 714q140 0 204 -55t64 -155q0 -59 -26.5 -110.5t-89 -83.5t-169.5 -32h-82v-278h-90v714h189zM278 637h-91v-282h72q102 0 152 33t50 112q0 69 -44.5 103t-138.5 34z" />
    <glyph glyph-name="Sigma" unicode="&#x3a3;" horiz-adv-x="570" 
d="M36 0v74l234 299l-228 266v75h475v-80h-255h-38h-46t-33 1l225 -261l-235 -296q37 0 75 0.5t78 0.5h258v-79h-510z" />
    <glyph glyph-name="Tau" unicode="&#x3a4;" horiz-adv-x="556" 
d="M323 0h-90v635h-223v79h535v-79h-222v-635z" />
    <glyph glyph-name="Upsilon" unicode="&#x3a5;" horiz-adv-x="566" 
d="M283 363l186 351h97l-238 -437v-277h-90v273l-238 441h98z" />
    <glyph glyph-name="Phi" unicode="&#x3a6;" horiz-adv-x="804" 
d="M446 724v-88q116 -2 183 -38t95 -96t28 -132q0 -48 -14.5 -95.5t-49.5 -86t-94 -62.5t-148 -26v-110h-89v110q-91 2 -150.5 26.5t-93.5 64t-48 86.5t-14 93q0 70 28.5 130t95.5 97t182 39v88h89zM357 560q-81 -2 -128 -26t-67 -66t-20 -97q0 -89 51 -141t164 -56v386z
M446 560v-386q116 4 165.5 57.5t49.5 139.5q0 57 -20 98.5t-67.5 65t-127.5 25.5z" />
    <glyph glyph-name="Chi" unicode="&#x3a7;" horiz-adv-x="586" 
d="M582 0h-102l-189 310l-192 -310h-95l237 372l-222 342h100l175 -280l176 280h95l-221 -340z" />
    <glyph glyph-name="Psi" unicode="&#x3a8;" horiz-adv-x="804" 
d="M751 714v-235q0 -51 -14.5 -98t-48.5 -84t-93.5 -58.5t-149.5 -21.5v-217h-88v217q-90 0 -149.5 22t-93 59t-47.5 83.5t-14 96.5v236h90v-234q0 -93 51 -139.5t163 -46.5v420h88v-420q114 0 164 46.5t50 137.5v236h92z" />
    <glyph glyph-name="uni03A9" unicode="&#x3a9;" horiz-adv-x="782" 
d="M391 646q-120 0 -176 -65.5t-56 -179.5q0 -100 37 -181t130 -148v-72h-288v79h178q-64 49 -108 131t-44 194q0 98 38 170t111 111.5t178 39.5q106 0 179 -39t111 -111t38 -170q0 -113 -43.5 -195t-107.5 -131h177v-79h-288v72q93 66 130.5 148t37.5 181
q0 114 -56.5 179.5t-177.5 65.5z" />
    <glyph glyph-name="Iotadieresis" unicode="&#x3aa;" horiz-adv-x="339" 
d="M298 0h-258v52l84 19v571l-84 20v52h258v-52l-84 -20v-571l84 -19v-52zM29 859q0 26 13.5 37.5t33.5 11.5q19 0 33 -11.5t14 -37.5q0 -25 -14 -37.5t-33 -12.5q-20 0 -33.5 12.5t-13.5 37.5zM217 859q0 26 13.5 37.5t32.5 11.5t33 -11.5t14 -37.5q0 -25 -14 -37.5
t-33 -12.5t-32.5 12.5t-13.5 37.5z" />
    <glyph glyph-name="Upsilondieresis" unicode="&#x3ab;" horiz-adv-x="566" 
d="M283 363l186 351h97l-238 -437v-277h-90v273l-238 441h98zM142 859q0 26 13.5 37.5t33.5 11.5q19 0 33 -11.5t14 -37.5q0 -25 -14 -37.5t-33 -12.5q-20 0 -33.5 12.5t-13.5 37.5zM330 859q0 26 13.5 37.5t32.5 11.5t33 -11.5t14 -37.5q0 -25 -14 -37.5t-33 -12.5
t-32.5 12.5t-13.5 37.5z" />
    <glyph glyph-name="alphatonos" unicode="&#x3ac;" horiz-adv-x="615" 
d="M275 -10q-98 0 -159 69.5t-61 206.5q0 136 60 208t168 72q59 0 98.5 -21t65.5 -61h6q5 17 13 37t19 35h69q-8 -22 -13.5 -58t-8.5 -76t-3 -76v-208q0 -31 12 -43.5t29 -12.5q8 0 17 2t13 3v-64q-8 -5 -24 -9t-32 -4q-37 0 -60.5 18t-34.5 64h-7q-23 -34 -61.5 -58
t-105.5 -24zM290 63q82 0 117 47.5t35 150.5v6q0 100 -32.5 152.5t-120.5 52.5q-73 0 -108 -53t-35 -154t34.5 -151.5t109.5 -50.5zM272 606v14q9 24 18 57t16 67t11 61h94v-11q-6 -22 -19.5 -55.5t-31 -69t-35.5 -63.5h-53z" />
    <glyph glyph-name="epsilontonos" unicode="&#x3ad;" horiz-adv-x="483" 
d="M355 315v-72h-73q-151 0 -151 -92q0 -49 41 -69t101 -20q55 0 98 13t76 29v-77q-31 -17 -74 -27t-105 -10q-115 0 -170 44.5t-55 111.5q0 40 16.5 65.5t43.5 41t59 24.5v5q-45 14 -72.5 43.5t-27.5 78.5q0 68 57.5 105t148.5 37q58 0 99.5 -10t81.5 -28l-33 -70
q-33 15 -67.5 25t-81.5 10q-121 0 -121 -76q0 -44 41.5 -63t111.5 -19h56zM229 606v14q9 24 18 57t16 67t11 61h94v-11q-6 -22 -19.5 -55.5t-31 -69t-35.5 -63.5h-53z" />
    <glyph glyph-name="etatonos" unicode="&#x3ae;" horiz-adv-x="618" 
d="M343 546q96 0 145 -47t49 -150v-589h-87v583q0 64 -29 96.5t-91 32.5q-88 0 -122.5 -50t-34.5 -144v-278h-88v536h71l13 -73h5q26 42 72 62.5t97 20.5zM287 606v14q9 24 18 57t16 67t11 61h94v-11q-6 -22 -19.5 -55.5t-31 -69t-35.5 -63.5h-53z" />
    <glyph glyph-name="iotatonos" unicode="&#x3af;" horiz-adv-x="346" 
d="M169 536v-378q0 -48 18.5 -72t58.5 -24q22 0 45.5 3.5t36.5 7.5v-67q-14 -7 -41 -11.5t-53 -4.5q-44 0 -78.5 14.5t-54 51t-19.5 101.5v379h87zM91 606v14q9 24 18 57t16 67t11 61h94v-11q-6 -22 -19.5 -55.5t-31 -69t-35.5 -63.5h-53z" />
    <glyph glyph-name="upsilondieresistonos" unicode="&#x3b0;" horiz-adv-x="613" 
d="M307 -10q-89 0 -138.5 33.5t-69.5 91t-20 128.5v293h88v-290q0 -86 35 -135t112 -49q80 0 118 57t38 177q0 70 -8 125t-23 115h88q16 -59 24 -114.5t8 -129.5q0 -155 -63.5 -228.5t-188.5 -73.5zM414 838v-10q-16 -32 -43.5 -73.5t-55.5 -76.5h-42v12q11 30 24.5 72
t20.5 76h96zM203 730q19 0 32.5 -11.5t13.5 -37.5q0 -25 -13.5 -37.5t-32.5 -12.5q-20 0 -33 12.5t-13 37.5q0 26 13 37.5t33 11.5zM422 730q18 0 32 -11.5t14 -37.5q0 -25 -14 -37.5t-32 -12.5q-20 0 -33 12.5t-13 37.5q0 26 13 37.5t33 11.5z" />
    <glyph glyph-name="alpha" unicode="&#x3b1;" horiz-adv-x="615" 
d="M275 -10q-98 0 -159 69.5t-61 206.5q0 136 60 208t168 72q59 0 98.5 -21t65.5 -61h6q5 17 13 37t19 35h69q-8 -22 -13.5 -58t-8.5 -76t-3 -76v-208q0 -31 12 -43.5t29 -12.5q8 0 17 2t13 3v-64q-8 -5 -24 -9t-32 -4q-37 0 -60.5 18t-34.5 64h-7q-23 -34 -61.5 -58
t-105.5 -24zM290 63q82 0 117 47.5t35 150.5v6q0 100 -32.5 152.5t-120.5 52.5q-73 0 -108 -53t-35 -154t34.5 -151.5t109.5 -50.5z" />
    <glyph glyph-name="beta" unicode="&#x3b2;" horiz-adv-x="631" 
d="M324 765q67 0 119 -21.5t81.5 -63.5t29.5 -106q0 -72 -39 -114t-113 -54v-4q91 -10 137.5 -59t46.5 -140q0 -103 -64.5 -158t-179.5 -55q-58 0 -97.5 9t-71.5 25v-264h-88v775q0 81 31 131.5t85 74.5t123 24zM322 692q-40 0 -74 -14t-54.5 -49t-20.5 -98v-428
q35 -18 72.5 -29.5t88.5 -11.5q86 0 125 38t39 109q0 79 -48 115.5t-126 36.5h-53v74h43q78 0 114 37t36 98q0 62 -39 92t-103 30z" />
    <glyph glyph-name="gamma" unicode="&#x3b3;" horiz-adv-x="518" 
d="M513 536l-198 -523q-15 -41 -26 -86.5t-17 -89t-6 -77.5h-95q0 28 6.5 70t18 88.5t26.5 87.5l-217 530h91l113 -281q11 -26 22 -58t20 -61.5t12 -46.5h4q3 16 11.5 46t19 62t18.5 54l106 285h91z" />
    <glyph glyph-name="delta" unicode="&#x3b4;" horiz-adv-x="604" 
d="M319 760q69 0 118 -17t88 -37l-38 -69q-37 21 -79 36t-93 15q-45 0 -66 -20.5t-21 -48.5q0 -24 13 -43.5t42 -39.5t79 -47q91 -49 139.5 -107.5t48.5 -145.5q0 -120 -68.5 -183t-181.5 -63q-72 0 -127.5 26t-87 76t-31.5 122q0 64 27.5 112t75 80t106.5 50q-56 32 -90 70
t-34 94q0 69 51.5 104.5t128.5 35.5zM333 418q-31 -8 -63.5 -22t-60.5 -37.5t-45.5 -59t-17.5 -86.5q0 -66 40.5 -108t113.5 -42q76 0 117.5 44.5t41.5 127.5q0 67 -33.5 109.5t-92.5 73.5z" />
    <glyph glyph-name="epsilon" unicode="&#x3b5;" horiz-adv-x="483" 
d="M355 315v-72h-73q-151 0 -151 -92q0 -49 41 -69t101 -20q55 0 98 13t76 29v-77q-31 -17 -74 -27t-105 -10q-115 0 -170 44.5t-55 111.5q0 40 16.5 65.5t43.5 41t59 24.5v5q-45 14 -72.5 43.5t-27.5 78.5q0 68 57.5 105t148.5 37q58 0 99.5 -10t81.5 -28l-33 -70
q-33 15 -67.5 25t-81.5 10q-121 0 -121 -76q0 -44 41.5 -63t111.5 -19h56z" />
    <glyph glyph-name="zeta" unicode="&#x3b6;" horiz-adv-x="484" 
d="M457 -40q0 -44 -19.5 -84t-43.5 -71h-87q24 31 43 68t19 64q0 14 -8 26t-33.5 22.5t-79.5 19.5q-95 17 -144 68.5t-49 150.5q0 75 24 137.5t65.5 117.5t95.5 107t113 105q-5 -1 -27 -1.5t-54.5 -1.5t-66.5 -1h-120v73h372v-66q-103 -87 -165.5 -155.5t-93.5 -123.5
t-41.5 -100t-10.5 -85q0 -57 20 -86.5t58 -44t92 -25.5q76 -16 108.5 -43.5t32.5 -70.5z" />
    <glyph glyph-name="eta" unicode="&#x3b7;" horiz-adv-x="618" 
d="M343 546q96 0 145 -47t49 -150v-589h-87v583q0 64 -29 96.5t-91 32.5q-88 0 -122.5 -50t-34.5 -144v-278h-88v536h71l13 -73h5q26 42 72 62.5t97 20.5z" />
    <glyph glyph-name="theta" unicode="&#x3b8;" horiz-adv-x="595" 
d="M540 377q0 -121 -24.5 -207.5t-78 -133t-141.5 -46.5q-124 0 -182.5 103t-58.5 284q0 122 24 209t77.5 133t139.5 46q124 0 184 -101.5t60 -286.5zM296 693q-76 0 -111.5 -67.5t-40.5 -201.5h306q-5 134 -41.5 201.5t-112.5 67.5zM296 62q78 0 115 72t40 217h-307
q2 -143 37 -216t115 -73z" />
    <glyph glyph-name="iota" unicode="&#x3b9;" horiz-adv-x="346" 
d="M169 536v-378q0 -48 18.5 -72t58.5 -24q22 0 45.5 3.5t36.5 7.5v-67q-14 -7 -41 -11.5t-53 -4.5q-44 0 -78.5 14.5t-54 51t-19.5 101.5v379h87z" />
    <glyph glyph-name="kappa" unicode="&#x3ba;" horiz-adv-x="534" 
d="M509 536l-203 -237l219 -299h-105l-176 242l-66 -54v-188h-93v536h93v-139q0 -40 -2 -78t-4 -58h2q9 13 19.5 26.5t19.5 24.5l190 224h106z" />
    <glyph glyph-name="lambda" unicode="&#x3bb;" horiz-adv-x="542" 
d="M-6 0l231 526l-27 75q-16 43 -35 67.5t-62 24.5q-18 0 -31.5 -2t-24.5 -4v71q13 3 30.5 5.5t35.5 2.5q51 0 83 -18t53 -55t42 -95l173 -482q19 -54 50 -54q8 0 16.5 2t13.5 3v-65q-11 -5 -25.5 -8.5t-31.5 -3.5q-37 0 -58.5 18.5t-37.5 62.5l-73 205q-8 24 -18.5 53.5
t-19 58t-12.5 47.5h-4q-9 -35 -23.5 -75t-31.5 -79l-122 -281h-91z" />
    <glyph glyph-name="uni03BC" unicode="&#x3bc;" horiz-adv-x="623" 
d="M538 536v-536h-71l-14 72h-5q-26 -40 -65.5 -61t-95.5 -21q-39 0 -67 12.5t-48 32.5h-4q2 -18 3.5 -48.5t1.5 -70.5v-156h-88v776h88v-346q0 -127 120 -127q89 0 123 50t34 144v279h88z" />
    <glyph glyph-name="nu" unicode="&#x3bd;" horiz-adv-x="547" 
d="M0 536h91l107 -289q9 -24 20.5 -57t22 -64.5t15.5 -51.5h4q62 62 96.5 132t48.5 151.5t14 178.5h87q0 -105 -18.5 -195.5t-64 -174t-128.5 -166.5h-95z" />
    <glyph glyph-name="xi" unicode="&#x3be;" horiz-adv-x="477" 
d="M54 206q0 50 19.5 88.5t51.5 64t69 36.5v6q-50 14 -78 46.5t-28 89.5q0 47 20.5 77.5t54 49t73.5 29.5l-17.5 -1.5t-45 -3t-58.5 -1.5h-30v73h346v-68h-26q-57 0 -110.5 -17t-87.5 -51t-34 -85t37 -78.5t126 -27.5h83v-67h-86q-91 0 -139 -44t-48 -109q0 -51 21 -77
t60 -39t93 -24q76 -16 106.5 -44.5t30.5 -68.5q0 -44 -19 -84t-41 -71h-83q23 31 41 68t18 65q0 14 -8 25.5t-34.5 22t-79.5 19.5q-97 17 -147 66t-50 135z" />
    <glyph glyph-name="omicron" unicode="&#x3bf;" horiz-adv-x="605" 
d="M551 269q0 -133 -67.5 -206t-182.5 -73q-71 0 -126.5 32.5t-87.5 95t-32 151.5q0 133 66.5 205t182.5 72q72 0 128 -32.5t87.5 -94t31.5 -150.5zM146 269q0 -95 37.5 -150.5t119.5 -55.5q81 0 119 55.5t38 150.5t-38 149t-120 54t-119 -54t-37 -149z" />
    <glyph glyph-name="pi" unicode="&#x3c0;" horiz-adv-x="659" 
d="M568 62q14 0 25 3t19 7v-69q-8 -5 -25.5 -9t-40.5 -4q-111 0 -111 128v345h-227v-463h-87v463h-109v38l72 35h543v-73h-105v-339q0 -35 13 -48.5t33 -13.5z" />
    <glyph glyph-name="rho" unicode="&#x3c1;" horiz-adv-x="605" 
d="M550 268q0 -136 -64 -207t-173 -71q-41 0 -79 11.5t-66 33.5h-5q2 -17 3.5 -52.5t1.5 -80.5v-142h-89v515q0 137 64.5 204t174.5 67q68 0 120.5 -32t82 -94t29.5 -152zM314 472q-146 0 -146 -198v-162q28 -25 66 -37t78 -12q79 0 113.5 52t34.5 153q0 103 -34.5 153.5
t-111.5 50.5z" />
    <glyph glyph-name="sigma1" unicode="&#x3c2;" horiz-adv-x="484" 
d="M313 546q40 0 78.5 -8.5t66.5 -20.5l-28 -73q-26 10 -57 17.5t-64 7.5q-87 0 -125 -55t-38 -160q0 -60 14 -93.5t51.5 -52.5t107.5 -34q77 -16 107.5 -44.5t30.5 -69.5q0 -44 -19 -84.5t-41 -70.5h-83q23 31 41.5 68t18.5 65q0 14 -8 25.5t-34 22t-80 20.5
q-55 10 -99.5 36.5t-71 77t-26.5 133.5q0 101 33 166t91 96t134 31z" />
    <glyph glyph-name="sigma" unicode="&#x3c3;" horiz-adv-x="617" 
d="M550 246q0 -72 -28 -130t-83.5 -92t-137.5 -34q-111 0 -178.5 68t-67.5 198q0 100 35.5 162t101 90t154.5 28h247v-73h-130q39 -37 63 -91t24 -126zM146 256q0 -85 37 -139t120 -54t120 51t37 130q0 64 -21.5 120t-61.5 99h-31q-100 0 -150 -47t-50 -160z" />
    <glyph glyph-name="tau" unicode="&#x3c4;" horiz-adv-x="479" 
d="M452 536v-74h-209v-298q0 -58 26.5 -81t69.5 -23q22 0 45.5 3t39.5 8v-66q-14 -6 -41.5 -11t-56.5 -5q-46 0 -85 13.5t-63 49.5t-24 103v307h-144v39l73 35h369z" />
    <glyph glyph-name="upsilon" unicode="&#x3c5;" horiz-adv-x="613" 
d="M307 -10q-89 0 -138.5 33.5t-69.5 91t-20 128.5v293h88v-290q0 -86 35 -135t112 -49q80 0 118 57t38 177q0 70 -8 125t-23 115h88q16 -59 24 -114.5t8 -129.5q0 -155 -63.5 -228.5t-188.5 -73.5z" />
    <glyph glyph-name="phi" unicode="&#x3c6;" horiz-adv-x="725" 
d="M157 541l68 -47q-37 -49 -59.5 -102.5t-22.5 -123.5q0 -73 23.5 -116.5t62.5 -63.5t85 -25v298q0 91 42 138t116 47q62 0 106 -33.5t68 -93t24 -138.5q0 -97 -37.5 -159.5t-99 -94.5t-133.5 -36v-231h-86v231q-74 4 -132.5 33t-92.5 89t-34 158q0 81 29 148.5t73 121.5z
M473 473q-29 0 -51 -24t-22 -87v-299q51 5 92 29.5t65 71t24 116.5q0 94 -30.5 143.5t-77.5 49.5z" />
    <glyph glyph-name="chi" unicode="&#x3c7;" horiz-adv-x="551" 
d="M90 539q50 0 73.5 -31.5t46.5 -90.5l68 -172l153 291h94l-210 -376l93 -236q18 -46 36.5 -69t55.5 -23q13 0 24.5 1t20.5 3v-68q-11 -3 -26 -5.5t-36 -2.5q-45 0 -73.5 16.5t-47 47t-34.5 72.5l-71 186l-174 -322h-94l228 410l-82 213q-15 40 -32 62.5t-42 22.5
q-19 0 -33 -6v69q10 3 25.5 5.5t36.5 2.5z" />
    <glyph glyph-name="psi" unicode="&#x3c8;" horiz-adv-x="761" 
d="M426 759v-694q85 7 136.5 58t51.5 157q0 69 -8 127.5t-24 128.5h87q16 -68 23.5 -127.5t7.5 -125.5q0 -103 -37 -165.5t-99 -92t-138 -34.5v-231h-86v231q-76 3 -135 31t-92.5 88t-33.5 160v266h87v-269q0 -75 24 -118t64 -62t86 -23v695h86z" />
    <glyph glyph-name="omega" unicode="&#x3c9;" horiz-adv-x="782" 
d="M667 536q31 -70 45 -134t14 -142q0 -80 -22 -141t-64.5 -95t-104.5 -34q-108 0 -142 90h-5q-32 -90 -141 -90q-62 0 -104.5 34t-64.5 95t-22 141q0 78 14 142t45 134h90q-31 -70 -46 -134t-15 -143q0 -97 30 -146.5t79 -49.5t72.5 37t23.5 93v151h84v-151q0 -62 25 -96
t70 -34q50 0 80 49.5t30 146.5q0 79 -15 143t-46 134h90z" />
    <glyph glyph-name="iotadieresis" unicode="&#x3ca;" horiz-adv-x="346" 
d="M169 536v-378q0 -48 18.5 -72t58.5 -24q22 0 45.5 3.5t36.5 7.5v-67q-14 -7 -41 -11.5t-53 -4.5q-44 0 -78.5 14.5t-54 51t-19.5 101.5v379h87zM-11 681q0 26 13.5 37.5t33.5 11.5q19 0 33 -11.5t14 -37.5q0 -25 -14 -37.5t-33 -12.5q-20 0 -33.5 12.5t-13.5 37.5z
M177 681q0 26 13.5 37.5t32.5 11.5t33 -11.5t14 -37.5q0 -25 -14 -37.5t-33 -12.5t-32.5 12.5t-13.5 37.5z" />
    <glyph glyph-name="upsilondieresis" unicode="&#x3cb;" horiz-adv-x="613" 
d="M307 -10q-89 0 -138.5 33.5t-69.5 91t-20 128.5v293h88v-290q0 -86 35 -135t112 -49q80 0 118 57t38 177q0 70 -8 125t-23 115h88q16 -59 24 -114.5t8 -129.5q0 -155 -63.5 -228.5t-188.5 -73.5zM167 681q0 26 13.5 37.5t33.5 11.5q19 0 33 -11.5t14 -37.5
q0 -25 -14 -37.5t-33 -12.5q-20 0 -33.5 12.5t-13.5 37.5zM355 681q0 26 13.5 37.5t32.5 11.5t33 -11.5t14 -37.5q0 -25 -14 -37.5t-33 -12.5t-32.5 12.5t-13.5 37.5z" />
    <glyph glyph-name="omicrontonos" unicode="&#x3cc;" horiz-adv-x="605" 
d="M551 269q0 -133 -67.5 -206t-182.5 -73q-71 0 -126.5 32.5t-87.5 95t-32 151.5q0 133 66.5 205t182.5 72q72 0 128 -32.5t87.5 -94t31.5 -150.5zM146 269q0 -95 37.5 -150.5t119.5 -55.5q81 0 119 55.5t38 150.5t-38 149t-120 54t-119 -54t-37 -149zM264 606v14
q9 24 18 57t16 67t11 61h94v-11q-6 -22 -19.5 -55.5t-31 -69t-35.5 -63.5h-53z" />
    <glyph glyph-name="upsilontonos" unicode="&#x3cd;" horiz-adv-x="613" 
d="M307 -10q-89 0 -138.5 33.5t-69.5 91t-20 128.5v293h88v-290q0 -86 35 -135t112 -49q80 0 118 57t38 177q0 70 -8 125t-23 115h88q16 -59 24 -114.5t8 -129.5q0 -155 -63.5 -228.5t-188.5 -73.5zM269 606v14q9 24 18 57t16 67t11 61h94v-11q-6 -22 -19.5 -55.5t-31 -69
t-35.5 -63.5h-53z" />
    <glyph glyph-name="omegatonos" unicode="&#x3ce;" horiz-adv-x="782" 
d="M667 536q31 -70 45 -134t14 -142q0 -80 -22 -141t-64.5 -95t-104.5 -34q-108 0 -142 90h-5q-32 -90 -141 -90q-62 0 -104.5 34t-64.5 95t-22 141q0 78 14 142t45 134h90q-31 -70 -46 -134t-15 -143q0 -97 30 -146.5t79 -49.5t72.5 37t23.5 93v151h84v-151q0 -62 25 -96
t70 -34q50 0 80 49.5t30 146.5q0 79 -15 143t-46 134h90zM350 606v14q9 24 18 57t16 67t11 61h94v-11q-6 -22 -19.5 -55.5t-31 -69t-35.5 -63.5h-53z" />
    <glyph glyph-name="afii10023" unicode="&#x401;" horiz-adv-x="556" 
d="M496 0h-399v714h399v-79h-309v-223h291v-78h-291v-255h309v-79zM164 859q0 26 13.5 37.5t33.5 11.5q19 0 33 -11.5t14 -37.5q0 -25 -14 -37.5t-33 -12.5q-20 0 -33.5 12.5t-13.5 37.5zM352 859q0 26 13.5 37.5t32.5 11.5t33 -11.5t14 -37.5q0 -25 -14 -37.5t-33 -12.5
t-32.5 12.5t-13.5 37.5z" />
    <glyph glyph-name="afii10051" unicode="&#x402;" horiz-adv-x="741" 
d="M484 -10q-49 0 -76 12v78q29 -10 72 -10q22 0 44.5 8.5t37.5 32.5t15 70v64q0 58 -29 86t-99 28h-184v-359h-89v635h-166v79h472v-79h-217v-197h191q100 0 155 -46.5t55 -134.5v-70q0 -101 -51 -149t-131 -48z" />
    <glyph glyph-name="afii10052" unicode="&#x403;" horiz-adv-x="524" 
d="M500 714v-80h-313v-634h-90v714h403zM446 944v-10q-13 -18 -37.5 -46.5t-53 -57t-52.5 -46.5h-58v12q14 18 32 44.5t35 54t28 49.5h106z" />
    <glyph glyph-name="afii10053" unicode="&#x404;" horiz-adv-x="643" 
d="M407 645q-106 0 -171 -59t-78 -175h348v-78h-350q5 -127 67.5 -195.5t183.5 -68.5q49 0 93 8t86 20v-78q-78 -29 -191 -29q-116 0 -190 46t-109 128.5t-35 193.5q0 110 40 192.5t117.5 128.5t190.5 46q65 0 114.5 -12t90.5 -32l-37 -77q-35 17 -77 29t-93 12z" />
    <glyph glyph-name="afii10054" unicode="&#x405;" horiz-adv-x="549" 
d="M502 191q0 -95 -69 -148t-186 -53q-60 0 -111 9t-85 25v86q36 -16 89.5 -29t110.5 -13q79 0 120 31t41 84q0 35 -15 59t-52 44t-101 44q-92 33 -138 81t-46 131q0 56 29 97t80 63t119 22q58 0 107 -11t90 -29l-28 -77q-37 16 -81 27t-90 11q-67 0 -101 -28.5t-34 -75.5
q0 -36 15 -60t49 -43.5t92 -40.5q63 -23 106.5 -49.5t66 -63.5t22.5 -93z" />
    <glyph glyph-name="afii10055" unicode="&#x406;" horiz-adv-x="339" 
d="M298 0h-258v52l84 19v571l-84 20v52h258v-52l-84 -20v-571l84 -19v-52z" />
    <glyph glyph-name="afii10056" unicode="&#x407;" horiz-adv-x="339" 
d="M298 0h-258v52l84 19v571l-84 20v52h258v-52l-84 -20v-571l84 -19v-52zM29 859q0 26 13.5 37.5t33.5 11.5q19 0 33 -11.5t14 -37.5q0 -25 -14 -37.5t-33 -12.5q-20 0 -33.5 12.5t-13.5 37.5zM217 859q0 26 13.5 37.5t32.5 11.5t33 -11.5t14 -37.5q0 -25 -14 -37.5
t-33 -12.5t-32.5 12.5t-13.5 37.5z" />
    <glyph glyph-name="afii10057" unicode="&#x408;" horiz-adv-x="273" 
d="M-4 -190q-24 0 -42 3.5t-32 9.5v76q16 -5 34 -7.5t38 -2.5q25 0 47.5 10t36.5 34.5t14 70.5v710h90v-703q0 -103 -51 -152t-135 -49z" />
    <glyph glyph-name="afii10058" unicode="&#x409;" horiz-adv-x="936" 
d="M66 -11q-17 0 -34.5 3.5t-30.5 8.5v75q11 -5 25 -8.5t30 -3.5q30 0 47 23.5t27 60t18 75.5q8 40 19.5 113t25 170t28.5 208h340v-302h59q105 0 165.5 -27t86.5 -73t26 -103q0 -95 -63 -152t-200 -57h-164v635h-174q-10 -74 -21.5 -155.5t-22.5 -155.5t-22 -126
q-13 -68 -32 -114.5t-50.5 -70.5t-82.5 -24zM561 77h63q93 0 137 32.5t44 99.5q0 69 -48 97t-148 28h-48v-257z" />
    <glyph glyph-name="afii10059" unicode="&#x40a;" horiz-adv-x="958" 
d="M97 0v714h90v-302h306v302h91v-302h58q105 0 165.5 -27t86.5 -73t26 -103q0 -95 -63 -152t-199 -57h-165v333h-306v-333h-90zM584 77h63q92 0 136 32.5t44 99.5q0 69 -48 97t-147 28h-48v-257z" />
    <glyph glyph-name="afii10060" unicode="&#x40b;" horiz-adv-x="741" 
d="M510 714v-80h-245v-197h194q100 0 153.5 -46.5t53.5 -134.5v-256h-90v245q0 58 -28 85.5t-95 27.5h-188v-358h-90v634h-165v80h500z" />
    <glyph glyph-name="afii10061" unicode="&#x40c;" horiz-adv-x="618" 
d="M618 0h-108l-323 362v-362h-90v714h90v-346l315 346h102l-310 -347zM477 944v-10q-13 -18 -37.5 -46.5t-53 -57t-52.5 -46.5h-58v12q14 18 32 44.5t35 54t28 49.5h106z" />
    <glyph glyph-name="afii10062" unicode="&#x40e;" horiz-adv-x="624" 
d="M624 714l-228 -511q-32 -71 -64.5 -118.5t-76.5 -71t-112 -23.5q-28 0 -52.5 4t-44.5 11v89q20 -9 43 -14.5t48 -5.5q55 0 88 24t61 85l-275 531h99l199 -393q5 -11 12 -26t12 -29h4q4 10 9.5 26t10.5 26l172 396h95zM505 936q-7 -75 -50.5 -113.5t-138.5 -38.5
q-98 0 -138.5 38t-45.5 114h82q5 -54 28 -72.5t76 -18.5q46 0 72.5 19.5t31.5 71.5h83z" />
    <glyph glyph-name="afii10145" unicode="&#x40f;" horiz-adv-x="731" 
d="M633 0h-225v-188h-92v188h-219v714h90v-634h357v634h89v-714z" />
    <glyph glyph-name="afii10017" unicode="&#x410;" horiz-adv-x="639" 
d="M545 0l-86 221h-283l-85 -221h-91l279 717h81l278 -717h-93zM432 301l-80 216q-3 8 -10 29t-13.5 43.5t-10.5 34.5q-8 -31 -16.5 -60.5t-14.5 -46.5l-81 -216h226z" />
    <glyph glyph-name="afii10018" unicode="&#x411;" horiz-adv-x="615" 
d="M97 0v714h424v-79h-334v-223h106q107 0 166 -26.5t82 -72t23 -104.5q0 -98 -59 -153.5t-199 -55.5h-209zM187 77h110q96 0 135 32.5t39 99.5q0 69 -43 97t-146 28h-95v-257z" />
    <glyph glyph-name="afii10019" unicode="&#x412;" horiz-adv-x="650" 
d="M97 714h204q133 0 202 -40t69 -137q0 -63 -35 -104.5t-101 -53.5v-5q45 -8 81.5 -27t57.5 -54t21 -90q0 -97 -66.5 -150t-181.5 -53h-251v714zM187 410h132q91 0 125.5 29.5t34.5 87.5q0 59 -41.5 84.5t-132.5 25.5h-118v-227zM187 335v-259h144q95 0 132 37t37 97
q0 56 -38.5 90.5t-137.5 34.5h-137z" />
    <glyph glyph-name="afii10020" unicode="&#x413;" horiz-adv-x="524" 
d="M500 714v-80h-313v-634h-90v714h403z" />
    <glyph glyph-name="afii10021" unicode="&#x414;" horiz-adv-x="691" 
d="M578 714v-634h91v-268h-86v188h-491v-188h-86v268h55q36 62 68.5 139t57.5 161.5t41 169.5t20 164h330zM489 633h-162q-4 -58 -19.5 -131t-39 -149.5t-52 -147.5t-60.5 -125h333v553z" />
    <glyph glyph-name="afii10022" unicode="&#x415;" horiz-adv-x="556" 
d="M496 0h-399v714h399v-79h-309v-223h291v-78h-291v-255h309v-79z" />
    <glyph glyph-name="afii10024" unicode="&#x416;" horiz-adv-x="854" 
d="M288 367l-277 347h100l273 -346v346h86v-346l273 346h100l-277 -346l286 -368h-103l-279 362v-362h-86v362l-280 -362h-103z" />
    <glyph glyph-name="afii10025" unicode="&#x417;" horiz-adv-x="588" 
d="M519 547q0 -73 -46 -115.5t-123 -54.5v-4q90 -12 137 -56.5t47 -114.5q0 -94 -72 -153t-216 -59q-58 0 -110.5 8.5t-97.5 30.5v82q46 -23 102 -35t105 -12q96 0 145.5 36t49.5 102q0 68 -58 99t-162 31h-102v75h97q106 0 158.5 35.5t52.5 95.5q0 54 -40 83t-104 29
q-68 0 -112 -17t-86 -44l-43 61q42 31 103.5 52.5t138.5 21.5q115 0 175.5 -50t60.5 -127z" />
    <glyph glyph-name="afii10026" unicode="&#x418;" horiz-adv-x="768" 
d="M98 714h84v-392q0 -34 -1 -74.5t-3 -75t-3 -49.5h4l393 591h100v-714h-84v388q0 36 1.5 78.5t3.5 77.5t3 50h-4l-394 -594h-100v714z" />
    <glyph glyph-name="afii10027" unicode="&#x419;" horiz-adv-x="768" 
d="M98 714h84v-392q0 -34 -1 -74.5t-3 -75t-3 -49.5h4l393 591h100v-714h-84v388q0 36 1.5 78.5t3.5 77.5t3 50h-4l-394 -594h-100v714zM584 936q-7 -75 -50.5 -113.5t-138.5 -38.5q-98 0 -138.5 38t-45.5 114h82q5 -54 28 -72.5t76 -18.5q46 0 72.5 19.5t31.5 71.5h83z" />
    <glyph glyph-name="afii10028" unicode="&#x41a;" horiz-adv-x="618" 
d="M618 0h-108l-323 362v-362h-90v714h90v-346l315 346h102l-310 -347z" />
    <glyph glyph-name="afii10029" unicode="&#x41b;" horiz-adv-x="708" 
d="M611 0h-90v635h-226q-9 -74 -20 -155.5t-22 -155.5t-22 -126q-13 -68 -32 -114.5t-50.5 -70.5t-82.5 -24q-17 0 -34.5 3.5t-30.5 8.5v75q11 -5 25 -8.5t30 -3.5q30 0 47.5 24.5t27 61t17.5 72.5q8 38 19.5 111.5t25 171.5t27.5 209h391v-714z" />
    <glyph glyph-name="afii10030" unicode="&#x41c;" horiz-adv-x="907" 
d="M412 0l-235 626h-4q3 -31 5 -83.5t2 -109.5v-433h-83v714h133l220 -585h4l224 585h132v-714h-89v439q0 52 2.5 103t4.5 83h-4l-238 -625h-74z" />
    <glyph glyph-name="afii10031" unicode="&#x41d;" horiz-adv-x="741" 
d="M643 0h-90v333h-366v-333h-90v714h90v-302h366v302h90v-714z" />
    <glyph glyph-name="afii10032" unicode="&#x41e;" horiz-adv-x="781" 
d="M720 358q0 -111 -37.5 -193.5t-111 -128.5t-180.5 -46q-111 0 -184.5 46t-109.5 129t-36 194q0 109 36 191.5t109.5 128.5t185.5 46q107 0 180 -45.5t110.5 -128t37.5 -193.5zM156 358q0 -135 57 -212.5t178 -77.5t177.5 77.5t56.5 212.5t-56 211.5t-177 76.5
q-122 0 -179 -76.5t-57 -211.5z" />
    <glyph glyph-name="afii10033" unicode="&#x41f;" horiz-adv-x="731" 
d="M97 0v714h536v-714h-89v635h-357v-635h-90z" />
    <glyph glyph-name="afii10034" unicode="&#x420;" horiz-adv-x="605" 
d="M286 714q140 0 204 -55t64 -155q0 -59 -26.5 -110.5t-89 -83.5t-169.5 -32h-82v-278h-90v714h189zM278 637h-91v-282h72q102 0 152 33t50 112q0 69 -44.5 103t-138.5 34z" />
    <glyph glyph-name="afii10035" unicode="&#x421;" horiz-adv-x="632" 
d="M403 645q-115 0 -181 -77t-66 -211q0 -133 61.5 -210.5t184.5 -77.5q46 0 88 8t83 20v-78q-40 -15 -82.5 -22t-101.5 -7q-109 0 -182 45t-109.5 128t-36.5 195q0 108 39.5 190.5t116.5 129t187 46.5q113 0 197 -42l-36 -76q-33 15 -73.5 27t-88.5 12z" />
    <glyph glyph-name="afii10036" unicode="&#x422;" horiz-adv-x="556" 
d="M323 0h-90v635h-223v79h535v-79h-222v-635z" />
    <glyph glyph-name="afii10037" unicode="&#x423;" horiz-adv-x="624" 
d="M624 714l-228 -511q-32 -71 -64.5 -118.5t-76.5 -71t-112 -23.5q-28 0 -52.5 4t-44.5 11v89q20 -9 43 -14.5t48 -5.5q55 0 88 24t61 85l-275 531h99l199 -393q5 -11 12 -26t12 -29h4q4 10 9.5 26t10.5 26l172 396h95z" />
    <glyph glyph-name="afii10038" unicode="&#x424;" horiz-adv-x="804" 
d="M446 724v-88q116 -2 183 -38t95 -96t28 -132q0 -48 -14.5 -95.5t-49.5 -86t-94 -62.5t-148 -26v-110h-89v110q-91 2 -150.5 26.5t-93.5 64t-48 86.5t-14 93q0 70 28.5 130t95.5 97t182 39v88h89zM357 560q-81 -2 -128 -26t-67 -66t-20 -97q0 -89 51 -141t164 -56v386z
M446 560v-386q116 4 165.5 57.5t49.5 139.5q0 57 -20 98.5t-67.5 65t-127.5 25.5z" />
    <glyph glyph-name="afii10039" unicode="&#x425;" horiz-adv-x="586" 
d="M582 0h-102l-189 310l-192 -310h-95l237 372l-222 342h100l175 -280l176 280h95l-221 -340z" />
    <glyph glyph-name="afii10040" unicode="&#x426;" horiz-adv-x="741" 
d="M720 79v-267h-86v188h-537v714h90v-634h357v634h89v-635h87z" />
    <glyph glyph-name="afii10041" unicode="&#x427;" horiz-adv-x="698" 
d="M601 0h-90v293q-58 -20 -108.5 -32.5t-112.5 -12.5q-100 0 -155 46.5t-55 134.5v285h90v-272q0 -58 30.5 -86.5t98.5 -28.5q59 0 106 10.5t106 30.5v346h90v-714z" />
    <glyph glyph-name="afii10042" unicode="&#x428;" horiz-adv-x="1037" 
d="M939 0h-842v714h90v-634h285v634h90v-634h286v634h91v-714z" />
    <glyph glyph-name="afii10043" unicode="&#x429;" horiz-adv-x="1041" 
d="M1011 79v-267h-86v188h-828v714h90v-634h278v634h91v-634h279v634h90v-635h86z" />
    <glyph glyph-name="afii10044" unicode="&#x42a;" horiz-adv-x="692" 
d="M174 0v635h-166v79h255v-302h113q100 0 158 -27t82.5 -73t24.5 -103q0 -95 -61 -152t-192 -57h-214zM263 77h116q87 0 128 32.5t41 99.5q0 69 -45 97t-138 28h-102v-257z" />
    <glyph glyph-name="afii10045" unicode="&#x42b;" horiz-adv-x="858" 
d="M97 0v714h90v-302h110q99 0 157 -27t82.5 -73t24.5 -103q0 -95 -60.5 -152t-192.5 -57h-211zM671 0v714h90v-714h-90zM187 76h113q86 0 127 33t41 100q0 69 -44.5 96.5t-136.5 27.5h-100v-257z" />
    <glyph glyph-name="afii10046" unicode="&#x42c;" horiz-adv-x="642" 
d="M97 0v714h90v-302h134q99 0 158.5 -27t85.5 -73t26 -103q0 -95 -64 -152t-195 -57h-235zM187 77h136q175 0 175 132q0 69 -48 97t-140 28h-123v-257z" />
    <glyph glyph-name="afii10047" unicode="&#x42d;" horiz-adv-x="633" 
d="M232 645q-50 0 -91 -11.5t-74 -26.5l-37 75q41 20 94 31t109 11q115 0 189.5 -46t111.5 -126.5t37 -182.5q0 -117 -38 -202t-114.5 -131t-192.5 -46q-62 0 -105 7t-85 22v78q42 -11 85 -19.5t91 -8.5q129 0 194.5 68.5t69.5 196.5h-347v79h346q-10 109 -74.5 170.5
t-168.5 61.5z" />
    <glyph glyph-name="afii10048" unicode="&#x42e;" horiz-adv-x="1052" 
d="M990 358q0 -111 -35.5 -193.5t-106 -128.5t-173.5 -46q-102 0 -171.5 42t-106.5 119t-41 182h-169v-333h-90v714h90v-302h171q7 95 44 165.5t104.5 109t166.5 38.5q103 0 173.5 -45.5t107 -128t36.5 -193.5zM450 358q0 -135 53.5 -212.5t168.5 -77.5q117 0 170.5 77.5
t53.5 212.5t-53 211.5t-169 76.5t-170 -77t-54 -211z" />
    <glyph glyph-name="afii10049" unicode="&#x42f;" horiz-adv-x="639" 
d="M312 296l-185 -296h-105l200 312q-38 12 -71.5 35t-54.5 63t-21 104q0 97 66.5 148.5t200.5 51.5h200v-714h-90v296h-140zM452 637h-108q-86 0 -131 -29.5t-45 -97.5q0 -66 44 -102t136 -36h104v265z" />
    <glyph glyph-name="afii10065" unicode="&#x430;" horiz-adv-x="561" 
d="M288 545q98 0 145 -43t47 -137v-365h-64l-17 76h-4q-35 -44 -74 -65t-106 -21q-73 0 -121 38.5t-48 120.5q0 80 63 123.5t194 47.5l91 3v32q0 67 -29 93t-82 26q-42 0 -80 -12.5t-71 -28.5l-27 66q35 19 83 32.5t100 13.5zM393 262l-79 -3q-100 -4 -138.5 -32t-38.5 -79
q0 -45 27.5 -66t70.5 -21q67 0 112.5 37.5t45.5 115.5v48z" />
    <glyph glyph-name="afii10066" unicode="&#x431;" horiz-adv-x="599" 
d="M57 322q0 176 53 274t171 124q65 14 127 25t116 20l15 -77q-35 -6 -79 -13t-87 -15t-74 -14q-65 -14 -103 -68t-43 -166h6q14 19 38.5 39t59 34t78.5 14q104 0 157 -67t53 -174q0 -90 -31 -149.5t-86.5 -89t-127.5 -29.5q-111 0 -177 85t-66 247zM307 63q65 0 105 42
t40 144q0 82 -30.5 129.5t-100.5 47.5q-45 0 -80.5 -19.5t-60 -44.5t-33.5 -42q0 -49 7 -95t24.5 -82.5t49 -58t79.5 -21.5z" />
    <glyph glyph-name="afii10067" unicode="&#x432;" horiz-adv-x="576" 
d="M516 401q0 -50 -30 -78t-77 -38v-4q49 -7 86.5 -35.5t37.5 -88.5q0 -68 -50.5 -112.5t-166.5 -44.5h-231v536h230q57 0 102.5 -12.5t72 -42t26.5 -80.5zM427 390q0 38 -27.5 55.5t-89.5 17.5h-137v-147h121q133 0 133 74zM442 157q0 46 -35 66t-103 20h-131v-172h133
q66 0 101 19.5t35 66.5z" />
    <glyph glyph-name="afii10068" unicode="&#x433;" horiz-adv-x="433" 
d="M412 536v-74h-239v-462h-88v536h327z" />
    <glyph glyph-name="afii10069" unicode="&#x434;" horiz-adv-x="581" 
d="M483 536v-462h78v-260h-85v186h-373v-186h-84v260h43q69 95 103.5 216.5t35.5 245.5h282zM398 467h-119q-5 -68 -21.5 -140.5t-43 -138.5t-61.5 -114h245v393z" />
    <glyph glyph-name="afii10070" unicode="&#x435;" horiz-adv-x="564" 
d="M292 546q68 0 118 -30t76.5 -84.5t26.5 -127.5v-53h-367q2 -91 46.5 -138.5t124.5 -47.5q51 0 90.5 9.5t81.5 27.5v-77q-41 -18 -81 -26.5t-95 -8.5q-77 0 -135 31t-90.5 92t-32.5 151q0 88 29.5 151t83 97t124.5 34zM291 474q-63 0 -99.5 -40.5t-43.5 -112.5h273
q-1 68 -32 110.5t-98 42.5z" />
    <glyph glyph-name="afii10072" unicode="&#x436;" horiz-adv-x="750" 
d="M728 536l-221 -260l240 -276h-100l-232 272v-272h-82v272l-232 -272h-100l240 276l-221 260h96l217 -260v260h82v-260l218 260h95z" />
    <glyph glyph-name="afii10073" unicode="&#x437;" horiz-adv-x="490" 
d="M226 546q92 0 146.5 -37t54.5 -104q0 -49 -27.5 -77.5t-73.5 -41.5v-4q32 -9 59 -25t43.5 -42.5t16.5 -66.5q0 -67 -55.5 -112.5t-173.5 -45.5q-58 0 -105 9t-78 26v79q34 -16 80.5 -29t101.5 -13q60 0 101.5 20.5t41.5 70.5q0 90 -153 90h-72v72h58q69 0 110.5 18.5
t41.5 63.5q0 38 -31.5 57t-90.5 19q-44 0 -77.5 -8.5t-73.5 -25.5l-31 70q84 37 187 37z" />
    <glyph glyph-name="afii10074" unicode="&#x438;" horiz-adv-x="643" 
d="M168 536v-327q0 -13 -1 -36.5t-2.5 -48t-2.5 -37.5l287 449h108v-536h-82v316q0 16 0.5 42t1.5 51.5t2 38.5l-285 -448h-109v536h83z" />
    <glyph glyph-name="afii10075" unicode="&#x439;" horiz-adv-x="643" 
d="M168 536v-327q0 -13 -1 -36.5t-2.5 -48t-2.5 -37.5l287 449h108v-536h-82v316q0 16 0.5 42t1.5 51.5t2 38.5l-285 -448h-109v536h83zM519 758q-7 -75 -50.5 -113.5t-138.5 -38.5q-98 0 -138.5 38t-45.5 114h82q5 -54 28 -72.5t76 -18.5q46 0 72.5 19.5t31.5 71.5h83z" />
    <glyph glyph-name="afii10076" unicode="&#x43a;" horiz-adv-x="529" 
d="M402 536h96l-229 -258l248 -278h-102l-242 272v-272h-88v536h88v-260z" />
    <glyph glyph-name="afii10077" unicode="&#x43b;" horiz-adv-x="578" 
d="M493 0h-89v463h-158q-13 -169 -36 -272.5t-61.5 -150.5t-95.5 -47q-13 0 -25.5 1.5t-20.5 5.5v66q6 -2 13 -3t14 -1q54 0 86.5 115t49.5 359h323v-536z" />
    <glyph glyph-name="afii10078" unicode="&#x43c;" horiz-adv-x="746" 
d="M660 536v-536h-79v342q0 21 1.5 43.5t3.5 45.5h-3l-175 -431h-74l-170 431h-3q3 -45 3 -92v-339h-79v536h117l169 -431l172 431h117z" />
    <glyph glyph-name="afii10079" unicode="&#x43d;" horiz-adv-x="637" 
d="M173 536v-223h291v223h88v-536h-88v239h-291v-239h-88v536h88z" />
    <glyph glyph-name="afii10080" unicode="&#x43e;" horiz-adv-x="605" 
d="M551 269q0 -133 -67.5 -206t-182.5 -73q-71 0 -126.5 32.5t-87.5 95t-32 151.5q0 133 66.5 205t182.5 72q72 0 128 -32.5t87.5 -94t31.5 -150.5zM146 269q0 -95 37.5 -150.5t119.5 -55.5q81 0 119 55.5t38 150.5t-38 149t-120 54t-119 -54t-37 -149z" />
    <glyph glyph-name="afii10081" unicode="&#x43f;" horiz-adv-x="624" 
d="M538 536v-536h-88v461h-277v-461h-88v536h453z" />
    <glyph glyph-name="afii10082" unicode="&#x440;" horiz-adv-x="615" 
d="M340 546q99 0 159.5 -69t60.5 -208q0 -137 -60.5 -208t-160.5 -71q-62 0 -102.5 23t-63.5 55h-6q1 -17 3.5 -43t2.5 -45v-220h-88v776h72l12 -73h4q24 35 63 59t104 24zM324 472q-82 0 -116 -46t-35 -140v-17q0 -99 32.5 -152.5t120.5 -53.5q48 0 80 26.5t47.5 73.5
t15.5 107q0 92 -35.5 147t-109.5 55z" />
    <glyph glyph-name="afii10083" unicode="&#x441;" horiz-adv-x="480" 
d="M300 -10q-72 0 -127 29t-86.5 90t-31.5 156q0 99 32.5 161t89.5 91t129 29q40 0 78.5 -8.5t62.5 -20.5l-27 -73q-24 9 -56 17t-60 8q-158 0 -158 -203q0 -97 38.5 -148.5t114.5 -51.5q43 0 77 9t62 22v-78q-27 -14 -59.5 -21.5t-78.5 -7.5z" />
    <glyph glyph-name="afii10084" unicode="&#x442;" horiz-adv-x="476" 
d="M455 462h-175v-462h-87v462h-173v74h435v-74z" />
    <glyph glyph-name="afii10085" unicode="&#x443;" horiz-adv-x="510" 
d="M1 536h94l116 -305q15 -41 27 -77t18 -69h4q6 25 19 65.5t27 81.5l109 304h95l-231 -610q-29 -76 -73 -121t-122 -45q-24 0 -42 2.5t-31 5.5v70q11 -2 26.5 -4t32.5 -2q46 0 74 26t45 69l28 71z" />
    <glyph glyph-name="afii10086" unicode="&#x444;" horiz-adv-x="725" 
d="M405 760v-216q79 -8 139 -42.5t93 -93.5t33 -140q0 -122 -70.5 -194t-194.5 -82v-232h-86v232q-79 7 -139 41.5t-93 93.5t-33 141q0 122 70.5 194t197.5 82v216h83zM322 471q-92 -9 -134 -60.5t-42 -142.5t42 -143t134 -61v407zM405 470v-406q90 10 132 62t42 142
t-42.5 141t-131.5 61z" />
    <glyph glyph-name="afii10087" unicode="&#x445;" horiz-adv-x="529" 
d="M212 274l-185 262h100l138 -202l137 202h99l-185 -262l195 -274h-100l-146 214l-148 -214h-99z" />
    <glyph glyph-name="afii10088" unicode="&#x446;" horiz-adv-x="632" 
d="M614 -186h-86v186h-443v536h88v-462h277v462h88v-463h76v-259z" />
    <glyph glyph-name="afii10089" unicode="&#x447;" horiz-adv-x="613" 
d="M162 536v-195q0 -92 103 -92q50 0 91 15.5t84 41.5v230h88v-536h-88v239q-45 -29 -88.5 -45.5t-104.5 -16.5q-83 0 -128 43t-45 115v201h88z" />
    <glyph glyph-name="afii10090" unicode="&#x448;" horiz-adv-x="898" 
d="M812 536v-536h-727v536h88v-462h231v462h88v-462h232v462h88z" />
    <glyph glyph-name="afii10091" unicode="&#x449;" horiz-adv-x="906" 
d="M811 536v-463h78v-258h-88v185h-716v536h88v-462h231v462h88v-462h232v462h87z" />
    <glyph glyph-name="afii10092" unicode="&#x44a;" horiz-adv-x="696" 
d="M277 536v-220h148q110 0 163.5 -38.5t53.5 -113.5t-51 -119.5t-167 -44.5h-235v462h-171v74h259zM422 242h-145v-171h148q59 0 94.5 20t35.5 68t-33 65.5t-100 17.5z" />
    <glyph glyph-name="afii10093" unicode="&#x44b;" horiz-adv-x="778" 
d="M85 0v536h88v-220h139q104 0 154 -38t50 -114q0 -75 -49 -119.5t-159 -44.5h-223zM605 0v536h88v-536h-88zM173 71h127q57 0 93 19.5t36 68.5t-33.5 66.5t-94.5 17.5h-128v-172z" />
    <glyph glyph-name="afii10094" unicode="&#x44c;" horiz-adv-x="594" 
d="M173 316h159q209 0 209 -152q0 -75 -51 -119.5t-162 -44.5h-243v536h88v-220zM453 159q0 49 -34.5 66.5t-96.5 17.5h-149v-172h151q56 0 92.5 20t36.5 68z" />
    <glyph glyph-name="afii10095" unicode="&#x44d;" horiz-adv-x="494" 
d="M171 -10q-46 0 -79.5 7.5t-62.5 21.5v76q30 -12 65 -21t79 -9q78 0 124 42t51 133h-264v72h263q-7 82 -46.5 120t-115.5 38q-29 0 -63.5 -8t-61.5 -18l-25 71q29 13 69 22t80 9q75 0 132.5 -28t90 -89t32.5 -161q0 -96 -34.5 -157.5t-95 -91t-138.5 -29.5z" />
    <glyph glyph-name="afii10096" unicode="&#x44e;" horiz-adv-x="836" 
d="M781 269q0 -133 -64 -206t-173 -73q-102 0 -165 64t-70 185h-136v-239h-88v536h88v-223h137q10 113 72.5 173t163.5 60q69 0 122 -32.5t83 -94t30 -150.5zM399 269q0 -101 34.5 -153.5t111.5 -52.5t111 52.5t34 153.5t-34.5 152t-110.5 51q-77 0 -111.5 -51t-34.5 -152z
" />
    <glyph glyph-name="afii10097" unicode="&#x44f;" horiz-adv-x="559" 
d="M118 0h-102l153 225q-31 7 -60 25t-47 49t-18 79q0 76 52 117t138 41h240v-536h-88v213h-130zM129 377q0 -47 34.5 -69t96.5 -22h126v177h-143q-61 0 -87.5 -24.5t-26.5 -61.5z" />
    <glyph glyph-name="afii10071" unicode="&#x451;" horiz-adv-x="564" 
d="M292 546q68 0 118 -30t76.5 -84.5t26.5 -127.5v-53h-367q2 -91 46.5 -138.5t124.5 -47.5q51 0 90.5 9.5t81.5 27.5v-77q-41 -18 -81 -26.5t-95 -8.5q-77 0 -135 31t-90.5 92t-32.5 151q0 88 29.5 151t83 97t124.5 34zM291 474q-63 0 -99.5 -40.5t-43.5 -112.5h273
q-1 68 -32 110.5t-98 42.5zM144 681q0 26 13.5 37.5t33.5 11.5q19 0 33 -11.5t14 -37.5q0 -25 -14 -37.5t-33 -12.5q-20 0 -33.5 12.5t-13.5 37.5zM332 681q0 26 13.5 37.5t32.5 11.5t33 -11.5t14 -37.5q0 -25 -14 -37.5t-33 -12.5t-32.5 12.5t-13.5 37.5z" />
    <glyph glyph-name="afii10099" unicode="&#x452;" horiz-adv-x="618" 
d="M399 -240q-23 0 -39 3.5t-28 8.5v72q13 -4 26 -7t29 -3q27 0 45 17.5t18 65.5v407q0 128 -119 128q-89 0 -123 -50t-34 -144v-258h-89v605h-76v65h76v90h88v-90h192v-65h-192v-88q0 -19 -1.5 -38t-2.5 -36h5q26 41 71 62t97 21q98 0 147 -46.5t49 -149.5v-409
q0 -76 -34 -118.5t-105 -42.5z" />
    <glyph glyph-name="afii10100" unicode="&#x453;" horiz-adv-x="433" 
d="M412 536v-74h-239v-462h-88v536h327zM390 766v-10q-13 -18 -37.5 -46.5t-53 -57t-52.5 -46.5h-58v12q14 18 32 44.5t35 54t28 49.5h106z" />
    <glyph glyph-name="afii10101" unicode="&#x454;" horiz-adv-x="495" 
d="M310 -10q-74 0 -131.5 28.5t-90.5 89t-33 157.5q0 100 34 162t92.5 90.5t131.5 28.5q41 0 80 -8t68 -21l-26 -72q-28 11 -61.5 18t-62.5 7q-77 0 -117 -39t-48 -119h263v-72h-264q5 -89 45 -132t118 -43q45 0 80 9t65 21v-76q-29 -14 -63 -21.5t-80 -7.5z" />
    <glyph glyph-name="afii10102" unicode="&#x455;" horiz-adv-x="479" 
d="M434 148q0 -78 -58 -118t-156 -40q-56 0 -96.5 9t-71.5 25v80q32 -16 77.5 -29.5t92.5 -13.5q67 0 97 21.5t30 57.5q0 20 -11 36t-39.5 32t-81.5 36q-52 20 -89 40t-57 48t-20 72q0 68 55.5 105t145.5 37q49 0 91.5 -10t79.5 -26l-30 -70q-34 14 -71 24t-76 10
q-54 0 -82.5 -17.5t-28.5 -47.5q0 -23 13 -38t43.5 -30t81.5 -34t87 -39t55 -48.5t19 -71.5z" />
    <glyph glyph-name="afii10103" unicode="&#x456;" horiz-adv-x="258" 
d="M130 737q20 0 35.5 -13.5t15.5 -42.5t-15.5 -42.5t-35.5 -13.5q-22 0 -37 13.5t-15 42.5t15 42.5t37 13.5zM173 536v-536h-88v536h88z" />
    <glyph glyph-name="afii10104" unicode="&#x457;" horiz-adv-x="258" 
d="M173 0h-88v536h88v-536zM-12 681q0 26 13.5 37.5t33.5 11.5q19 0 33 -11.5t14 -37.5q0 -25 -14 -37.5t-33 -12.5q-20 0 -33.5 12.5t-13.5 37.5zM176 681q0 26 13.5 37.5t32.5 11.5t33 -11.5t14 -37.5q0 -25 -14 -37.5t-33 -12.5t-32.5 12.5t-13.5 37.5z" />
    <glyph glyph-name="afii10105" unicode="&#x458;" horiz-adv-x="258" 
d="M78 681q0 29 15 42.5t37 13.5q20 0 35.5 -13.5t15.5 -42.5t-15.5 -42.5t-35.5 -13.5q-22 0 -37 13.5t-15 42.5zM22 -240q-26 0 -45 3.5t-32 8.5v71q15 -5 31 -7.5t35 -2.5q32 0 53 17.5t21 66.5v619h88v-616q0 -75 -36 -117.5t-115 -42.5z" />
    <glyph glyph-name="afii10106" unicode="&#x459;" horiz-adv-x="842" 
d="M459 536v-220h124q105 0 155.5 -38.5t50.5 -113.5t-50.5 -119.5t-165.5 -44.5h-203v462h-125q-13 -169 -36 -272t-61 -150t-94 -47q-32 0 -47 7v65q5 -1 12 -2.5t14 -1.5q54 0 87 115.5t50 359.5h289zM567 242h-108v-171h111q58 0 94.5 20t36.5 68t-34.5 65.5t-99.5 17.5
z" />
    <glyph glyph-name="afii10107" unicode="&#x45a;" horiz-adv-x="886" 
d="M504 536v-221h120q107 0 157.5 -38t50.5 -113t-49 -119.5t-165 -44.5h-205v239h-238v-239h-90v536h90v-223h240v223h89zM612 242h-110v-171h112q58 0 94.5 20t36.5 68t-34 65.5t-99 17.5z" />
    <glyph glyph-name="afii10108" unicode="&#x45b;" horiz-adv-x="618" 
d="M173 760v-90h212v-66h-212v-87q0 -19 -1.5 -38.5t-3.5 -35.5h6q26 41 71 62t97 21q97 0 146 -47t49 -150v-329h-87v323q0 129 -120 129q-90 0 -123.5 -50t-33.5 -144v-258h-88v604h-76v66h76v90h88z" />
    <glyph glyph-name="afii10109" unicode="&#x45c;" horiz-adv-x="529" 
d="M402 536h96l-229 -258l248 -278h-102l-242 272v-272h-88v536h88v-260zM420 766v-10q-13 -18 -37.5 -46.5t-53 -57t-52.5 -46.5h-58v12q14 18 32 44.5t35 54t28 49.5h106z" />
    <glyph glyph-name="afii10110" unicode="&#x45e;" horiz-adv-x="510" 
d="M1 536h94l116 -305q15 -41 27 -77t18 -69h4q6 25 19 65.5t27 81.5l109 304h95l-231 -610q-29 -76 -73 -121t-122 -45q-24 0 -42 2.5t-31 5.5v70q11 -2 26.5 -4t32.5 -2q46 0 74 26t45 69l28 71zM444 758q-7 -75 -50.5 -113.5t-138.5 -38.5q-98 0 -138.5 38t-45.5 114h82
q5 -54 28 -72.5t76 -18.5q46 0 72.5 19.5t31.5 71.5h83z" />
    <glyph glyph-name="afii10193" unicode="&#x45f;" horiz-adv-x="626" 
d="M272 0h-187v536h88v-462h279v462h88v-536h-182v-185h-86v185z" />
    <glyph glyph-name="afii10050" unicode="&#x490;" horiz-adv-x="532" 
d="M509 861v-227h-322v-634h-90v714h328v147h84z" />
    <glyph glyph-name="afii10098" unicode="&#x491;" horiz-adv-x="436" 
d="M414 692v-224h-241v-468h-88v536h243v156h86z" />
    <glyph glyph-name="Wgrave" unicode="&#x1e80;" horiz-adv-x="930" 
d="M917 714l-190 -714h-91l-139 468q-9 28 -16.5 57.5t-13 52t-6.5 31.5q-1 -13 -11 -55.5t-23 -88.5l-135 -465h-91l-189 714h94l111 -436q12 -46 20.5 -89t13.5 -81q5 39 15 85t23 90l126 431h93l131 -434q14 -46 24 -92t15 -80q4 37 13.5 80.5t21.5 90.5l110 435h94z
M439 944q11 -22 27.5 -49.5t35 -54t33.5 -44.5v-12h-59q-23 18 -52 46.5t-53.5 57t-36.5 46.5v10h105z" />
    <glyph glyph-name="wgrave" unicode="&#x1e81;" horiz-adv-x="786" 
d="M523 1l-92 302q-13 41 -23 80t-14 62h-4q-4 -23 -13 -62t-23 -81l-96 -301h-100l-147 536h91l74 -286q11 -43 21 -87t14 -73h4q3 17 9 42t13 52.5t14 49.5l95 302h96l92 -302q10 -35 21 -75t15 -68h4q3 25 13.5 69t22.5 90l75 286h90l-149 -536h-103zM367 766
q11 -22 27.5 -49.5t35 -54t33.5 -44.5v-12h-59q-23 18 -52 46.5t-53.5 57t-36.5 46.5v10h105z" />
    <glyph glyph-name="Wacute" unicode="&#x1e82;" horiz-adv-x="930" 
d="M917 714l-190 -714h-91l-139 468q-9 28 -16.5 57.5t-13 52t-6.5 31.5q-1 -13 -11 -55.5t-23 -88.5l-135 -465h-91l-189 714h94l111 -436q12 -46 20.5 -89t13.5 -81q5 39 15 85t23 90l126 431h93l131 -434q14 -46 24 -92t15 -80q4 37 13.5 80.5t21.5 90.5l110 435h94z
M606 944v-10q-13 -18 -37.5 -46.5t-53 -57t-52.5 -46.5h-58v12q14 18 32 44.5t35 54t28 49.5h106z" />
    <glyph glyph-name="wacute" unicode="&#x1e83;" horiz-adv-x="786" 
d="M523 1l-92 302q-13 41 -23 80t-14 62h-4q-4 -23 -13 -62t-23 -81l-96 -301h-100l-147 536h91l74 -286q11 -43 21 -87t14 -73h4q3 17 9 42t13 52.5t14 49.5l95 302h96l92 -302q10 -35 21 -75t15 -68h4q3 25 13.5 69t22.5 90l75 286h90l-149 -536h-103zM534 766v-10
q-13 -18 -37.5 -46.5t-53 -57t-52.5 -46.5h-58v12q14 18 32 44.5t35 54t28 49.5h106z" />
    <glyph glyph-name="Wdieresis" unicode="&#x1e84;" horiz-adv-x="930" 
d="M917 714l-190 -714h-91l-139 468q-9 28 -16.5 57.5t-13 52t-6.5 31.5q-1 -13 -11 -55.5t-23 -88.5l-135 -465h-91l-189 714h94l111 -436q12 -46 20.5 -89t13.5 -81q5 39 15 85t23 90l126 431h93l131 -434q14 -46 24 -92t15 -80q4 37 13.5 80.5t21.5 90.5l110 435h94z
M324 859q0 26 13.5 37.5t33.5 11.5q19 0 33 -11.5t14 -37.5q0 -25 -14 -37.5t-33 -12.5q-20 0 -33.5 12.5t-13.5 37.5zM512 859q0 26 13.5 37.5t32.5 11.5t33 -11.5t14 -37.5q0 -25 -14 -37.5t-33 -12.5t-32.5 12.5t-13.5 37.5z" />
    <glyph glyph-name="wdieresis" unicode="&#x1e85;" horiz-adv-x="786" 
d="M523 1l-92 302q-13 41 -23 80t-14 62h-4q-4 -23 -13 -62t-23 -81l-96 -301h-100l-147 536h91l74 -286q11 -43 21 -87t14 -73h4q3 17 9 42t13 52.5t14 49.5l95 302h96l92 -302q10 -35 21 -75t15 -68h4q3 25 13.5 69t22.5 90l75 286h90l-149 -536h-103zM252 681
q0 26 13.5 37.5t33.5 11.5q19 0 33 -11.5t14 -37.5q0 -25 -14 -37.5t-33 -12.5q-20 0 -33.5 12.5t-13.5 37.5zM440 681q0 26 13.5 37.5t32.5 11.5t33 -11.5t14 -37.5q0 -25 -14 -37.5t-33 -12.5t-32.5 12.5t-13.5 37.5z" />
    <glyph glyph-name="Ygrave" unicode="&#x1ef2;" horiz-adv-x="566" 
d="M283 363l186 351h97l-238 -437v-277h-90v273l-238 441h98zM257 944q11 -22 27.5 -49.5t35 -54t33.5 -44.5v-12h-59q-23 18 -52 46.5t-53.5 57t-36.5 46.5v10h105z" />
    <glyph glyph-name="ygrave" unicode="&#x1ef3;" horiz-adv-x="510" 
d="M1 536h94l116 -305q15 -41 27 -77t18 -69h4q6 25 19 65.5t27 81.5l109 304h95l-231 -610q-29 -76 -73 -121t-122 -45q-24 0 -42 2.5t-31 5.5v70q11 -2 26.5 -4t32.5 -2q46 0 74 26t45 69l28 71zM229 766q11 -22 27.5 -49.5t35 -54t33.5 -44.5v-12h-59q-23 18 -52 46.5
t-53.5 57t-36.5 46.5v10h105z" />
    <glyph glyph-name="endash" unicode="&#x2013;" horiz-adv-x="500" 
d="M40 229v78h420v-78h-420z" />
    <glyph glyph-name="emdash" unicode="&#x2014;" horiz-adv-x="1000" 
d="M40 229v78h920v-78h-920z" />
    <glyph glyph-name="afii00208" unicode="&#x2015;" horiz-adv-x="1000" 
d="M40 229v78h920v-78h-920z" />
    <glyph glyph-name="underscoredbl" unicode="&#x2017;" horiz-adv-x="411" 
d="M413 -90h-415v64h415v-64zM413 -222h-415v64h415v-64z" />
    <glyph glyph-name="quoteleft" unicode="&#x2018;" horiz-adv-x="175" 
d="M18 469l-6 11q14 52 38 116.5t48 117.5h65q-9 -38 -19 -81.5t-18 -86t-13 -77.5h-95z" />
    <glyph glyph-name="quoteright" unicode="&#x2019;" horiz-adv-x="175" 
d="M156 714l7 -11q-13 -53 -37.5 -117t-48.5 -117h-65q10 37 19.5 81t17.5 86.5t13 77.5h94z" />
    <glyph glyph-name="quotesinglbase" unicode="&#x201a;" horiz-adv-x="250" 
d="M175 116l7 -11q-13 -53 -37.5 -117t-48.5 -117h-65q10 37 19.5 81t17.5 86.5t13 77.5h94z" />
    <glyph glyph-name="quotereversed" unicode="&#x201b;" horiz-adv-x="175" 
d="M114 714q5 -35 13 -77.5t17.5 -86.5t19.5 -81h-65q-25 53 -49 117t-38 117l7 11h95z" />
    <glyph glyph-name="quotedblleft" unicode="&#x201c;" horiz-adv-x="359" 
d="M347 714q-14 -58 -28.5 -125.5t-21.5 -119.5h-95l-7 11q13 52 37.5 116t49.5 118h65zM162 714q-14 -58 -28 -125.5t-22 -119.5h-94l-6 11q14 52 37.5 116t48.5 118h64z" />
    <glyph glyph-name="quotedblright" unicode="&#x201d;" horiz-adv-x="359" 
d="M340 714l7 -11q-13 -53 -37.5 -117t-48.5 -117h-66q9 37 19 81t18.5 86.5t13.5 77.5h94zM155 714l7 -11q-14 -53 -38 -117t-48 -117h-64q10 37 19 81t17 86.5t13 77.5h94z" />
    <glyph glyph-name="quotedblbase" unicode="&#x201e;" horiz-adv-x="416" 
d="M359 116l7 -11q-13 -53 -37.5 -117t-48.5 -117h-66q9 37 19 81t18.5 86.5t13.5 77.5h94zM174 116l7 -11q-14 -53 -38 -117t-48 -117h-64q10 37 19 81t17 86.5t13 77.5h94z" />
    <glyph glyph-name="dagger" unicode="&#x2020;" horiz-adv-x="512" 
d="M448 484l-171 15l25 -499h-100l24 499l-161 -15v87l161 -15l-24 204h100l-25 -204l171 15v-87z" />
    <glyph glyph-name="daggerdbl" unicode="&#x2021;" horiz-adv-x="512" 
d="M281 241l171 15v-85l-171 14l24 -185h-101l24 185l-168 -14v85l168 -15l-21 143l21 135l-168 -15v85l168 -15l-24 186h101l-24 -186l171 15v-85l-171 15l21 -135z" />
    <glyph glyph-name="bullet" unicode="&#x2022;" horiz-adv-x="376" 
d="M77 365q0 67 32 95.5t79 28.5q46 0 78.5 -28.5t32.5 -95.5q0 -66 -32.5 -95t-78.5 -29q-47 0 -79 29t-32 95z" />
    <glyph glyph-name="ellipsis" unicode="&#x2026;" horiz-adv-x="791" 
d="M72 54q0 37 18 52t43 15t44 -15t19 -52q0 -36 -19 -52t-44 -16t-43 16t-18 52zM334 54q0 37 18 52t43 15t44 -15t19 -52q0 -36 -19 -52t-44 -16t-43 16t-18 52zM595 54q0 37 18 52t43 15t44 -15t19 -52q0 -36 -19 -52t-44 -16t-43 16t-18 52z" />
    <glyph glyph-name="perthousand" unicode="&#x2030;" horiz-adv-x="1177" 
d="M195 724q73 0 111.5 -58.5t38.5 -164.5t-36.5 -165.5t-113.5 -59.5q-71 0 -108.5 59.5t-37.5 165.5t35 164.5t111 58.5zM652 714l-396 -714h-77l396 714h77zM195 662q-38 0 -55.5 -40.5t-17.5 -120.5t17.5 -121t55.5 -41q77 0 77 162q0 161 -77 161zM632 438
q73 0 111.5 -58.5t38.5 -164.5t-36.5 -165.5t-113.5 -59.5q-71 0 -108.5 59.5t-37.5 165.5t35 164.5t111 58.5zM978 438q73 0 111.5 -58.5t38.5 -164.5t-36.5 -165.5t-113.5 -59.5q-71 0 -108.5 59.5t-37.5 165.5t35 164.5t111 58.5zM632 375q-38 0 -55.5 -40t-17.5 -120
q0 -81 17.5 -121.5t55.5 -40.5q77 0 77 162q0 160 -77 160zM978 375q-38 0 -55.5 -40t-17.5 -120q0 -81 17.5 -121.5t55.5 -40.5q77 0 77 162q0 160 -77 160z" />
    <glyph glyph-name="minute" unicode="&#x2032;" horiz-adv-x="232" 
d="M168 714h90l-161 -258h-58z" />
    <glyph glyph-name="second" unicode="&#x2033;" horiz-adv-x="408" 
d="M215 456l129 258h90l-161 -258h-58zM39 456l129 258h90l-161 -258h-58z" />
    <glyph glyph-name="guilsinglleft" unicode="&#x2039;" horiz-adv-x="310" 
d="M40 270l168 201l63 -36l-140 -171l140 -171l-63 -37l-168 201v13z" />
    <glyph glyph-name="guilsinglright" unicode="&#x203a;" horiz-adv-x="310" 
d="M101 471l169 -201v-13l-169 -201l-62 37l140 171l-140 171z" />
    <glyph glyph-name="exclamdbl" unicode="&#x203c;" horiz-adv-x="499" 
d="M163 201h-57l-25 513h107zM72 54q0 37 18 52t44 15q25 0 43.5 -15t18.5 -52q0 -36 -18.5 -52t-43.5 -16q-26 0 -44 16t-18 52zM393 201h-57l-25 513h107zM302 54q0 37 18 52t44 15q25 0 43.5 -15t18.5 -52q0 -36 -18.5 -52t-43.5 -16q-26 0 -44 16t-18 52z" />
    <glyph glyph-name="fraction" unicode="&#x2044;" horiz-adv-x="130" 
d="M320 714l-436 -714h-75l436 714h75z" />
    <glyph glyph-name="nsuperior" unicode="&#x207f;" horiz-adv-x="402" 
d="M222.958 499.779q62.4023 0 94.2539 -28.1982q31.8516 -28.1992 31.8516 -89.9971v-209.391h-56.5527v205.791q0 77.3975 -78.0029 77.3975q-57.8516 0 -79.9531 -29.999q-22.1006 -29.999 -22.1006 -86.3965v-166.793h-57.2021v321.587h46.1523l8.4502 -43.7988h3.25
q16.9004 25.1992 46.8018 37.499q29.9004 12.2988 63.0518 12.2988z" />
    <glyph glyph-name="franc" unicode="&#x20a3;" horiz-adv-x="572" 
d="M130 0v130h-85v65h85v519h387v-79h-300v-251h281v-79h-281v-110h151v-65h-151v-130h-87z" />
    <glyph glyph-name="afii08941" unicode="&#x20a4;" horiz-adv-x="572" 
d="M336 723q56 0 99.5 -11.5t77.5 -27.5l-31 -69q-31 14 -67.5 24t-77.5 10q-53 0 -84.5 -29t-31.5 -95v-88h202v-65h-202v-78h202v-66h-203q0 -65 -19 -98.5t-49 -49.5h384v-80h-503v74q47 10 73.5 47t26.5 107h-97v66h97v78h-97v65h97v66q0 103 47.5 161.5t155.5 58.5z
" />
    <glyph glyph-name="peseta" unicode="&#x20a7;" horiz-adv-x="776" 
d="M210 714q133 0 192 -55t59 -155q0 -60 -24.5 -111.5t-82.5 -83t-160 -31.5h-31v-278h-87v714h134zM204 637h-41v-282h26q92 0 137.5 33.5t45.5 111.5q0 69 -41 103t-127 34zM618 517v-104h110v-67h-110v-208q0 -37 13 -57t44 -20q15 0 35 3t31 7v-65q-12 -6 -33.5 -11
t-53.5 -5q-55 0 -87 33.5t-32 103.5v219h-77v40l78 36l31 95h51z" />
    <glyph glyph-name="Euro" unicode="&#x20ac;" horiz-adv-x="572" 
d="M380 723q50 0 94 -11t85 -35l-37 -72q-28 15 -65.5 28t-76.5 13q-152 0 -189 -191h244v-65h-251q-1 -10 -1 -19v-19v-19.5t1 -21.5h221v-65h-213q17 -85 65.5 -131.5t130.5 -46.5q39 0 78.5 9t70.5 23v-78q-31 -14 -68.5 -23t-85.5 -9q-121 0 -189.5 69t-90.5 187h-80v65
h72q-1 12 -1 20v21q0 10 0.5 21t0.5 17h-72v65h79q19 123 89 195.5t189 72.5z" />
    <glyph glyph-name="afii61248" unicode="&#x2105;" horiz-adv-x="821" 
d="M236 383q-73 0 -122 39.5t-49 126.5q0 61 23.5 98.5t63.5 54.5t88 17q27 0 52 -5.5t43 -12.5l-17 -52q-17 6 -38.5 10.5t-40.5 4.5q-105 0 -105 -114q0 -113 103 -113q26 0 49.5 4.5t43.5 12.5v-52q-19 -9 -44.5 -14t-49.5 -5zM640 714l-396 -714h-77l396 714h77z
M756 163q0 -81 -43 -124.5t-113 -43.5q-65 0 -108.5 43.5t-43.5 124.5q0 82 42.5 125t112.5 43q65 0 109 -43t44 -125zM517 163q0 -50 19.5 -82t65.5 -32q45 0 64.5 32t19.5 82q0 52 -19.5 83t-64.5 31q-46 0 -65.5 -31t-19.5 -83z" />
    <glyph glyph-name="afii61289" unicode="&#x2113;" horiz-adv-x="520" 
d="M311 58q35 0 61 22.5t31 80.5h51q-4 -82 -41.5 -126.5t-110.5 -44.5q-41 0 -76 16.5t-56.5 54.5t-21.5 103v113q-22 -8 -46 -15t-48 -13v59q26 7 49 14.5t45 14.5v239q0 40 14.5 74t46 54t83.5 20q58 0 92.5 -38.5t34.5 -108.5q0 -65 -24.5 -119t-67.5 -93.5t-97 -62.5
v-135q0 -50 19.5 -79.5t61.5 -29.5zM352 574q0 92 -60 92q-38 0 -50 -25.5t-12 -66.5v-208q122 64 122 208z" />
    <glyph glyph-name="afii61352" unicode="&#x2116;" horiz-adv-x="1020" 
d="M95 0v714h101l325 -588h4l-1 19t-2.5 49t-2.5 62t-1 58v400h79v-714h-98l-329 590h-4l1 -19.5t3 -50t3 -64t1 -60.5v-396h-79zM820 134q-64 0 -106 44t-42 126t40 125.5t111 43.5q64 0 106.5 -43.5t42.5 -125.5t-41 -126t-111 -44zM822 192q44 0 63 28.5t19 83.5
q0 56 -19 82.5t-63 26.5t-63.5 -26.5t-19.5 -82.5q0 -55 19.5 -83.5t63.5 -28.5zM692 0v69h257v-69h-257z" />
    <glyph glyph-name="trademark" unicode="&#x2122;" horiz-adv-x="773" 
d="M325 362v352h94l94 -271l97 271h91v-352h-64v204q0 8 1 31.5t2 35.5h-4l-101 -271h-53l-96 271h-4q1 -16 2 -36t1 -26v-209h-60zM118 362v298h-101v54h266v-54h-102v-298h-63z" />
    <glyph glyph-name="uni2126" unicode="&#x2126;" horiz-adv-x="782" 
d="M391 646q-120 0 -176 -65.5t-56 -179.5q0 -100 37 -181t130 -148v-72h-288v79h178q-64 49 -108 131t-44 194q0 98 38 170t111 111.5t178 39.5q106 0 179 -39t111 -111t38 -170q0 -113 -43.5 -195t-107.5 -131h177v-79h-288v72q93 66 130.5 148t37.5 181
q0 114 -56.5 179.5t-177.5 65.5z" />
    <glyph glyph-name="estimated" unicode="&#x212e;" horiz-adv-x="619" 
d="M309 -17q-85 0 -142.5 39t-87 102t-29.5 135t23 124t60.5 86t83.5 50t92 16q73 0 132 -33.5t93 -95.5t34 -147h-404v-174q22 -23 61 -41.5t84 -18.5q73 0 116 30t77 84l35 -20q-23 -37 -52.5 -68t-71.5 -49.5t-104 -18.5zM455 301v135q-19 20 -57 39t-90 19
q-50 0 -85.5 -17t-58.5 -40v-136h291z" />
    <glyph glyph-name="oneeighth" unicode="&#x215b;" horiz-adv-x="830" 
d="M110 0l436 714h75l-436 -714h-75zM164 286v276q0 26 1 47t3 42q-10 -9 -22 -19.5t-25 -19.5l-54 -39l-35 49l130 92h73v-428h-71zM601 -8q-73 0 -112 32t-39 88q0 41 22.5 68t54.5 44q-31 20 -47.5 41.5t-16.5 59.5q0 36 19 60.5t50.5 37.5t68.5 13q55 0 95 -26.5
t40 -81.5q0 -37 -21 -61t-51 -40q39 -17 62.5 -44t23.5 -68q0 -56 -41.5 -89.5t-107.5 -33.5zM602 254q29 11 47.5 27.5t18.5 44.5q0 26 -18 40.5t-50 14.5t-50 -14.5t-18 -40.5t20 -43t50 -29zM599 48q42 0 62 18t20 46q0 29 -22.5 48t-60.5 32l-13 5q-33 -16 -50 -36.5
t-17 -48.5t20 -46t61 -18z" />
    <glyph glyph-name="threeeighths" unicode="&#x215c;" horiz-adv-x="830" 
d="M148 278q-37 0 -69 6.5t-62 21.5v63q70 -34 132 -34q52 0 76 20.5t24 55.5q0 36 -29 52.5t-81 16.5h-57v55h57q50 0 73.5 19.5t23.5 50.5t-20.5 46t-49.5 15q-31 0 -57.5 -10.5t-53.5 -27.5l-36 46q31 22 65 35.5t81 13.5q71 0 107 -31t36 -79q0 -41 -21.5 -66.5
t-51.5 -35.5v-3q39 -8 62.5 -33t23.5 -66q0 -58 -42.5 -94.5t-130.5 -36.5zM143 0l436 714h75l-436 -714h-75zM613 -8q-73 0 -112 32t-39 88q0 41 22.5 68t54.5 44q-31 20 -47.5 41.5t-16.5 59.5q0 36 19 60.5t50.5 37.5t68.5 13q55 0 95 -26.5t40 -81.5q0 -37 -21 -61
t-51 -40q39 -17 62.5 -44t23.5 -68q0 -56 -41.5 -89.5t-107.5 -33.5zM614 254q29 11 47.5 27.5t18.5 44.5q0 26 -18 40.5t-50 14.5t-50 -14.5t-18 -40.5t20 -43t50 -29zM611 48q42 0 62 18t20 46q0 29 -22.5 48t-60.5 32l-13 5q-33 -16 -50 -36.5t-17 -48.5t20 -46t61 -18z
" />
    <glyph glyph-name="fiveeighths" unicode="&#x215d;" horiz-adv-x="830" 
d="M139 0l436 714h75l-436 -714h-75zM159 277q-32 0 -67 6.5t-57 19.5v67q27 -16 61.5 -25.5t60.5 -9.5q45 0 71.5 19.5t26.5 63.5q0 38 -26.5 59t-74.5 21q-26 0 -44.5 -4t-33.5 -8l-31 20l16 208h243v-55h-185l-9 -109q12 2 26.5 4t31.5 2q67 0 112 -34t45 -98
q0 -70 -42 -108.5t-124 -38.5zM612 -8q-73 0 -112 32t-39 88q0 41 22.5 68t54.5 44q-31 20 -47.5 41.5t-16.5 59.5q0 36 19 60.5t50.5 37.5t68.5 13q55 0 95 -26.5t40 -81.5q0 -37 -21 -61t-51 -40q39 -17 62.5 -44t23.5 -68q0 -56 -41.5 -89.5t-107.5 -33.5zM613 254
q29 11 47.5 27.5t18.5 44.5q0 26 -18.5 40.5t-49.5 14.5q-32 0 -50 -14.5t-18 -40.5t20 -43t50 -29zM610 48q42 0 62 18t20 46q0 29 -22.5 48t-60.5 32l-13 5q-33 -16 -50 -36.5t-17 -48.5t20 -46t61 -18z" />
    <glyph glyph-name="seveneighths" unicode="&#x215e;" horiz-adv-x="830" 
d="M97 0l436 714h75l-436 -714h-75zM99 286l170 368h-221v60h295v-49l-170 -379h-74zM609 -8q-73 0 -112 32t-39 88q0 41 22.5 68t54.5 44q-31 20 -47.5 41.5t-16.5 59.5q0 36 19 60.5t50.5 37.5t68.5 13q55 0 95 -26.5t40 -81.5q0 -37 -21 -61t-51 -40q39 -17 62.5 -44
t23.5 -68q0 -56 -41.5 -89.5t-107.5 -33.5zM610 254q29 11 47.5 27.5t18.5 44.5q0 26 -18 40.5t-50 14.5t-50 -14.5t-18 -40.5t20 -43t50 -29zM607 48q42 0 62 18t20 46q0 29 -22.5 48t-60.5 32l-13 5q-33 -16 -50 -36.5t-17 -48.5t20 -46t61 -18z" />
    <glyph glyph-name="cyrillicbreve" horiz-adv-x="577" 
d="M474 758q-7 -75 -50.5 -113.5t-138.5 -38.5q-98 0 -138.5 38t-45.5 114h82q5 -54 28 -72.5t76 -18.5q46 0 72.5 19.5t31.5 71.5h83z" />
    <glyph glyph-name="caroncommaaccent" horiz-adv-x="500" 
d="M310 760v-9q-4 -18 -15.5 -45t-26.5 -55.5t-30 -50.5h-48v12q6 19 13 45.5t12 53.5t8 49h87z" />
    <glyph glyph-name="commaaccent" unicode="&#x326;" 
d="M64 -61v-9q-5 -18 -17 -45.5t-28.5 -56t-34.5 -49.5h-48v12q7 17 16 43.5t16 55t9 49.5h87z" />
    <glyph glyph-name="commaaccentrotate" horiz-adv-x="500" 
d="M314 766v-12q-8 -17 -16.5 -43.5t-15.5 -54.5t-10 -50h-87v9q5 18 17 45t28.5 55.5t34.5 50.5h49z" />
    <glyph glyph-name="uni2074" unicode="&#x2074;" horiz-adv-x="350" 
d="M341 512h-61v-96h-75v96h-195v52l197 283h73v-275h61v-60zM205 572v93q0 21 0.5 49t2.5 52q-5 -11 -21 -35.5t-27 -41.5l-80 -117h125z" />
    <glyph glyph-name="uni2075" unicode="&#x2075;" horiz-adv-x="350" 
d="M299 844v-55h-185l-9 -109q12 2 26.5 4t31.5 2q67 0 112 -34t45 -98q0 -70 -42 -108.5t-124 -38.5q-32 0 -67 6.5t-57 19.5v67q27 -16 61.5 -25.5t60.5 -9.5q45 0 71.5 19.5t26.5 63.5q0 38 -26.5 59t-74.5 21q-26 0 -44.5 -4t-33.5 -8l-31 20l16 208h243z" />
    <glyph glyph-name="uni2077" unicode="&#x2077;" horiz-adv-x="350" 
d="M79 416l170 368h-221v60h295v-49l-170 -379h-74z" />
    <glyph glyph-name="uni2078" unicode="&#x2078;" horiz-adv-x="350" 
d="M176 852q55 0 95 -26.5t40 -81.5q0 -37 -21 -61t-51 -40q39 -17 62.5 -44t23.5 -68q0 -56 -41.5 -89.5t-107.5 -33.5q-73 0 -112 32t-39 88q0 41 22.5 68t54.5 44q-31 20 -47.5 41.5t-16.5 59.5q0 36 19 60.5t50.5 37.5t68.5 13zM175 797q-32 0 -50 -14.5t-18 -40.5
t20 -43t50 -29q29 11 47.5 27.5t18.5 44.5q0 26 -18.5 40.5t-49.5 14.5zM160 613q-33 -16 -50 -36.5t-17 -48.5t20 -46t61 -18q42 0 62 18t20 46q0 29 -22.5 48t-60.5 32z" />
    <glyph glyph-name="uni2000" unicode="&#x2000;" horiz-adv-x="500" 
 />
    <glyph glyph-name="uni2001" unicode="&#x2001;" horiz-adv-x="1000" 
 />
    <glyph glyph-name="uni2002" unicode="&#x2002;" horiz-adv-x="500" 
 />
    <glyph glyph-name="uni2003" unicode="&#x2003;" horiz-adv-x="1000" 
 />
    <glyph glyph-name="uni2004" unicode="&#x2004;" horiz-adv-x="333" 
 />
    <glyph glyph-name="uni2005" unicode="&#x2005;" horiz-adv-x="250" 
 />
    <glyph glyph-name="uni2006" unicode="&#x2006;" horiz-adv-x="167" 
 />
    <glyph glyph-name="uni2007" unicode="&#x2007;" horiz-adv-x="572" 
 />
    <glyph glyph-name="uni2008" unicode="&#x2008;" horiz-adv-x="268" 
 />
    <glyph glyph-name="uni2009" unicode="&#x2009;" horiz-adv-x="200" 
 />
    <glyph glyph-name="uni200A" unicode="&#x200a;" horiz-adv-x="100" 
 />
    <glyph glyph-name="uni200B" unicode="&#x200b;" 
 />
    <glyph glyph-name="uniFEFF" unicode="&#xfeff;" 
 />
    <glyph glyph-name="uniFFFC" unicode="&#xfffc;" horiz-adv-x="1000" 
d="M821 687v54h148v-148h-53v94h-95zM630 687v54h133v-54h-133zM439 687v54h133v-54h-133zM248 687v54h132v-54h-132zM41 593v148h148v-54h-94v-94h-54zM969 402h-53v132h53v-132zM95 402h-54v132h54v-132zM422 307q0 -66 -31 -106.5t-97 -40.5t-97 40.5t-31 106.5
q0 67 31 107t97 40t97 -40t31 -107zM728 161q-24 0 -39 5v50q7 -2 15 -3t18 -1q18 0 30 8.5t12 33.5v196h61v-194q0 -50 -27 -72.5t-70 -22.5zM463 450h84q53 0 80.5 -16t27.5 -57q0 -24 -11.5 -40t-32.5 -20v-4q22 -5 37 -18.5t15 -47.5q0 -39 -26.5 -61t-72.5 -22h-101
v286zM228 307q0 -45 16 -70.5t50 -25.5t50 25.5t16 70.5t-16 70.5t-50 25.5t-50 -25.5t-16 -70.5zM523 337h32q23 0 31.5 8t8.5 24q0 31 -43 31h-29v-63zM95 210h-54v133h54v-133zM969 210h-53v133h53v-133zM523 289v-75h36q24 0 33 10.5t9 28.5q0 16 -9.5 26t-34.5 10h-34z
M95 19h-54v132h54v-132zM969 19h-53v132h53v-132zM41 -187v148h54v-95h94v-53h-148zM821 -187v53h95v95h53v-148h-148zM439 -187v53h133v-53h-133zM248 -187v53h132v-53h-132zM630 -187v53h133v-53h-133z" />
    <glyph glyph-name="uniFFFD" unicode="&#xfffd;" horiz-adv-x="1000" 
d="M499 760l459 -458l-459 -458l-458 458zM531 179v23q0 25 10 39.5t43 40.5q43 34 64.5 65t21.5 80q0 67 -46 104t-126 37q-42 0 -86 -14t-78 -34l40 -87q33 17 64 28t58 11q31 0 46 -14t15 -37q0 -29 -13 -46t-46 -43q-38 -30 -54 -57.5t-16 -66.5v-29h103zM415 45
q0 -35 20 -50.5t49 -15.5q27 0 47.5 15.5t20.5 50.5q0 37 -20.5 52t-47.5 15q-29 0 -49 -15t-20 -52z" />
    <glyph glyph-name="uni01F0" unicode="&#x1f0;" horiz-adv-x="258" 
d="M22 -240q-26 0 -45 3.5t-32 8.5v71q15 -5 31 -7.5t35 -2.5q32 0 53 17.5t21 66.5v619h88v-616q0 -75 -36 -117.5t-115 -42.5zM83 606q-13 22 -35 49t-46 53t-42 45v13h60q26 -17 54 -41t53 -51q27 27 55 51t54 41h62v-13q-19 -19 -43.5 -45t-47 -53t-34.5 -49h-90z" />
    <glyph glyph-name="uni02BC" unicode="&#x2bc;" horiz-adv-x="175" 
d="M156 714l7 -11q-13 -53 -37.5 -117t-48.5 -117h-65q10 37 19.5 81t17.5 86.5t13 77.5h94z" />
    <glyph glyph-name="uni03D1" unicode="&#x3d1;" horiz-adv-x="623" 
d="M288 765q110 0 171 -77t79 -209h70v-73h-64q1 -11 1.5 -24.5t0.5 -28.5q0 -105 -29.5 -187t-90 -129t-153.5 -47q-71 0 -111.5 25.5t-56.5 66t-16 85.5q0 41 7 79.5t7 63.5q0 22 -8.5 31t-24.5 9q-12 0 -25 -4t-20 -9l-19 62q18 8 42.5 14.5t50.5 6.5q49 0 69 -26t20 -65
q0 -34 -7 -74.5t-7 -85.5q0 -42 23 -75t79 -33q88 0 134.5 73.5t46.5 221.5q0 11 -0.5 25.5t-1.5 24.5q-125 2 -199.5 30t-108 75t-33.5 105q0 63 41.5 106t132.5 43zM285 693q-43 0 -64.5 -22t-21.5 -60q0 -37 24 -66.5t78.5 -47t147.5 -18.5q-13 103 -57 158.5t-107 55.5z
" />
    <glyph glyph-name="uni03D2" unicode="&#x3d2;" horiz-adv-x="572" 
d="M281 357q21 49 44.5 104t46 104t38.5 79q21 38 46 57t65 19q16 0 27 -2t19 -6v-70q-12 3 -29 3q-14 0 -28 -9t-33 -42q-11 -20 -30 -56.5t-41 -82.5t-43.5 -95t-38.5 -95v-265h-91v273l-233 441h98z" />
    <glyph glyph-name="uni03D6" unicode="&#x3d6;" horiz-adv-x="856" 
d="M825 536v-73h-123q26 -59 40.5 -120.5t14.5 -120.5q0 -117 -49.5 -174.5t-142.5 -57.5q-108 0 -142 90h-4q-35 -90 -142 -90q-92 0 -141.5 57.5t-49.5 174.5q0 59 17 121t45 120h-137v38l70 35h744zM616 463h-382q-24 -53 -42 -115t-18 -121q0 -93 29.5 -128.5
t79.5 -35.5q48 0 72 37t24 93v89h85v-89q0 -62 26 -96t70 -34q50 0 79 36t29 128q0 59 -13.5 120t-38.5 116z" />
    <glyph glyph-name="uni1E3E" unicode="&#x1e3e;" horiz-adv-x="907" 
d="M412 0l-235 626h-4q3 -31 5 -83.5t2 -109.5v-433h-83v714h133l220 -585h4l224 585h132v-714h-89v439q0 52 2.5 103t4.5 83h-4l-238 -625h-74zM595 944v-10q-13 -18 -37.5 -46.5t-53 -57t-52.5 -46.5h-58v12q14 18 32 44.5t35 54t28 49.5h106z" />
    <glyph glyph-name="uni1E3F" unicode="&#x1e3f;" horiz-adv-x="935" 
d="M673 546q91 0 136 -47t45 -150v-349h-87v345q0 127 -109 127q-78 0 -111.5 -45t-33.5 -131v-296h-87v345q0 127 -110 127q-81 0 -112 -50t-31 -144v-278h-88v536h71l13 -73h5q25 42 67.5 62.5t90.5 20.5q126 0 164 -90h5q27 46 73 68t99 22zM620 766v-10
q-13 -18 -37.5 -46.5t-53 -57t-52.5 -46.5h-58v12q14 18 32 44.5t35 54t28 49.5h106z" />
    <glyph glyph-name="uni1E00" unicode="&#x1e00;" horiz-adv-x="639" 
d="M545 0l-86 221h-283l-85 -221h-91l279 717h81l278 -717h-93zM432 301l-80 216q-3 8 -10 29t-13.5 43.5t-10.5 34.5q-8 -31 -16.5 -60.5t-14.5 -46.5l-81 -216h226zM319 -273q-49 0 -79 28t-30 78q0 49 30 77.5t79 28.5q47 0 79.5 -28t32.5 -77q0 -51 -32 -79t-80 -28z
M319 -223q25 0 40.5 15t15.5 41q0 27 -16 41.5t-40 14.5q-25 0 -40.5 -14.5t-15.5 -41.5q0 -26 14 -41t42 -15z" />
    <glyph glyph-name="uni1E01" unicode="&#x1e01;" horiz-adv-x="561" 
d="M288 545q98 0 145 -43t47 -137v-365h-64l-17 76h-4q-35 -44 -74 -65t-106 -21q-73 0 -121 38.5t-48 120.5q0 80 63 123.5t194 47.5l91 3v32q0 67 -29 93t-82 26q-42 0 -80 -12.5t-71 -28.5l-27 66q35 19 83 32.5t100 13.5zM393 262l-79 -3q-100 -4 -138.5 -32t-38.5 -79
q0 -45 27.5 -66t70.5 -21q67 0 112.5 37.5t45.5 115.5v48zM264 -273q-49 0 -79 28t-30 78q0 49 30 77.5t79 28.5q47 0 79.5 -28t32.5 -77q0 -51 -32 -79t-80 -28zM264 -223q25 0 40.5 15t15.5 41q0 27 -16 41.5t-40 14.5q-25 0 -40.5 -14.5t-15.5 -41.5q0 -26 14 -41t42 -15
z" />
    <glyph glyph-name="uni02F3" unicode="&#x2f3;" horiz-adv-x="333" 
d="M165 -273q-49 0 -79 28t-30 78q0 49 30 77.5t79 28.5q47 0 79.5 -28t32.5 -77q0 -51 -32 -79t-80 -28zM165 -223q25 0 40.5 15t15.5 41q0 27 -16 41.5t-40 14.5q-25 0 -40.5 -14.5t-15.5 -41.5q0 -26 14 -41t42 -15z" />
    <glyph glyph-name="Ohorn" unicode="&#x1a0;" horiz-adv-x="784" 
d="M719 358q0 -111 -37 -193.5t-110.5 -128.5t-180.5 -46q-112 0 -185 46t-109 129t-36 194q0 109 36 191.5t109.5 128.5t185.5 46q82 0 144 -27.5t103 -76.5q42 11 53 49t11 90h95l7 -11q-11 -59 -39.5 -109t-91.5 -73q45 -85 45 -209zM156 358q0 -135 56.5 -212.5
t178.5 -77.5t177.5 77.5t55.5 212.5q0 134 -55 211t-177 77q-123 0 -179.5 -77t-56.5 -211z" />
    <glyph glyph-name="ohorn" unicode="&#x1a1;" horiz-adv-x="616" 
d="M551 269q0 -133 -67.5 -206t-182.5 -73q-71 0 -126.5 32.5t-87.5 95t-32 151.5q0 133 66.5 205t182.5 72q52 0 97 -18t77 -51q45 13 56 52t11 89h94l7 -11q-14 -69 -42.5 -115.5t-86.5 -67.5q16 -32 25 -70.5t9 -84.5zM146 269q0 -101 37 -153.5t120 -52.5t120 52.5
t37 153.5t-38 152t-120 51t-119 -51t-37 -152z" />
    <glyph glyph-name="Uhorn" unicode="&#x1af;" horiz-adv-x="780" 
d="M640 714v-97q49 7 63.5 45.5t14.5 97.5h93l7 -11q-8 -47 -26.5 -87.5t-54.5 -68t-97 -38.5v-303q0 -74 -28 -133.5t-88 -94t-155 -34.5q-137 0 -208 72.5t-71 191.5v460h90v-464q0 -86 47.5 -134t143.5 -48q65 0 104.5 23.5t57.5 65t18 94.5v463h89z" />
    <glyph glyph-name="uhorn" unicode="&#x1b0;" horiz-adv-x="674" 
d="M701 619l7 -11q-8 -47 -26 -89t-53.5 -70.5t-95.5 -34.5v-414h-72l-13 71h-4q-26 -42 -71.5 -61.5t-96.5 -19.5q-98 0 -147.5 46.5t-49.5 148.5v350h89v-344q0 -128 119 -128q89 0 123.5 50t34.5 144v278h88v-59q48 8 61.5 46.5t13.5 96.5h93z" />
    <glyph glyph-name="hook" 
d="M-192 730q0 -38 -23 -58.5t-58 -28.5l-5 -53h-54l-7 85q36 6 57.5 17.5t21.5 34.5q0 24 -18.5 32t-46.5 8q-13 0 -26.5 -1.5t-21.5 -2.5v52q18 6 55 6q60 0 93 -22.5t33 -68.5z" />
    <glyph glyph-name="uni0400" unicode="&#x400;" horiz-adv-x="556" 
d="M496 0h-399v714h399v-79h-309v-223h291v-78h-291v-255h309v-79zM279 944q11 -22 27.5 -49.5t35 -54t33.5 -44.5v-12h-59q-23 18 -52 46.5t-53.5 57t-36.5 46.5v10h105z" />
    <glyph glyph-name="uni040D" unicode="&#x40d;" horiz-adv-x="768" 
d="M98 714h84v-392q0 -34 -1 -74.5t-3 -75t-3 -49.5h4l393 591h100v-714h-84v388q0 36 1.5 78.5t3.5 77.5t3 50h-4l-394 -594h-100v714zM369 944q11 -22 27.5 -49.5t35 -54t33.5 -44.5v-12h-59q-23 18 -52 46.5t-53.5 57t-36.5 46.5v10h105z" />
    <glyph glyph-name="uni0450" unicode="&#x450;" horiz-adv-x="564" 
d="M292 546q68 0 118 -30t76.5 -84.5t26.5 -127.5v-53h-367q2 -91 46.5 -138.5t124.5 -47.5q51 0 90.5 9.5t81.5 27.5v-77q-41 -18 -81 -26.5t-95 -8.5q-77 0 -135 31t-90.5 92t-32.5 151q0 88 29.5 151t83 97t124.5 34zM291 474q-63 0 -99.5 -40.5t-43.5 -112.5h273
q-1 68 -32 110.5t-98 42.5zM259 766q11 -22 27.5 -49.5t35 -54t33.5 -44.5v-12h-59q-23 18 -52 46.5t-53.5 57t-36.5 46.5v10h105z" />
    <glyph glyph-name="uni045D" unicode="&#x45d;" horiz-adv-x="643" 
d="M168 536v-327q0 -13 -1 -36.5t-2.5 -48t-2.5 -37.5l287 449h108v-536h-82v316q0 16 0.5 42t1.5 51.5t2 38.5l-285 -448h-109v536h83zM304 766q11 -22 27.5 -49.5t35 -54t33.5 -44.5v-12h-59q-23 18 -52 46.5t-53.5 57t-36.5 46.5v10h105z" />
    <glyph glyph-name="uni0460" unicode="&#x460;" horiz-adv-x="919" 
d="M238 -5q-55 95 -101.5 213t-76.5 247t-35 259h93q4 -92 20.5 -180t39.5 -168.5t48.5 -149t49.5 -119.5h5q7 29 18.5 67t26.5 79l97 263q-9 52 -15 106t-8 102h93q3 -84 19 -170.5t40 -168.5t52.5 -154.5t56.5 -128.5h4q60 119 96.5 275.5t38.5 346.5h94
q-4 -205 -53 -389.5t-140 -329.5h-80q-32 52 -63 118.5t-57.5 135t-42.5 127.5l-135 -381h-85z" />
    <glyph glyph-name="uni0461" unicode="&#x461;" horiz-adv-x="789" 
d="M765 537q-7 -146 -52 -278t-131 -259h-82q-30 52 -60 117.5t-49 124.5l-118 -242h-80q-42 67 -81 152.5t-64.5 183t-29.5 201.5h87q5 -95 25.5 -181t48 -157t55.5 -121h3q9 26 23 52.5t27 53.5l74 149q-12 49 -18.5 102t-8.5 102h88q2 -81 19 -162t43 -157t55 -142h4
q54 86 90.5 204.5t44.5 256.5h87z" />
    <glyph glyph-name="uni0462" unicode="&#x462;" horiz-adv-x="675" 
d="M162 0v536h-153v76h153v102h91v-102h202v-76h-202v-124h94q105 0 165.5 -27t85.5 -73t25 -103q0 -95 -61 -152t-200 -57h-200zM253 76h99q94 0 136 33t42 100q0 68 -46 96t-147 28h-84v-257z" />
    <glyph glyph-name="uni0463" unicode="&#x463;" horiz-adv-x="634" 
d="M213 644v-108h169v-73h-169v-148h151q217 0 217 -151q0 -75 -51.5 -119.5t-167.5 -44.5h-236v463h-117v73h117v108h87zM356 242h-143v-171h145q59 0 97.5 20t38.5 68t-35.5 65.5t-102.5 17.5z" />
    <glyph glyph-name="uni0464" unicode="&#x464;" horiz-adv-x="922" 
d="M681 -10q-109 0 -181 42.5t-109 120t-40 180.5h-164v-333h-90v714h90v-302h167q10 94 51.5 163.5t115 109t177.5 39.5q56 0 106 -13t89 -33l-36 -76q-34 16 -73.5 29.5t-88.5 13.5q-107 0 -170 -60t-77 -173h338v-78h-340q4 -126 66.5 -195.5t181.5 -69.5q47 0 89 8
t83 20v-78q-40 -15 -83 -22t-102 -7z" />
    <glyph glyph-name="uni0465" unicode="&#x465;" horiz-adv-x="742" 
d="M562 -10q-70 0 -125.5 26t-89 81t-37.5 142h-137v-239h-88v536h88v-223h138q9 82 43 133.5t88 75.5t121 24q41 0 79 -8.5t65 -20.5l-26 -72q-26 11 -57.5 18t-60.5 7q-77 0 -116 -38.5t-46 -118.5h256v-74h-257q9 -174 162 -174q44 0 76.5 9t61.5 21v-76
q-28 -14 -60 -21.5t-78 -7.5z" />
    <glyph glyph-name="uni0466" unicode="&#x466;" horiz-adv-x="683" 
d="M385 714l298 -714h-95l-136 330h-70v-330h-82v330h-70l-137 -330h-93l298 714h87zM341 626q-4 -16 -11.5 -39t-16.5 -48t-17 -44l-35 -88h161l-39 97q-11 28 -22 58t-20 64z" />
    <glyph glyph-name="uni0467" unicode="&#x467;" horiz-adv-x="572" 
d="M339 536l228 -536h-90l-99 235h-53v-235h-79v235h-55l-97 -235h-90l227 536h108zM287 477h-4q-14 -46 -35 -96l-29 -74h132l-29 73q-24 61 -35 97z" />
    <glyph glyph-name="uni0468" unicode="&#x468;" horiz-adv-x="929" 
d="M632 714l297 -714h-98l-135 333h-68v-333h-81v333h-69l-136 -333h-96l139 333h-198v-333h-90v714h90v-302h231l126 302h88zM587 626q-7 -30 -18 -60t-25 -65l-35 -90h155l-36 96q-12 31 -23 60t-18 59z" />
    <glyph glyph-name="uni0469" unicode="&#x469;" horiz-adv-x="780" 
d="M547 536l227 -536h-89l-100 239h-53v-239h-79v239h-52l-100 -239h-90l101 239h-141v-239h-86v536h86v-224h173l95 224h108zM495 477h-4q-6 -19 -16 -47.5t-21 -55.5l-27 -63h130l-28 71q-11 28 -20 53t-14 42z" />
    <glyph glyph-name="uni046A" unicode="&#x46a;" horiz-adv-x="729" 
d="M652 714v-66l-204 -240q66 -4 104 -27t60 -63.5t39 -96.5l66 -221h-92l-66 219q-14 47 -29.5 73t-43 36.5t-77.5 10.5v-339h-90v339q-50 0 -76.5 -10.5t-41.5 -36.5t-29 -73l-65 -219h-96l66 221q17 55 38.5 95.5t59 64t102.5 27.5l-200 240v66h575zM543 633h-358
l179 -215z" />
    <glyph glyph-name="uni046B" unicode="&#x46b;" horiz-adv-x="640" 
d="M568 536v-51l-162 -173q54 -5 84 -24.5t47 -51.5t32 -72l63 -164h-88l-63 162q-13 34 -26.5 53t-35 27.5t-59.5 8.5v-251h-81v251q-41 0 -62 -8t-34 -27.5t-26 -53.5l-64 -162h-87l63 164q15 40 32 71.5t47 51t84 25.5l-162 173v51h498zM457 464h-276l138 -151z" />
    <glyph glyph-name="uni046C" unicode="&#x46c;" horiz-adv-x="984" 
d="M913 714v-66l-203 -241q66 -4 104 -27t59.5 -63t38.5 -96l67 -221h-89l-67 219q-15 49 -32 75t-44 35t-76 9v-338h-91v338q-50 0 -77 -11t-43 -37t-29 -71l-65 -219h-94l70 225q25 81 55 108h-210v-333h-90v714h90v-302h347l-196 236v66h575zM804 633h-357l179 -216z" />
    <glyph glyph-name="uni046D" unicode="&#x46d;" horiz-adv-x="849" 
d="M779 536v-51l-162 -174q54 -5 84 -24.5t46.5 -51t32.5 -71.5l63 -164h-88l-63 162q-13 33 -26.5 52.5t-35 27.5t-59.5 8v-250h-81v250q-38 0 -60 -8t-35.5 -27t-26.5 -53l-64 -162h-87l63 164q9 24 19 44t21 32h-149v-240h-86v536h86v-223h271l-161 172v51h498zM668 464
h-276l138 -148z" />
    <glyph glyph-name="uni046E" unicode="&#x46e;" horiz-adv-x="587" 
d="M420 853q16 0 29 -2.5t21 -4.5v-57q-6 2 -15.5 4t-18.5 2q-23 0 -49.5 -21t-49.5 -54q88 -12 134 -59t46 -114q0 -73 -48.5 -116t-126.5 -55v-4q90 -12 140 -55t50 -114q0 -94 -65 -149.5t-214 -60.5q-55 -2 -83 -9.5t-38 -20.5t-10 -29q0 -22 17 -36t67 -14q44 0 75 1.5
t59 3t62 1.5q44 0 69 -5.5t39 -13.5v-85q-10 8 -37 16.5t-76 8.5q-32 0 -58 -1.5t-56.5 -2.5t-74.5 -1q-69 0 -107.5 17.5t-54.5 47t-16 64.5q0 60 50.5 94.5t170.5 38.5q98 3 142.5 35.5t44.5 100.5q0 69 -60 98.5t-160 29.5h-102v75h98q105 0 157.5 35.5t52.5 95.5
q0 54 -40 83t-104 29q-61 0 -108 -17t-89 -44l-44 61q37 25 80 43.5t96 25.5q-25 30 -56.5 62.5t-52.5 54.5v13h64q24 -16 54 -42.5t55 -52.5q19 23 40 46t46 38t55 15z" />
    <glyph glyph-name="uni046F" unicode="&#x46f;" horiz-adv-x="490" 
d="M377 664q16 0 28.5 -2.5t20.5 -4.5v-57q-13 5 -33 5q-23 0 -47.5 -19t-46.5 -48q59 -14 93.5 -47.5t34.5 -85.5q0 -49 -28 -77.5t-75 -41.5v-4q32 -9 59.5 -24.5t44.5 -41.5t17 -66q0 -67 -55.5 -111.5t-177.5 -45.5q-52 -1 -77.5 -8t-34 -18.5t-8.5 -26.5
q0 -22 17 -33.5t63 -11.5q53 0 99.5 2.5t83.5 2.5q33 0 52 -5.5t28 -14.5v-74q-11 10 -33 15.5t-45 5.5q-35 0 -87 -2.5t-107 -2.5q-59 0 -92 17.5t-46 44t-13 55.5q0 33 17 60.5t58 45t111 18.5q72 1 116 21t44 70q0 46 -38.5 67.5t-116.5 21.5h-70v72h58q69 0 110.5 18.5
t41.5 63.5q0 38 -31.5 57t-90.5 19q-39 0 -75 -8.5t-76 -25.5l-31 70q31 13 60 21t62 13q-21 26 -48 55.5t-46 48.5v13h64q24 -17 50 -41t54 -51q19 23 40 45t46.5 36.5t55.5 14.5z" />
    <glyph glyph-name="uni0470" unicode="&#x470;" horiz-adv-x="804" 
d="M751 714v-235q0 -51 -14.5 -98t-48.5 -84t-93.5 -58.5t-149.5 -21.5v-217h-88v217q-90 0 -149.5 22t-93 59t-47.5 83.5t-14 96.5v236h90v-234q0 -93 51 -139.5t163 -46.5v420h88v-420q114 0 164 46.5t50 137.5v236h92z" />
    <glyph glyph-name="uni0471" unicode="&#x471;" horiz-adv-x="761" 
d="M426 759v-694q85 7 136.5 58t51.5 157q0 69 -8 127.5t-24 128.5h87q16 -68 23.5 -127.5t7.5 -125.5q0 -103 -37 -165.5t-99 -92t-138 -34.5v-231h-86v231q-76 3 -135 31t-92.5 88t-33.5 160v266h87v-269q0 -75 24 -118t64 -62t86 -23v695h86z" />
    <glyph glyph-name="uni0472" unicode="&#x472;" horiz-adv-x="782" 
d="M720 358q0 -111 -37.5 -193.5t-111 -128.5t-180.5 -46q-111 0 -184.5 46t-109.5 129t-36 194q0 109 36 191.5t109.5 128.5t185.5 46q107 0 180 -45.5t110.5 -128t37.5 -193.5zM392 646q-112 0 -169 -64.5t-66 -178.5h466q-9 114 -64.5 178.5t-166.5 64.5zM391 68
q114 0 170.5 68t62.5 189h-467q6 -121 62.5 -189t171.5 -68z" />
    <glyph glyph-name="uni0473" unicode="&#x473;" horiz-adv-x="605" 
d="M551 269q0 -133 -67.5 -206t-182.5 -73q-71 0 -126.5 32.5t-87.5 95t-32 151.5q0 133 66.5 205t182.5 72q72 0 128 -32.5t87.5 -94t31.5 -150.5zM302 472q-74 0 -111 -40.5t-44 -119.5h312q-7 79 -45.5 119.5t-111.5 40.5zM303 63q77 0 114 45t42 131h-313
q4 -86 42.5 -131t114.5 -45z" />
    <glyph glyph-name="uni0474" unicode="&#x474;" horiz-adv-x="635" 
d="M615 646q-35 0 -53 -32t-40 -102l-162 -512h-103l-257 714h94l163 -457q17 -49 29 -88t21 -77q8 39 20.5 83t27.5 93l80 253q23 71 42.5 115t48 64t76.5 20q18 0 34.5 -3.5t28.5 -6.5v-74q-12 4 -24 7t-26 3z" />
    <glyph glyph-name="uni0475" unicode="&#x475;" horiz-adv-x="516" 
d="M496 541q12 0 22 -2t19 -4v-68q-13 5 -34 5q-23 0 -37 -20t-27 -62l-123 -390h-117l-199 536h92l127 -355q15 -42 25 -73.5t12 -45.5h4q4 21 12 56.5t19 70.5l70 218q17 52 33.5 81t40 41t61.5 12z" />
    <glyph glyph-name="uni0476" unicode="&#x476;" horiz-adv-x="635" 
d="M615 646q-35 0 -53 -32t-40 -102l-162 -512h-103l-257 714h94l163 -457q17 -49 29 -88t21 -77q8 39 20.5 83t27.5 93l80 253q23 71 42.5 115t48 64t76.5 20q18 0 34.5 -3.5t28.5 -6.5v-74q-12 4 -24 7t-26 3zM361 944q16 -34 40.5 -77t45.5 -71v-12h-50q-23 18 -50 46.5
t-50 57t-33 46.5v10h97zM185 944q16 -34 40.5 -77t45.5 -71v-12h-50q-23 18 -50 46.5t-50 57t-33 46.5v10h97z" />
    <glyph glyph-name="uni0477" unicode="&#x477;" horiz-adv-x="516" 
d="M496 541q12 0 22 -2t19 -4v-68q-13 5 -34 5q-23 0 -37 -20t-27 -62l-123 -390h-117l-199 536h92l127 -355q15 -42 25 -73.5t12 -45.5h4q4 21 12 56.5t19 70.5l70 218q17 52 33.5 81t40 41t61.5 12zM308 766q16 -34 40.5 -77t45.5 -71v-12h-50q-23 18 -50 46.5t-50 57
t-33 46.5v10h97zM132 766q16 -34 40.5 -77t45.5 -71v-12h-50q-23 18 -50 46.5t-50 57t-33 46.5v10h97z" />
    <glyph glyph-name="uni0478" unicode="&#x478;" horiz-adv-x="1220" 
d="M669 358q0 -111 -34.5 -193.5t-102 -128.5t-167.5 -46q-103 0 -170.5 46t-100.5 129t-33 194q0 109 33 191.5t100.5 128.5t171.5 46q100 0 167 -45.5t101.5 -128t34.5 -193.5zM155 358q0 -135 50.5 -212.5t159.5 -77.5q110 0 159.5 77.5t49.5 212.5t-49 211.5t-159 76.5
t-160.5 -76.5t-50.5 -211.5zM708 536h93l119 -307q15 -39 26.5 -75t18.5 -70h4q5 25 18.5 65.5t27.5 80.5l107 306h93l-229 -610q-28 -76 -73 -121t-122 -45q-25 0 -43 2.5t-31 5.5v70q11 -2 26.5 -4t32.5 -2q46 0 74.5 26t45.5 69l28 71z" />
    <glyph glyph-name="uni0479" unicode="&#x479;" horiz-adv-x="1095" 
d="M551 269q0 -133 -67.5 -206t-182.5 -73q-71 0 -126.5 32.5t-87.5 95t-32 151.5q0 133 66.5 205t182.5 72q72 0 128 -32.5t87.5 -94t31.5 -150.5zM146 269q0 -95 37.5 -150.5t119.5 -55.5q81 0 119 55.5t38 150.5t-38 149t-120 54t-119 -54t-37 -149zM586 536h94l116 -305
q15 -41 27 -77t18 -69h4q6 25 19 65.5t27 81.5l109 304h95l-231 -610q-29 -76 -73 -121t-122 -45q-24 0 -42 2.5t-31 5.5v70q11 -2 26.5 -4t32.5 -2q46 0 74 26t45 69l28 71z" />
    <glyph glyph-name="uni047A" unicode="&#x47a;" horiz-adv-x="821" 
d="M411 -59q-28 0 -46.5 12.5t-23.5 41.5q-91 14 -153.5 63t-94.5 126t-32 175q0 146 71.5 242.5t208.5 117.5q5 29 23.5 41t46.5 12q27 0 45 -12t25 -41q87 -14 149.5 -62.5t96 -124.5t33.5 -174t-33 -174.5t-95 -125t-150 -63.5q-7 -29 -25.5 -41.5t-45.5 -12.5zM341 75
q8 23 26 32.5t44 9.5q24 0 42 -9.5t27 -32.5q92 20 138.5 93.5t46.5 189.5q0 115 -46.5 188.5t-138.5 92.5q-8 -23 -26 -33t-43 -10q-26 0 -44 10t-26 32q-91 -20 -138.5 -92.5t-47.5 -187.5q0 -116 47.5 -189.5t138.5 -93.5z" />
    <glyph glyph-name="uni047B" unicode="&#x47b;" horiz-adv-x="659" 
d="M604 269q0 -116 -56 -186.5t-155 -87.5q-8 -48 -63 -48q-28 0 -43 11t-20 38q-95 16 -153.5 86t-58.5 187q0 115 56.5 185t156.5 87q4 26 19 36.5t43 10.5q26 0 42 -10.5t21 -37.5q95 -17 153 -87t58 -184zM513 269q0 81 -29.5 131t-91.5 66q-7 -20 -21.5 -28.5
t-40.5 -8.5t-41 8.5t-21 29.5q-64 -15 -93 -65t-29 -133t29 -134t94 -66q6 20 20.5 28.5t40.5 8.5q50 0 62 -36q63 15 92 65.5t29 133.5z" />
    <glyph glyph-name="uni047C" unicode="&#x47c;" horiz-adv-x="1026" 
d="M336 911v15q0 53 30.5 80t83.5 27q38 0 74.5 -14.5t77.5 -29t92 -14.5h6v-62h-8q-56 0 -100 13.5t-78 27.5t-62 14q-52 0 -52 -57h-64zM441 752v36q59 19 59 46q0 13 -12 17.5t-24.5 11t-12.5 24.5q0 19 13 28.5t35 9.5q28 0 44.5 -17.5t16.5 -45.5q0 -39 -30 -67.5
t-89 -42.5zM339 -10q-93 0 -155 47.5t-92.5 132t-30.5 195.5q0 109 31 189.5t89 125t138 44.5q38 0 75.5 -12t67.5 -33l-34 -67q-22 16 -48 26.5t-55 10.5q-82 0 -127 -76.5t-45 -208.5q0 -135 51 -214.5t152 -79.5q31 0 58.5 12t52.5 31v215h90v-215q25 -20 53.5 -31.5
t60.5 -11.5q101 0 152 79.5t51 214.5q0 132 -45.5 208.5t-127.5 76.5q-29 0 -55 -10.5t-48 -26.5l-34 67q30 21 67.5 33t75.5 12q80 0 138 -44.5t89 -125t31 -189.5q0 -111 -30.5 -195.5t-92.5 -132t-154 -47.5q-104 0 -175 62q-71 -62 -174 -62z" />
    <glyph glyph-name="uni047D" unicode="&#x47d;" horiz-adv-x="904" 
d="M390 881q38 0 74.5 -14.5t77 -28.5t91.5 -14h7v-63h-8q-57 0 -101 14t-77.5 28t-61.5 14q-52 0 -52 -57h-64v15q0 53 30 79.5t84 26.5zM439 774q28 0 44.5 -17t16.5 -46q0 -40 -30.5 -68.5t-88.5 -41.5v35q58 20 58 48q0 13 -12 17.5t-24 10.5t-12 24q0 38 48 38z
M288 -10q-107 0 -168.5 71.5t-61.5 203.5q0 136 57 209t157 73q34 0 62 -8.5t53 -22.5l-30 -67q-24 11 -44.5 17.5t-40.5 6.5q-61 0 -92 -53t-31 -154q0 -94 38.5 -148t106.5 -54q34 0 60 12t54 41v157h88v-156q28 -29 55 -41.5t61 -12.5q68 0 105.5 54t37.5 148
q0 101 -31.5 154t-92.5 53q-19 0 -40 -6.5t-44 -17.5l-31 67q25 14 53.5 22.5t62.5 8.5q100 0 157 -73t57 -209q0 -132 -62 -203.5t-168 -71.5q-56 0 -96.5 20t-67.5 54q-28 -34 -68 -54t-96 -20z" />
    <glyph glyph-name="uni047E" unicode="&#x47e;" horiz-adv-x="919" 
d="M238 -5q-55 95 -101.5 213t-76.5 247t-35 259h93q4 -92 20.5 -180t39.5 -168.5t48.5 -149t49.5 -119.5h5q7 29 18.5 67t26.5 79l97 263q-9 52 -15 106t-8 102h93q3 -84 19 -170.5t40 -168.5t52.5 -154.5t56.5 -128.5h4q60 119 96.5 275.5t38.5 346.5h94
q-4 -205 -53 -389.5t-140 -329.5h-80q-32 52 -63 118.5t-57.5 135t-42.5 127.5l-135 -381h-85zM667 883v-16l-40 -84h-16l-24 50h-91l-24 -50h-16l-24 50h-90l-24 -50h-16l-39 84v16h404z" />
    <glyph glyph-name="uni047F" unicode="&#x47f;" horiz-adv-x="789" 
d="M765 537q-7 -146 -52 -278t-131 -259h-82q-30 52 -60 117.5t-49 124.5l-118 -242h-80q-42 67 -81 152.5t-64.5 183t-29.5 201.5h87q5 -95 25.5 -181t48 -157t55.5 -121h3q9 26 23 52.5t27 53.5l74 149q-12 49 -18.5 102t-8.5 102h88q2 -81 19 -162t43 -157t55 -142h4
q54 86 90.5 204.5t44.5 256.5h87zM589 706v-16l-40 -84h-16l-24 50h-91l-24 -50h-16l-24 50h-90l-24 -50h-16l-39 84v16h404z" />
    <glyph glyph-name="uni0480" unicode="&#x480;" horiz-adv-x="643" 
d="M412 724q56 0 108.5 -11t93.5 -31l-37 -77q-34 16 -75.5 27.5t-91.5 11.5q-118 0 -186 -77t-68 -211q0 -131 59 -208t192 -77q25 0 47 2.5t42 9.5v-323h-90v230q-124 0 -200 47.5t-111 130t-35 189.5q0 108 41.5 190.5t120 129.5t190.5 47z" />
    <glyph glyph-name="uni0481" unicode="&#x481;" horiz-adv-x="492" 
d="M313 546q40 0 79.5 -8.5t65.5 -20.5l-26 -73q-26 9 -59.5 17t-62.5 8q-83 0 -123.5 -49t-40.5 -154t41 -153t121 -48q32 0 54 6t42 15v-326h-88v230q-127 0 -194 66t-67 209q0 100 33.5 162t92 90.5t132.5 28.5z" />
    <glyph glyph-name="uni0482" unicode="&#x482;" horiz-adv-x="609" 
d="M447 628l59 -34l-90 -155l141 -81l-34 -57l-139 81l-100 -172l140 -82l-33 -57l-140 81l-89 -154l-60 33l89 156l-140 81l33 57l141 -82l99 173l-141 81l34 58l140 -82z" />
    <glyph glyph-name="uni0488" unicode="&#x488;" horiz-adv-x="989" 
d="M387 601q2 43 27 69t75 26q48 0 74.5 -26.5t29.5 -68.5h-39q-3 28 -21.5 35.5t-43.5 7.5q-30 0 -46 -7t-19 -36h-37zM670 462q2 44 27 69.5t75 25.5q48 0 74.5 -26.5t29.5 -68.5h-39q-3 28 -21.5 35.5t-43.5 7.5q-30 0 -46 -7t-19 -36h-37zM107 462q2 44 27 69.5t75 25.5
q48 0 74.5 -26.5t29.5 -68.5h-39q-3 28 -21.5 35.5t-43.5 7.5q-30 0 -46 -7t-19 -36h-37zM20 224q2 44 27 69.5t75 25.5q48 0 74.5 -26.5t29.5 -68.5h-39q-3 28 -21.5 35.5t-43.5 7.5q-30 0 -46 -7t-19 -36h-37zM763 224q2 44 27 69.5t75 25.5q48 0 74.5 -26.5t29.5 -68.5
h-39q-3 28 -21.5 35.5t-43.5 7.5q-30 0 -46 -7t-19 -36h-37zM107 -20q2 44 27 69.5t75 25.5q48 0 74.5 -26.5t29.5 -68.5h-39q-3 28 -21.5 35.5t-43.5 7.5q-30 0 -46 -7t-19 -36h-37zM670 -20q2 44 27 69.5t75 25.5q48 0 74.5 -26.5t29.5 -68.5h-39q-3 28 -21.5 35.5
t-43.5 7.5q-30 0 -46 -7t-19 -36h-37zM387 -156q2 44 27 69.5t75 25.5q48 0 74.5 -26.5t29.5 -68.5h-39q-3 28 -21.5 35.5t-43.5 7.5q-30 0 -46 -7t-19 -36h-37z" />
    <glyph glyph-name="uni0489" unicode="&#x489;" horiz-adv-x="956" 
d="M532 728q-10 -41 -19.5 -88t-14.5 -83h-68l-5 7q10 38 26.5 82t33.5 82h47zM191 621q23 -36 49 -76t48 -69l-48 -48l-8 1q-20 34 -39.5 76.5t-34.5 81.5zM806 579l34 -33q-36 -22 -76 -48.5t-69 -48.5l-48 48l1 8q34 19 76.5 39t81.5 35zM20 323q41 -10 88 -19.5
t83 -14.5v-68l-7 -5q-38 10 -82 26.5t-82 33.5v47zM772 323q38 -10 82 -26.5t82 -33.5v-47q-41 10 -88 19.5t-83 14.5v68zM715 90l8 -1q19 -34 39 -76.5t35 -81.5l-33 -34q-22 36 -48.5 76t-48.5 69zM261 70l48 -48l-1 -8q-34 -20 -76.5 -39.5t-81.5 -34.5l-34 33
q36 23 76 49t69 48zM527 -17l5 -7q-10 -38 -26.5 -82t-33.5 -82h-47q10 41 19.5 88t14.5 83h68z" />
    <glyph glyph-name="uni048A" unicode="&#x48a;" horiz-adv-x="785" 
d="M383 771q-98 0 -138 37.5t-45 114.5h81q5 -54 28 -72.5t76 -18.5q45 0 72 19.5t32 71.5h83q-6 -75 -50 -113.5t-139 -38.5zM593 -188l77 188h-83v388q0 29 1.5 67t3.5 75.5t4 62.5h-4l-395 -593h-100v714h84v-393q0 -33 -1.5 -71.5t-3 -72.5t-2.5 -55h4l393 592h99v-635
h98l-72 -267h-103z" />
    <glyph glyph-name="uni048B" unicode="&#x48b;" horiz-adv-x="659" 
d="M329 606q-98 0 -138 38t-45 114h81q5 -54 28 -72.5t76 -18.5q45 0 72 19.5t32 71.5h83q-6 -75 -50 -113.5t-139 -38.5zM496 -185l61 185h-82v317q0 20 0.5 45t1.5 48.5t2 38.5l-286 -449h-108v536h83v-312q0 -32 -2 -69.5t-4 -67.5l287 449h108v-462h92l-63 -259h-90z
" />
    <glyph glyph-name="uni048C" unicode="&#x48c;" horiz-adv-x="615" 
d="M187 714v-90h164v-78h-164v-134h90q108 0 171 -26.5t89.5 -72.5t26.5 -104q0 -98 -65 -153.5t-205 -55.5h-197v546h-74v78h74v90h90zM285 333h-98v-257h102q181 0 181 133q0 68 -48 96t-137 28z" />
    <glyph glyph-name="uni048D" unicode="&#x48d;" horiz-adv-x="594" 
d="M173 760v-119h148v-67h-148v-258h150q111 0 164.5 -38.5t53.5 -113.5t-52 -119.5t-168 -44.5h-236v574h-76v67h76v119h88zM315 242h-142v-171h144q60 0 98 20t38 68t-35.5 65.5t-102.5 17.5z" />
    <glyph glyph-name="uni048E" unicode="&#x48e;" horiz-adv-x="613" 
d="M561 504q0 -57 -25 -107t-82 -81l57 -75l-51 -43l-71 93q-48 -13 -115 -13h-87v-278h-90v714h196q139 0 203.5 -55t64.5 -155zM187 355h79q21 0 39 1t35 3l-50 66l55 42l65 -83q28 16 43 44.5t15 71.5q0 137 -186 137h-95v-282z" />
    <glyph glyph-name="uni048F" unicode="&#x48f;" horiz-adv-x="615" 
d="M339 -10q-62 0 -102.5 23t-63.5 55h-6l1.5 -17t3 -38t1.5 -33v-220h-88v776h72l13 -73h4q24 35 63 59t103 24q99 0 159.5 -69t60.5 -208q0 -84 -23 -142.5t-64 -92.5l55 -75l-52 -41l-63 84q-33 -12 -74 -12zM324 472q-82 0 -116 -46t-35 -140v-17q0 -99 32.5 -152.5
t120.5 -53.5q22 0 40 6l-58 75l55 41l61 -79q23 26 34 67t11 97q0 101 -35.5 151.5t-109.5 50.5z" />
    <glyph glyph-name="uni0492" unicode="&#x492;" horiz-adv-x="530" 
d="M507 714v-80h-320v-242h206v-78h-206v-314h-90v314h-74v78h74v322h410z" />
    <glyph glyph-name="uni0493" unicode="&#x493;" horiz-adv-x="434" 
d="M413 536v-74h-241v-161h168v-68h-168v-233h-88v233h-76v68h76v235h329z" />
    <glyph glyph-name="uni0494" unicode="&#x494;" horiz-adv-x="651" 
d="M277 314q-20 0 -47.5 -2.5t-42.5 -4.5v-307h-90v714h415v-80h-325v-250q19 3 48.5 6t56.5 3q160 0 241.5 -86t81.5 -234q0 -109 -34 -181t-94.5 -107t-137.5 -35q-46 0 -77.5 6t-60.5 18v80q31 -12 62 -18t65 -6q90 0 136.5 61.5t46.5 181.5q0 119 -64 180t-180 61z" />
    <glyph glyph-name="uni0495" unicode="&#x495;" horiz-adv-x="533" 
d="M418 536v-74h-245v-157l34 4t35 2q127 0 194.5 -67.5t67.5 -214.5q0 -97 -29 -157.5t-78 -88.5t-109 -28q-38 0 -66.5 7.5t-53.5 21.5v78q22 -13 51 -21.5t64 -8.5q63 0 96.5 48t33.5 150q0 105 -42.5 154.5t-130.5 49.5q-16 0 -33 -1.5t-34 -5.5v-227h-88v536h333z" />
    <glyph glyph-name="uni0496" unicode="&#x496;" horiz-adv-x="904" 
d="M843 714l-277 -346l224 -288h95v-268h-86v188h-50l-279 362v-362h-86v362l-280 -362h-103l287 367l-277 347h100l273 -346v346h86v-346l273 346h100z" />
    <glyph glyph-name="uni0497" unicode="&#x497;" horiz-adv-x="796" 
d="M728 536l-221 -260l175 -203h98v-258h-85v185h-48l-232 272v-272h-82v272l-232 -272h-100l240 276l-221 260h96l217 -260v260h82v-260l218 260h95z" />
    <glyph glyph-name="uni0498" unicode="&#x498;" horiz-adv-x="588" 
d="M519 547q0 -73 -46 -115.5t-123 -54.5v-4q90 -12 137 -56.5t47 -114.5q0 -94 -72 -153t-216 -59q-58 0 -110.5 8.5t-97.5 30.5v82q46 -23 102 -35t105 -12q96 0 145.5 36t49.5 102q0 68 -58 99t-162 31h-102v75h97q106 0 158.5 35.5t52.5 95.5q0 54 -40 83t-104 29
q-68 0 -112 -17t-86 -44l-43 61q42 31 103.5 52.5t138.5 21.5q115 0 175.5 -50t60.5 -127zM279 -116q0 27 -17.5 55.5t-50.5 60.5h62q26 -20 52 -50.5t26 -73.5q0 -44 -25.5 -70t-74.5 -26q-31 0 -58 8v56q17 -5 43 -5q18 0 30.5 11.5t12.5 33.5z" />
    <glyph glyph-name="uni0499" unicode="&#x499;" horiz-adv-x="490" 
d="M226 546q92 0 146.5 -37t54.5 -104q0 -49 -27.5 -77.5t-73.5 -41.5v-4q32 -9 59 -25t43.5 -42.5t16.5 -66.5q0 -67 -55.5 -112.5t-173.5 -45.5q-58 0 -105 9t-78 26v79q34 -16 80.5 -29t101.5 -13q60 0 101.5 20.5t41.5 70.5q0 90 -153 90h-72v72h58q69 0 110.5 18.5
t41.5 63.5q0 38 -31.5 57t-90.5 19q-44 0 -77.5 -8.5t-73.5 -25.5l-31 70q84 37 187 37zM239 -116q0 27 -17.5 55.5t-50.5 60.5h62q26 -20 52 -50.5t26 -73.5q0 -44 -25.5 -70t-74.5 -26q-31 0 -58 8v56q17 -5 43 -5q18 0 30.5 11.5t12.5 33.5z" />
    <glyph glyph-name="uni049A" unicode="&#x49a;" horiz-adv-x="670" 
d="M604 714l-310 -347l253 -287h108v-268h-86v188h-59l-323 362v-362h-90v714h90v-346l315 346h102z" />
    <glyph glyph-name="uni049B" unicode="&#x49b;" horiz-adv-x="557" 
d="M458 -186v186h-43l-242 272v-272h-88v536h88v-260l229 260h96l-229 -258l183 -204h90v-260h-84z" />
    <glyph glyph-name="uni049C" unicode="&#x49c;" horiz-adv-x="618" 
d="M309 140h-61v154l-61 68v-362h-90v714h90v-346l61 67v165h61v-98l193 212h102l-295 -330v-34l309 -350h-108l-201 225v-85z" />
    <glyph glyph-name="uni049D" unicode="&#x49d;" horiz-adv-x="529" 
d="M293 495v-83l109 124h96l-205 -231v-54l224 -251h-102l-122 137v-92h-64v164l-56 63v-272h-88v536h88v-260l56 64v155h64z" />
    <glyph glyph-name="uni049E" unicode="&#x49e;" horiz-adv-x="618" 
d="M13 550v79h84v85h90v-85h94v-79h-94v-182l315 346h102l-310 -347l324 -367h-108l-323 362v-362h-90v550h-84z" />
    <glyph glyph-name="uni049F" unicode="&#x49f;" horiz-adv-x="534" 
d="M173 760v-90h182v-65h-182v-329l229 260h96l-229 -258l248 -278h-102l-242 272v-272h-88v605h-76v65h76v90h88z" />
    <glyph glyph-name="uni04A0" unicode="&#x4a0;" horiz-adv-x="693" 
d="M678 714l-310 -347l324 -367h-108l-323 362v-362h-90v634h-164v80h254v-346l315 346h102z" />
    <glyph glyph-name="uni04A1" unicode="&#x4a1;" horiz-adv-x="623" 
d="M600 536l-229 -259l248 -277h-101l-243 272v-272h-86v464h-171v72h257v-260l230 260h95z" />
    </font>
</defs>
</svg>
