<?xml version="1.0" standalone="no"?>
  <!DOCTYPE svg PUBLIC "-//W3C//DTD SVG 1.1//EN" "http://www.w3.org/Graphics/SVG/1.1/DTD/svg11.dtd" >
  <svg>
  <metadata>
  Created by font-carrier
  </metadata>
  <defs>
  <font id="NotoSans-Regular" horiz-adv-x="2840" vert-adv-y="2840" >
    <font-face
      
      font-family="Noto Sans"
      
      font-weight="400"
      
      font-stretch="normal"
      
      units-per-em="1000"
      
      ascent="1069"
      
      descent="-293"
      
    />
      <missing-glyph />

      

      
      <glyph glyph-name="uni21" unicode="&#x21;" d="M163 201L106 201L81 714L188 714L163 201M72 54Q72 91 90 106Q108 121 134 121Q159 121 177.50 106Q196 91 196 54Q196 18 177.50 2Q159-14 134-14Q108-14 90 2Q72 18 72 54Z"  horiz-adv-x="269" vert-adv-y="1000"  />

      
      <glyph glyph-name="uni22" unicode="&#x22;" d="M160 714L140 456L85 456L65 714L160 714M343 714L323 456L268 456L248 714L343 714Z"  horiz-adv-x="408" vert-adv-y="1000"  />

      
      <glyph glyph-name="uni23" unicode="&#x23;" d="M480 436L449 276L586 276L586 209L436 209L395 0L324 0L365 209L222 209L183 0L113 0L151 209L25 209L25 276L164 276L196 436L62 436L62 502L208 502L248 714L320 714L280 502L424 502L464 714L533 714L493 502L620 502L620 436L480 436M235 276L378 276L409 436L266 436L235 276Z"  horiz-adv-x="646" vert-adv-y="1000"  />

      
      <glyph glyph-name="uni24" unicode="&#x24;" d="M253-58L253 49Q198 50 146 58.50Q94 67 62 82L62 167Q96 151 149 139Q202 127 253 126L253 328Q154 355 108 396Q62 437 62 508Q62 582 113.50 624Q165 666 253 671L253 759L317 759L317 672Q370 670 413.50 660Q457 650 493 635L466 561Q434 574 395.50 583.50Q357 593 317 596L317 395Q383 376 427 354.50Q471 333 493.50 301.50Q516 270 516 220Q516 150 464 106.50Q412 63 317 53L317-58L253-58M253 417L253 594Q199 590 173.50 569Q148 548 148 515Q148 475 170.50 453.50Q193 432 253 417M317 131Q376 137 403 158.50Q430 180 430 214Q430 252 406 271Q382 290 317 307L317 131Z"  horiz-adv-x="572" vert-adv-y="1000"  />

      
      <glyph glyph-name="uni25" unicode="&#x25;" d="M195 724Q268 724 306.50 665.50Q345 607 345 501Q345 395 308.50 335.50Q272 276 195 276Q124 276 86.50 335.50Q49 395 49 501Q49 607 84 665.50Q119 724 195 724M652 714L256 0L179 0L575 714L652 714M195 662Q157 662 139.50 621.50Q122 581 122 501Q122 421 139.50 380Q157 339 195 339Q272 339 272 501Q272 662 195 662M632 438Q705 438 743.50 379.50Q782 321 782 215Q782 109 745.50 49.50Q709-10 632-10Q561-10 523.50 49.50Q486 109 486 215Q486 321 521 379.50Q556 438 632 438M632 375Q594 375 576.50 335Q559 295 559 215Q559 134 576.50 93.50Q594 53 632 53Q709 53 709 215Q709 375 632 375Z"  horiz-adv-x="831" vert-adv-y="1000"  />

      
      <glyph glyph-name="uni26" unicode="&#x26;" d="M304 725Q384 725 430.50 684.50Q477 644 477 571Q477 508 436.50 464Q396 420 334 384L527 198Q553 229 569.50 269.50Q586 310 597 357L686 357Q670 292 646 237.50Q622 183 584 142L730 0L611 0L524 84Q477 42 419 16Q361-10 278-10Q174-10 113.50 41Q53 92 53 186Q53 262 94.50 309Q136 356 207 396Q175 432 147.50 473Q120 514 120 569Q120 642 169 683.50Q218 725 304 725M301 653Q259 653 232.50 631Q206 609 206 570Q206 534 225 503.50Q244 473 280 436Q339 470 364.50 500Q390 530 390 571Q390 607 366 630Q342 653 301 653M260 341Q206 309 175.50 276Q145 243 145 189Q145 134 182 101Q219 68 281 68Q345 68 390.50 89Q436 110 468 139L260 341Z"  horiz-adv-x="732" vert-adv-y="1000"  />

      
      <glyph glyph-name="uni27" unicode="&#x27;" d="M160 714L140 456L85 456L65 714L160 714Z"  horiz-adv-x="225" vert-adv-y="1000"  />

      
      <glyph glyph-name="uni28" unicode="&#x28;" d="M40 274Q40 396 75.50 509.50Q111 623 187 714L270 714Q200 620 164.50 507Q129 394 129 275Q129 159 164.50 47.50Q200-64 269-158L187-158Q111-70 75.50 41.50Q40 153 40 274Z"  horiz-adv-x="300" vert-adv-y="1000"  />

      
      <glyph glyph-name="uni29" unicode="&#x29;" d="M260 274Q260 153 224.50 41.50Q189-70 113-158L31-158Q100-64 135.50 47.50Q171 159 171 275Q171 394 135.50 507Q100 620 30 714L113 714Q189 623 224.50 509.50Q260 396 260 274Z"  horiz-adv-x="300" vert-adv-y="1000"  />

      
      <glyph glyph-name="uni2a" unicode="&#x2a;" d="M322 760L302 568L494 622L508 530L324 515L443 357L357 310L272 485L195 310L106 357L223 515L41 530L55 622L245 568L224 760L322 760Z"  horiz-adv-x="551" vert-adv-y="1000"  />

      
      <glyph glyph-name="uni2b" unicode="&#x2b;" d="M321 388L520 388L520 317L321 317L321 111L249 111L249 317L50 317L50 388L249 388L249 595L321 595L321 388Z"  horiz-adv-x="572" vert-adv-y="1000"  />

      
      <glyph glyph-name="uni2c" unicode="&#x2c;" d="M185 116L192 105Q178 52 154-11.50Q130-75 106-129L41-129Q55-72 69.50-4Q84 64 91 116L185 116Z"  horiz-adv-x="268" vert-adv-y="1000"  />

      
      <glyph glyph-name="uni2d" unicode="&#x2d;" d="M40 229L40 307L282 307L282 229L40 229Z"  horiz-adv-x="322" vert-adv-y="1000"  />

      
      <glyph glyph-name="uni2e" unicode="&#x2e;" d="M72 54Q72 91 90 106Q108 121 133 121Q158 121 177 106Q196 91 196 54Q196 18 177 2Q158-14 133-14Q108-14 90 2Q72 18 72 54Z"  horiz-adv-x="268" vert-adv-y="1000"  />

      
      <glyph glyph-name="uni2f" unicode="&#x2f;" d="M362 714L96 0L10 0L276 714L362 714Z"  horiz-adv-x="372" vert-adv-y="1000"  />

      
      <glyph glyph-name="uni30" unicode="&#x30;" d="M523 358Q523 242 499 160Q475 78 422.50 34Q370-10 285-10Q164-10 106.50 87.50Q49 185 49 358Q49 474 72.50 556Q96 638 148 681.50Q200 725 285 725Q405 725 464 628.50Q523 532 523 358M137 358Q137 211 170.50 138Q204 65 285 65Q365 65 399.50 137.50Q434 210 434 358Q434 504 399.50 577Q365 650 285 650Q204 650 170.50 577Q137 504 137 358Z"  horiz-adv-x="572" vert-adv-y="1000"  />

      
      <glyph glyph-name="uni31" unicode="&#x31;" d="M355 0L269 0L269 499Q269 542 270 568Q271 594 273 622Q257 606 243.50 595Q230 584 211 567L135 505L89 564L282 714L355 714L355 0Z"  horiz-adv-x="572" vert-adv-y="1000"  />

      
      <glyph glyph-name="uni32" unicode="&#x32;" d="M520 0L48 0L48 73L235 262Q288 316 325.50 358Q363 400 382 440Q401 480 401 529Q401 588 366 618.50Q331 649 275 649Q222 649 183 631Q144 613 103 581L56 640Q98 675 152.50 699.50Q207 724 275 724Q375 724 433 673Q491 622 491 534Q491 478 468 429Q445 380 404 332Q363 284 308 231L159 84L159 80L520 80L520 0Z"  horiz-adv-x="572" vert-adv-y="1000"  />

      
      <glyph glyph-name="uni33" unicode="&#x33;" d="M493 547Q493 475 452.50 432.50Q412 390 345 376L345 372Q430 362 472.50 318Q515 274 515 203Q515 140 486 92Q457 44 396.50 17Q336-10 241-10Q185-10 137-1.50Q89 7 45 29L45 111Q90 88 142 76Q194 64 242 64Q338 64 380.50 101.50Q423 139 423 205Q423 272 370.50 301.50Q318 331 223 331L154 331L154 406L224 406Q312 406 357.50 443Q403 480 403 541Q403 593 368 621.50Q333 650 273 650Q215 650 174 633Q133 616 93 590L49 650Q87 680 143.50 702Q200 724 272 724Q384 724 438.50 674Q493 624 493 547Z"  horiz-adv-x="572" vert-adv-y="1000"  />

      
      <glyph glyph-name="uni34" unicode="&#x34;" d="M552 162L448 162L448 0L363 0L363 162L21 162L21 237L357 718L448 718L448 241L552 241L552 162M363 241L363 466Q363 518 364.50 554.50Q366 591 368 624L364 624Q356 605 344 583Q332 561 321 546L107 241L363 241Z"  horiz-adv-x="572" vert-adv-y="1000"  />

      
      <glyph glyph-name="uni35" unicode="&#x35;" d="M275 438Q384 438 449.50 383Q515 328 515 228Q515 117 444.50 53.50Q374-10 248-10Q192-10 144 0Q96 10 63 29L63 112Q99 90 150.50 77.50Q202 65 249 65Q328 65 376.50 102.50Q425 140 425 219Q425 289 382 326.50Q339 364 246 364Q218 364 182 359Q146 354 124 349L80 377L107 714L465 714L465 634L182 634L165 427Q182 430 211 434Q240 438 275 438Z"  horiz-adv-x="572" vert-adv-y="1000"  />

      
      <glyph glyph-name="uni36" unicode="&#x36;" d="M55 305Q55 382 68.50 456.50Q82 531 117.50 591.50Q153 652 217 688Q281 724 382 724Q403 724 428.50 722Q454 720 470 715L470 640Q452 646 429 649Q406 652 384 652Q315 652 269 629Q223 606 196.50 566Q170 526 158 474Q146 422 143 363L149 363Q172 398 213 422.50Q254 447 318 447Q411 447 468 390.50Q525 334 525 230Q525 118 463.50 54Q402-10 298-10Q230-10 175 24Q120 58 87.50 128Q55 198 55 305M297 64Q360 64 399 104.50Q438 145 438 230Q438 298 403.50 338Q369 378 300 378Q253 378 218 358.50Q183 339 163.50 308.50Q144 278 144 247Q144 204 161 161.50Q178 119 212 91.50Q246 64 297 64Z"  horiz-adv-x="572" vert-adv-y="1000"  />

      
      <glyph glyph-name="uni37" unicode="&#x37;" d="M136 0L429 634L44 634L44 714L523 714L523 646L233 0L136 0Z"  horiz-adv-x="572" vert-adv-y="1000"  />

      
      <glyph glyph-name="uni38" unicode="&#x38;" d="M285 724Q379 724 439 680Q499 636 499 553Q499 510 480.50 478Q462 446 431 421.50Q400 397 363 378Q407 356 443 330Q479 304 500.50 269Q522 234 522 185Q522 95 458 42.50Q394-10 288-10Q172-10 110.50 40.50Q49 91 49 182Q49 230 69.50 266.50Q90 303 124 329Q158 355 197 373Q144 403 108 445.50Q72 488 72 554Q72 608 100 646Q128 684 176 704Q224 724 285 724M284 653Q228 653 193 626.50Q158 600 158 550Q158 513 175.50 488Q193 463 223 445.50Q253 428 289 412Q341 434 376.50 465Q412 496 412 550Q412 600 377 626.50Q342 653 284 653M135 181Q135 129 172 94.50Q209 60 286 60Q359 60 397.50 94.50Q436 129 436 184Q436 236 395 270.50Q354 305 286 331L270 337Q204 308 169.50 272Q135 236 135 181Z"  horiz-adv-x="572" vert-adv-y="1000"  />

      
      <glyph glyph-name="uni39" unicode="&#x39;" d="M520 409Q520 332 506.50 257.50Q493 183 457.50 122.50Q422 62 357.50 26Q293-10 192-10Q172-10 145-7.50Q118-5 102 0L102 75Q141 62 190 62Q260 62 305.50 85Q351 108 378 147.50Q405 187 417 239.50Q429 292 431 350L425 350Q402 316 361 291.50Q320 267 255 267Q163 267 106.50 323.50Q50 380 50 483Q50 558 78 612Q106 666 157.50 695Q209 724 278 724Q346 724 401 689.50Q456 655 488 585.50Q520 516 520 409M278 650Q216 650 176.50 609Q137 568 137 484Q137 415 170.50 375.50Q204 336 274 336Q322 336 357 355.50Q392 375 411.50 405Q431 435 431 467Q431 510 414 552Q397 594 363 622Q329 650 278 650Z"  horiz-adv-x="572" vert-adv-y="1000"  />

      
      <glyph glyph-name="uni3a" unicode="&#x3a;" d="M72 482Q72 520 90 535Q108 550 133 550Q158 550 177 535Q196 520 196 482Q196 446 177 430Q158 414 133 414Q108 414 90 430Q72 446 72 482M72 54Q72 91 90 106Q108 121 133 121Q158 121 177 106Q196 91 196 54Q196 18 177 2Q158-14 133-14Q108-14 90 2Q72 18 72 54Z"  horiz-adv-x="268" vert-adv-y="1000"  />

      
      <glyph glyph-name="uni3b" unicode="&#x3b;" d="M70 482Q70 520 88 535Q106 550 131 550Q157 550 175.50 535Q194 520 194 482Q194 446 175.50 430Q157 414 131 414Q106 414 88 430Q70 446 70 482M176 116L183 105Q170 52 145.50-12Q121-76 97-129L31-129Q40-92 50-48Q60-4 68.50 38.50Q77 81 82 116L176 116Z"  horiz-adv-x="268" vert-adv-y="1000"  />

      
      <glyph glyph-name="uni3c" unicode="&#x3c;" d="M521 116L50 323L50 373L521 608L521 530L144 352L521 194L521 116Z"  horiz-adv-x="572" vert-adv-y="1000"  />

      
      <glyph glyph-name="uni3d" unicode="&#x3d;" d="M56 416L56 487L514 487L514 416L56 416M56 217L56 288L514 288L514 217L56 217Z"  horiz-adv-x="572" vert-adv-y="1000"  />

      
      <glyph glyph-name="uni3e" unicode="&#x3e;" d="M50 194L427 351L50 530L50 608L521 373L521 323L50 116L50 194Z"  horiz-adv-x="572" vert-adv-y="1000"  />

      
      <glyph glyph-name="uni3f" unicode="&#x3f;" d="M140 201L140 228Q140 266 147.50 293.50Q155 321 173.50 345.50Q192 370 224 398Q262 430 284 452.50Q306 475 315 496Q324 517 324 547Q324 595 293 621Q262 647 203 647Q154 647 116 634.50Q78 622 43 605L12 675Q52 696 100.50 710Q149 724 209 724Q304 724 356 677Q408 630 408 549Q408 504 393.50 472.50Q379 441 352.50 414.50Q326 388 290 358Q256 330 239 309Q222 288 216 267Q210 246 210 218L210 201L140 201M117 54Q117 91 134.50 106Q152 121 179 121Q204 121 222 106Q240 91 240 54Q240 18 222 2Q204-14 179-14Q152-14 134.50 2Q117 18 117 54Z"  horiz-adv-x="434" vert-adv-y="1000"  />

      
      <glyph glyph-name="uni40" unicode="&#x40;" d="M841 357Q841 311 830.50 267Q820 223 798 187.50Q776 152 744 130.50Q712 109 668 109Q622 109 595.50 135.50Q569 162 563 196L558 196Q540 159 505 134Q470 109 417 109Q340 109 299 160Q258 211 258 295Q258 360 284 411Q310 462 357.50 491Q405 520 470 520Q514 520 556.50 512.50Q599 505 623 496L613 293Q612 275 612 267.50Q612 260 612 257Q612 204 630.50 187.50Q649 171 674 171Q705 171 726.50 196.50Q748 222 759.50 264Q771 306 771 358Q771 450 733.50 515Q696 580 630.50 614Q565 648 482 648Q368 648 289.50 601Q211 554 170.50 471.50Q130 389 130 283Q130 135 208 56Q286-23 433-23Q494-23 549.50-9.50Q605 4 648 20L648-48Q605-66 551.50-77.50Q498-89 433-89Q315-89 231-45Q147-1 102.50 81.50Q58 164 58 280Q58 373 87 452.50Q116 532 171 590.50Q226 649 304.50 681.50Q383 714 482 714Q586 714 667 671Q748 628 794.50 548Q841 468 841 357M336 293Q336 228 361 199.50Q386 171 430 171Q486 171 510.50 213Q535 255 539 322L545 447Q532 451 512 454Q492 457 471 457Q422 457 392 433Q362 409 349 371.50Q336 334 336 293Z"  horiz-adv-x="899" vert-adv-y="1000"  />

      
      <glyph glyph-name="uni41" unicode="&#x41;" d="M545 0L459 221L176 221L91 0L0 0L279 717L360 717L638 0L545 0M432 301L352 517Q349 525 342 546Q335 567 328.50 589.50Q322 612 318 624Q310 593 301.50 563.50Q293 534 287 517L206 301L432 301Z"  horiz-adv-x="639" vert-adv-y="1000"  />

      
      <glyph glyph-name="uni42" unicode="&#x42;" d="M97 714L301 714Q434 714 503 674Q572 634 572 537Q572 474 537 432.50Q502 391 436 379L436 374Q481 366 517.50 347Q554 328 575 293Q596 258 596 203Q596 106 529.50 53Q463 0 348 0L97 0L97 714M187 410L319 410Q410 410 444.50 439.50Q479 469 479 527Q479 586 437.50 611.50Q396 637 305 637L187 637L187 410M187 335L187 76L331 76Q426 76 463 113Q500 150 500 210Q500 266 461.50 300.50Q423 335 324 335L187 335Z"  horiz-adv-x="650" vert-adv-y="1000"  />

      
      <glyph glyph-name="uni43" unicode="&#x43;" d="M403 645Q288 645 222 568Q156 491 156 357Q156 224 217.50 146.50Q279 69 402 69Q448 69 490 77Q532 85 573 97L573 19Q533 4 490.50-3Q448-10 389-10Q280-10 207 35Q134 80 97.50 163Q61 246 61 358Q61 466 100.50 548.50Q140 631 217 677.50Q294 724 404 724Q517 724 601 682L565 606Q532 621 491.50 633Q451 645 403 645Z"  horiz-adv-x="632" vert-adv-y="1000"  />

      
      <glyph glyph-name="uni44" unicode="&#x44;" d="M669 364Q669 183 570.50 91.50Q472 0 296 0L97 0L97 714L317 714Q424 714 503.50 674Q583 634 626 556Q669 478 669 364M574 361Q574 504 503.50 570.50Q433 637 304 637L187 637L187 77L284 77Q574 77 574 361Z"  horiz-adv-x="730" vert-adv-y="1000"  />

      
      <glyph glyph-name="uni45" unicode="&#x45;" d="M496 0L97 0L97 714L496 714L496 635L187 635L187 412L478 412L478 334L187 334L187 79L496 79L496 0Z"  horiz-adv-x="556" vert-adv-y="1000"  />

      
      <glyph glyph-name="uni46" unicode="&#x46;" d="M187 0L97 0L97 714L496 714L496 635L187 635L187 382L477 382L477 303L187 303L187 0Z"  horiz-adv-x="519" vert-adv-y="1000"  />

      
      <glyph glyph-name="uni47" unicode="&#x47;" d="M407 377L654 377L654 27Q596 8 537-1Q478-10 403-10Q292-10 216 34.50Q140 79 100.50 161.50Q61 244 61 357Q61 468 104.50 550.50Q148 633 231 678.50Q314 724 431 724Q491 724 544.50 713Q598 702 644 682L610 604Q572 620 524.50 632.50Q477 645 426 645Q298 645 226.50 567.50Q155 490 155 357Q155 272 182.50 206.50Q210 141 269 104.50Q328 68 424 68Q471 68 504 73Q537 78 564 85L564 297L407 297L407 377Z"  horiz-adv-x="728" vert-adv-y="1000"  />

      
      <glyph glyph-name="uni48" unicode="&#x48;" d="M643 0L553 0L553 333L187 333L187 0L97 0L97 714L187 714L187 412L553 412L553 714L643 714L643 0Z"  horiz-adv-x="741" vert-adv-y="1000"  />

      
      <glyph glyph-name="uni49" unicode="&#x49;" d="M298 0L40 0L40 52L124 71L124 642L40 662L40 714L298 714L298 662L214 642L214 71L298 52L298 0Z"  horiz-adv-x="339" vert-adv-y="1000"  />

      
      <glyph glyph-name="uni4a" unicode="&#x4a;" d="M-4-190Q-28-190-46-186.50Q-64-183-78-177L-78-101Q-62-106-44-108.50Q-26-111-6-111Q19-111 41.50-101Q64-91 78-66.50Q92-42 92 4L92 714L182 714L182 11Q182-92 131-141Q80-190-4-190Z"  horiz-adv-x="273" vert-adv-y="1000"  />

      
      <glyph glyph-name="uni4b" unicode="&#x4b;" d="M619 0L513 0L260 341L187 277L187 0L97 0L97 714L187 714L187 362Q217 396 248 430Q279 464 310 498L503 714L608 714L325 403L619 0Z"  horiz-adv-x="619" vert-adv-y="1000"  />

      
      <glyph glyph-name="uni4c" unicode="&#x4c;" d="M97 0L97 714L187 714L187 80L499 80L499 0L97 0Z"  horiz-adv-x="524" vert-adv-y="1000"  />

      
      <glyph glyph-name="uni4d" unicode="&#x4d;" d="M412 0L177 626L173 626Q176 595 178 542.50Q180 490 180 433L180 0L97 0L97 714L230 714L450 129L454 129L678 714L810 714L810 0L721 0L721 439Q721 491 723.50 542Q726 593 728 625L724 625L486 0L412 0Z"  horiz-adv-x="907" vert-adv-y="1000"  />

      
      <glyph glyph-name="uni4e" unicode="&#x4e;" d="M663 0L558 0L176 593L172 593Q174 558 177 506Q180 454 180 399L180 0L97 0L97 714L201 714L582 123L586 123Q585 139 583.50 171Q582 203 580.50 240.50Q579 278 579 311L579 714L663 714L663 0Z"  horiz-adv-x="760" vert-adv-y="1000"  />

      
      <glyph glyph-name="uni4f" unicode="&#x4f;" d="M720 358Q720 247 682.50 164.50Q645 82 571.50 36Q498-10 391-10Q280-10 206.50 36Q133 82 97 165Q61 248 61 359Q61 468 97 550.50Q133 633 206.50 679Q280 725 392 725Q499 725 572 679.50Q645 634 682.50 551.50Q720 469 720 358M156 358Q156 223 213 145.50Q270 68 391 68Q512 68 568.50 145.50Q625 223 625 358Q625 493 569 569.50Q513 646 392 646Q270 646 213 569.50Q156 493 156 358Z"  horiz-adv-x="781" vert-adv-y="1000"  />

      
      <glyph glyph-name="uni50" unicode="&#x50;" d="M286 714Q426 714 490 659Q554 604 554 504Q554 445 527.50 393.50Q501 342 438.50 310Q376 278 269 278L187 278L187 0L97 0L97 714L286 714M278 637L187 637L187 355L259 355Q361 355 411 388Q461 421 461 500Q461 569 416.50 603Q372 637 278 637Z"  horiz-adv-x="605" vert-adv-y="1000"  />

      
      <glyph glyph-name="uni51" unicode="&#x51;" d="M720 358Q720 227 667.50 134.50Q615 42 512 8L683-170L554-170L416-9Q410-9 403.50-9.50Q397-10 391-10Q280-10 206.50 36Q133 82 97 165Q61 248 61 359Q61 468 97 550.50Q133 633 206.50 679Q280 725 392 725Q499 725 572 679.50Q645 634 682.50 551.50Q720 469 720 358M156 358Q156 223 213 145.50Q270 68 391 68Q512 68 568.50 145.50Q625 223 625 358Q625 493 569 569.50Q513 646 392 646Q270 646 213 569.50Q156 493 156 358Z"  horiz-adv-x="781" vert-adv-y="1000"  />

      
      <glyph glyph-name="uni52" unicode="&#x52;" d="M294 714Q427 714 490.50 663.50Q554 613 554 511Q554 454 533 416Q512 378 479.50 355Q447 332 411 320L607 0L502 0L329 295L187 295L187 0L97 0L97 714L294 714M289 636L187 636L187 371L294 371Q381 371 421 405.50Q461 440 461 507Q461 577 419 606.50Q377 636 289 636Z"  horiz-adv-x="622" vert-adv-y="1000"  />

      
      <glyph glyph-name="uni53" unicode="&#x53;" d="M502 191Q502 96 433 43Q364-10 247-10Q187-10 136-1Q85 8 51 24L51 110Q87 94 140.50 81Q194 68 251 68Q330 68 371 99Q412 130 412 183Q412 218 397 242Q382 266 345 286Q308 306 244 330Q152 363 106 411Q60 459 60 542Q60 598 89 639Q118 680 169 702Q220 724 288 724Q346 724 395 713Q444 702 485 684L457 607Q420 623 376 634Q332 645 286 645Q219 645 185 616.50Q151 588 151 541Q151 505 166 481Q181 457 215 437.50Q249 418 307 397Q370 374 413.50 347.50Q457 321 479.50 284Q502 247 502 191Z"  horiz-adv-x="549" vert-adv-y="1000"  />

      
      <glyph glyph-name="uni54" unicode="&#x54;" d="M323 0L233 0L233 635L10 635L10 714L545 714L545 635L323 635L323 0Z"  horiz-adv-x="556" vert-adv-y="1000"  />

      
      <glyph glyph-name="uni55" unicode="&#x55;" d="M640 714L640 252Q640 178 610 118.50Q580 59 518 24.50Q456-10 362-10Q228-10 159 62.50Q90 135 90 254L90 714L180 714L180 251Q180 164 226.50 116Q273 68 367 68Q464 68 507.50 119.50Q551 171 551 252L551 714L640 714Z"  horiz-adv-x="731" vert-adv-y="1000"  />

      
      <glyph glyph-name="uni56" unicode="&#x56;" d="M600 714L345 0L255 0L0 714L94 714L255 256Q271 212 281.50 173.50Q292 135 300 100Q307 135 318 174Q329 213 345 258L505 714L600 714Z"  horiz-adv-x="600" vert-adv-y="1000"  />

      
      <glyph glyph-name="uni57" unicode="&#x57;" d="M917 714L727 0L636 0L497 468Q488 496 480.50 525.50Q473 555 467.50 577.50Q462 600 461 609Q460 596 450 553.50Q440 511 427 465L292 0L201 0L12 714L106 714L217 278Q229 232 237.50 189Q246 146 251 108Q256 147 266 193Q276 239 289 283L415 714L508 714L639 280Q653 234 663 188Q673 142 678 108Q682 145 691.50 188.50Q701 232 713 279L823 714L917 714Z"  horiz-adv-x="930" vert-adv-y="1000"  />

      
      <glyph glyph-name="uni58" unicode="&#x58;" d="M582 0L480 0L291 310L99 0L4 0L241 372L19 714L119 714L294 434L470 714L565 714L344 374L582 0Z"  horiz-adv-x="586" vert-adv-y="1000"  />

      
      <glyph glyph-name="uni59" unicode="&#x59;" d="M283 363L469 714L566 714L328 277L328 0L238 0L238 273L0 714L98 714L283 363Z"  horiz-adv-x="566" vert-adv-y="1000"  />

      
      <glyph glyph-name="uni5a" unicode="&#x5a;" d="M533 0L38 0L38 68L414 634L50 634L50 714L523 714L523 646L147 80L533 80L533 0Z"  horiz-adv-x="572" vert-adv-y="1000"  />

      
      <glyph glyph-name="uni5b" unicode="&#x5b;" d="M304-158L80-158L80 714L304 714L304 642L166 642L166-86L304-86L304-158Z"  horiz-adv-x="329" vert-adv-y="1000"  />

      
      <glyph glyph-name="uni5c" unicode="&#x5c;" d="M96 714L363 0L276 0L10 714L96 714Z"  horiz-adv-x="372" vert-adv-y="1000"  />

      
      <glyph glyph-name="uni5d" unicode="&#x5d;" d="M25-86L163-86L163 642L25 642L25 714L249 714L249-158L25-158L25-86Z"  horiz-adv-x="329" vert-adv-y="1000"  />

      
      <glyph glyph-name="uni5e" unicode="&#x5e;" d="M38 267L250 719L300 719L534 267L456 267L276 626L116 267L38 267Z"  horiz-adv-x="572" vert-adv-y="1000"  />

      
      <glyph glyph-name="uni5f" unicode="&#x5f;" d="M446-154L-2-154L-2-90L446-90L446-154Z"  horiz-adv-x="444" vert-adv-y="1000"  />

      
      <glyph glyph-name="uni60" unicode="&#x60;" d="M145 766Q156 744 172.50 716.50Q189 689 207.50 662.50Q226 636 241 618L241 606L182 606Q159 624 130 652.50Q101 681 76.50 709.50Q52 738 40 756L40 766L145 766Z"  horiz-adv-x="281" vert-adv-y="1000"  />

      
      <glyph glyph-name="uni61" unicode="&#x61;" d="M288 545Q386 545 433 502Q480 459 480 365L480 0L416 0L399 76L395 76Q360 32 321 11Q282-10 215-10Q142-10 94 28.50Q46 67 46 149Q46 229 109 272.50Q172 316 303 320L394 323L394 355Q394 422 365 448Q336 474 283 474Q241 474 203 461.50Q165 449 132 433L105 499Q140 518 188 531.50Q236 545 288 545M393 262L314 259Q214 255 175.50 227Q137 199 137 148Q137 103 164.50 82Q192 61 235 61Q302 61 347.50 98.50Q393 136 393 214L393 262Z"  horiz-adv-x="561" vert-adv-y="1000"  />

      
      <glyph glyph-name="uni62" unicode="&#x62;" d="M173 760L173 575Q173 541 171.50 511.50Q170 482 168 465L173 465Q196 499 236 522Q276 545 339 545Q439 545 499.50 475.50Q560 406 560 268Q560 130 499 60Q438-10 339-10Q276-10 236 13Q196 36 173 68L166 68L148 0L85 0L85 760L173 760M324 472Q238 472 205.50 423Q173 374 173 271L173 267Q173 168 205.50 115.50Q238 63 326 63Q398 63 433.50 116Q469 169 469 269Q469 472 324 472Z"  horiz-adv-x="615" vert-adv-y="1000"  />

      
      <glyph glyph-name="uni63" unicode="&#x63;" d="M300-10Q228-10 173 19Q118 48 86.50 109Q55 170 55 265Q55 364 87.50 426Q120 488 177 517Q234 546 306 546Q346 546 384.50 537.50Q423 529 447 517L420 444Q396 453 364 461Q332 469 304 469Q146 469 146 266Q146 169 184.50 117.50Q223 66 299 66Q342 66 376 75Q410 84 438 97L438 19Q411 5 378.50-2.50Q346-10 300-10Z"  horiz-adv-x="480" vert-adv-y="1000"  />

      
      <glyph glyph-name="uni64" unicode="&#x64;" d="M275-10Q175-10 115 59.50Q55 129 55 267Q55 405 115.50 475.50Q176 546 276 546Q338 546 377.50 523Q417 500 442 467L448 467Q446 480 444 505.50Q442 531 442 546L442 760L530 760L530 0L459 0L446 72L442 72Q418 38 378 14Q338-10 275-10M289 63Q374 63 408.50 109.50Q443 156 443 250L443 266Q443 366 410 419.50Q377 473 288 473Q217 473 181.50 416.50Q146 360 146 265Q146 169 181.50 116Q217 63 289 63Z"  horiz-adv-x="615" vert-adv-y="1000"  />

      
      <glyph glyph-name="uni65" unicode="&#x65;" d="M292 546Q360 546 410 516Q460 486 486.50 431.50Q513 377 513 304L513 251L146 251Q148 160 192.50 112.50Q237 65 317 65Q368 65 407.50 74.50Q447 84 489 102L489 25Q448 7 408-1.50Q368-10 313-10Q236-10 178 21Q120 52 87.50 113Q55 174 55 264Q55 352 84.50 415Q114 478 167.50 512Q221 546 292 546M291 474Q228 474 191.50 433.50Q155 393 148 321L421 321Q420 389 389 431.50Q358 474 291 474Z"  horiz-adv-x="564" vert-adv-y="1000"  />

      
      <glyph glyph-name="uni66" unicode="&#x66;" d="M332 468L197 468L197 0L109 0L109 468L15 468L15 509L109 539L109 570Q109 674 154.50 719.50Q200 765 283 765Q314 765 341 759.50Q368 754 387 747L364 678Q348 683 327 688Q306 693 284 693Q240 693 218.50 663.50Q197 634 197 571L197 536L332 536L332 468Z"  horiz-adv-x="344" vert-adv-y="1000"  />

      
      <glyph glyph-name="uni67" unicode="&#x67;" d="M275 546Q328 546 370.50 526Q413 506 443 465L448 465L460 536L530 536L530-9Q530-124 471.50-182Q413-240 290-240Q172-240 97-206L97-125Q176-167 295-167Q364-167 403.50-126.50Q443-86 443-16L443 5Q443 17 444 39.50Q445 62 446 71L442 71Q388-10 276-10Q172-10 113.50 63Q55 136 55 267Q55 395 113.50 470.50Q172 546 275 546M287 472Q220 472 183 418.50Q146 365 146 266Q146 167 182 114.50Q218 62 289 62Q370 62 407 105.50Q444 149 444 246L444 267Q444 376 406 424Q368 472 287 472Z"  horiz-adv-x="615" vert-adv-y="1000"  />

      
      <glyph glyph-name="uni68" unicode="&#x68;" d="M173 760L173 537Q173 497 168 462L174 462Q200 503 244.50 524Q289 545 341 545Q438 545 487.50 498.50Q537 452 537 349L537 0L450 0L450 343Q450 472 330 472Q240 472 206.50 421.50Q173 371 173 277L173 0L85 0L85 760L173 760Z"  horiz-adv-x="618" vert-adv-y="1000"  />

      
      <glyph glyph-name="uni69" unicode="&#x69;" d="M130 737Q150 737 165.50 723.50Q181 710 181 681Q181 652 165.50 638.50Q150 625 130 625Q108 625 93 638.50Q78 652 78 681Q78 710 93 723.50Q108 737 130 737M173 536L173 0L85 0L85 536L173 536Z"  horiz-adv-x="258" vert-adv-y="1000"  />

      
      <glyph glyph-name="uni6a" unicode="&#x6a;" d="M78 681Q78 710 93 723.50Q108 737 130 737Q150 737 165.50 723.50Q181 710 181 681Q181 652 165.50 638.50Q150 625 130 625Q108 625 93 638.50Q78 652 78 681M22-240Q-4-240-23-236.50Q-42-233-55-228L-55-157Q-40-162-24-164.50Q-8-167 11-167Q43-167 64-149.50Q85-132 85-83L85 536L173 536L173-80Q173-155 137-197.50Q101-240 22-240Z"  horiz-adv-x="258" vert-adv-y="1000"  />

      
      <glyph glyph-name="uni6b" unicode="&#x6b;" d="M172 760L172 363Q172 347 170.50 321Q169 295 168 276L172 276Q178 284 190 299Q202 314 214.50 329.50Q227 345 236 355L407 536L510 536L293 307L525 0L419 0L233 250L172 197L172 0L85 0L85 760L172 760Z"  horiz-adv-x="534" vert-adv-y="1000"  />

      
      <glyph glyph-name="uni6c" unicode="&#x6c;" d="M173 0L85 0L85 760L173 760L173 0Z"  horiz-adv-x="258" vert-adv-y="1000"  />

      
      <glyph glyph-name="uni6d" unicode="&#x6d;" d="M673 546Q764 546 809 499Q854 452 854 349L854 0L767 0L767 345Q767 472 658 472Q580 472 546.50 427Q513 382 513 296L513 0L426 0L426 345Q426 472 316 472Q235 472 204 422Q173 372 173 278L173 0L85 0L85 536L156 536L169 463L174 463Q199 505 241.50 525.50Q284 546 332 546Q458 546 496 456L501 456Q528 502 574 524Q620 546 673 546Z"  horiz-adv-x="935" vert-adv-y="1000"  />

      
      <glyph glyph-name="uni6e" unicode="&#x6e;" d="M343 546Q439 546 488 499Q537 452 537 349L537 0L450 0L450 343Q450 472 330 472Q241 472 207 422Q173 372 173 278L173 0L85 0L85 536L156 536L169 463L174 463Q200 505 246 525.50Q292 546 343 546Z"  horiz-adv-x="618" vert-adv-y="1000"  />

      
      <glyph glyph-name="uni6f" unicode="&#x6f;" d="M551 269Q551 136 483.50 63Q416-10 301-10Q230-10 174.50 22.50Q119 55 87 117.50Q55 180 55 269Q55 402 121.50 474Q188 546 304 546Q376 546 432 513.50Q488 481 519.50 419.50Q551 358 551 269M146 269Q146 174 183.50 118.50Q221 63 303 63Q384 63 422 118.50Q460 174 460 269Q460 364 422 418Q384 472 302 472Q220 472 183 418Q146 364 146 269Z"  horiz-adv-x="605" vert-adv-y="1000"  />

      
      <glyph glyph-name="uni70" unicode="&#x70;" d="M340 546Q439 546 499.50 477Q560 408 560 269Q560 132 499.50 61Q439-10 339-10Q277-10 236.50 13Q196 36 173 68L167 68Q168 51 170.50 25Q173-1 173-20L173-240L85-240L85 536L157 536L169 463L173 463Q197 498 236 522Q275 546 340 546M324 472Q242 472 208 426Q174 380 173 286L173 269Q173 170 205.50 116.50Q238 63 326 63Q374 63 406 89.50Q438 116 453.50 163Q469 210 469 270Q469 362 433.50 417Q398 472 324 472Z"  horiz-adv-x="615" vert-adv-y="1000"  />

      
      <glyph glyph-name="uni71" unicode="&#x71;" d="M442-240L442-11Q442 7 443 31Q444 55 447 72L441 72Q418 38 377.50 14Q337-10 273-10Q176-10 115.50 59.50Q55 129 55 267Q55 405 116.50 475.50Q178 546 276 546Q339 546 379 522Q419 498 443 463L447 463L460 536L530 536L530-240L442-240M290 63Q372 63 407 108.50Q442 154 443 248L443 266Q443 368 409 420.50Q375 473 288 473Q216 473 181 416.50Q146 360 146 265Q146 170 181 116.50Q216 63 290 63Z"  horiz-adv-x="615" vert-adv-y="1000"  />

      
      <glyph glyph-name="uni72" unicode="&#x72;" d="M335 546Q350 546 367 544.50Q384 543 398 540L387 459Q374 462 358 464Q342 466 329 466Q288 466 252 443.50Q216 421 194.50 380.50Q173 340 173 286L173 0L85 0L85 536L157 536L167 438L171 438Q196 482 237.50 514Q279 546 335 546Z"  horiz-adv-x="413" vert-adv-y="1000"  />

      
      <glyph glyph-name="uni73" unicode="&#x73;" d="M434 148Q434 70 376 30Q318-10 220-10Q164-10 123.50-1Q83 8 52 24L52 104Q84 88 129.50 74.50Q175 61 222 61Q289 61 319 82.50Q349 104 349 140Q349 160 338 176Q327 192 298.50 208Q270 224 217 244Q165 264 128 284Q91 304 71 332Q51 360 51 404Q51 472 106.50 509Q162 546 252 546Q301 546 343.50 536Q386 526 423 510L393 440Q359 454 322 464Q285 474 246 474Q192 474 163.50 456.50Q135 439 135 409Q135 386 148 371Q161 356 191.50 341Q222 326 273 307Q324 288 360 268Q396 248 415 219.50Q434 191 434 148Z"  horiz-adv-x="479" vert-adv-y="1000"  />

      
      <glyph glyph-name="uni74" unicode="&#x74;" d="M264 62Q284 62 305 65Q326 68 339 73L339 6Q325-1 299-5.50Q273-10 249-10Q207-10 171.50 4.50Q136 19 114 55Q92 91 92 156L92 468L16 468L16 510L93 545L128 659L180 659L180 536L335 536L335 468L180 468L180 158Q180 109 203.50 85.50Q227 62 264 62Z"  horiz-adv-x="361" vert-adv-y="1000"  />

      
      <glyph glyph-name="uni75" unicode="&#x75;" d="M533 536L533 0L461 0L448 71L444 71Q418 29 372 9.50Q326-10 274-10Q177-10 128 36.50Q79 83 79 185L79 536L168 536L168 191Q168 63 287 63Q376 63 410.50 113Q445 163 445 257L445 536L533 536Z"  horiz-adv-x="618" vert-adv-y="1000"  />

      
      <glyph glyph-name="uni76" unicode="&#x76;" d="M203 0L0 536L94 536L208 220Q216 198 225 171Q234 144 241 119Q248 94 251 78L255 78Q258 94 266 119.50Q274 145 283 171.50Q292 198 300 220L414 536L508 536L304 0L203 0Z"  horiz-adv-x="508" vert-adv-y="1000"  />

      
      <glyph glyph-name="uni77" unicode="&#x77;" d="M523 1L431 303Q418 344 408 383Q398 422 394 445L390 445Q386 422 377 383Q368 344 354 302L258 1L158 1L11 537L102 537L176 251Q187 208 197 164Q207 120 211 91L215 91Q218 108 224 133Q230 158 237 185.50Q244 213 251 235L346 537L442 537L534 235Q544 200 555 160Q566 120 570 92L574 92Q577 117 587.50 161Q598 205 610 251L685 537L775 537L626 1L523 1Z"  horiz-adv-x="786" vert-adv-y="1000"  />

      
      <glyph glyph-name="uni78" unicode="&#x78;" d="M212 274L27 536L127 536L265 334L402 536L501 536L316 274L511 0L411 0L265 214L117 0L18 0L212 274Z"  horiz-adv-x="529" vert-adv-y="1000"  />

      
      <glyph glyph-name="uni79" unicode="&#x79;" d="M1 536L95 536L211 231Q226 190 238 154Q250 118 256 85L260 85Q266 110 279 150.50Q292 191 306 232L415 536L510 536L279-74Q250-150 206-195Q162-240 84-240Q60-240 42-237.50Q24-235 11-232L11-162Q22-164 37.50-166Q53-168 70-168Q116-168 144-142Q172-116 189-73L217-2L1 536Z"  horiz-adv-x="510" vert-adv-y="1000"  />

      
      <glyph glyph-name="uni7a" unicode="&#x7a;" d="M431 0L39 0L39 58L327 468L56 468L56 536L424 536L424 470L140 68L431 68L431 0Z"  horiz-adv-x="470" vert-adv-y="1000"  />

      
      <glyph glyph-name="uni7b" unicode="&#x7b;" d="M348-158Q256-157 203-118Q150-79 150 1L150 148Q150 199 118.50 220.50Q87 242 28 242L28 315Q87 316 118.50 337Q150 358 150 408L150 556Q150 636 205 675Q260 714 348 714L348 642Q296 640 266.50 618.50Q237 597 237 548L237 404Q237 301 128 282L128 276Q237 257 237 154L237 7Q237-42 266-63.50Q295-85 348-86L348-158Z"  horiz-adv-x="380" vert-adv-y="1000"  />

      
      <glyph glyph-name="uni7c" unicode="&#x7c;" d="M239 760L312 760L312-241L239-241L239 760Z"  horiz-adv-x="551" vert-adv-y="1000"  />

      
      <glyph glyph-name="uni7d" unicode="&#x7d;" d="M32-158L32-86Q84-84 113.50-62.50Q143-41 143 8L143 153Q143 256 252 275L252 281Q143 300 143 403L143 549Q143 598 114 619.50Q85 641 32 642L32 714Q124 713 177 674Q230 635 230 555L230 409Q230 358 261.50 336.50Q293 315 352 315L352 242Q293 241 261.50 220Q230 199 230 149L230 0Q230-80 175-119Q120-158 32-158Z"  horiz-adv-x="380" vert-adv-y="1000"  />

      
      <glyph glyph-name="uni7e" unicode="&#x7e;" d="M269 319Q233 335 209.50 340.50Q186 346 164 346Q136 346 105 329Q74 312 50 287L50 365Q98 418 170 418Q198 418 227 412Q256 406 302 386Q338 370 361.50 364.50Q385 359 406 359Q435 359 466 376Q497 393 521 418L521 341Q472 287 401 287Q372 287 343 293.50Q314 300 269 319Z"  horiz-adv-x="572" vert-adv-y="1000"  />

      
      <glyph glyph-name="unia1" unicode="&#xa1;" d="M196 478Q196 440 178 425.50Q160 411 134 411Q108 411 90 425.50Q72 440 72 478Q72 514 90 530Q108 546 134 546Q160 546 178 530Q196 514 196 478M104 330L162 330L187-182L79-182L104 330Z"  horiz-adv-x="269" vert-adv-y="1000"  />

      
      <glyph glyph-name="unia2" unicode="&#xa2;" d="M353 724L353 644Q390 642 425 634Q460 626 485 615L459 542Q433 552 400 560Q367 568 340 568Q258 568 219.50 517Q181 466 181 363Q181 259 220.50 211.50Q260 164 336 164Q380 164 412.50 172.50Q445 181 476 194L476 117Q449 104 420 96Q391 88 352 87L352-10L285-10L285 90Q226 99 182.50 129Q139 159 115 215.50Q91 272 91 362Q91 453 115 511Q139 569 182.50 600Q226 631 285 640L285 724L353 724Z"  horiz-adv-x="572" vert-adv-y="1000"  />

      
      <glyph glyph-name="unia3" unicode="&#xa3;" d="M334 723Q389 723 432.50 711Q476 699 511 682L480 612Q450 626 413 638Q376 650 336 650Q279 650 249 620.50Q219 591 219 525L219 386L423 386L423 320L219 320L219 216Q219 155 198 125.50Q177 96 151 80L535 80L535 0L32 0L32 74Q75 84 103 116.50Q131 149 131 215L131 320L35 320L35 386L131 386L131 534Q131 623 186.50 673Q242 723 334 723Z"  horiz-adv-x="572" vert-adv-y="1000"  />

      
      <glyph glyph-name="unia4" unicode="&#xa4;" d="M90 353Q90 383 99.50 411.50Q109 440 125 463L59 531L108 578L174 514Q197 530 225.50 539.50Q254 549 286 549Q317 549 344.50 539.50Q372 530 396 514L463 578L511 531L447 464Q462 441 472 412.50Q482 384 482 353Q482 290 447 241L510 175L463 128L396 192Q373 176 345 167Q317 158 286 158Q222 158 174 193L108 129L60 176L125 242Q109 265 99.50 293.50Q90 322 90 353M157 353Q157 317 174 287.50Q191 258 220.50 241Q250 224 286 224Q322 224 351.50 241Q381 258 398.50 287.50Q416 317 416 353Q416 390 398.50 419.50Q381 449 351.50 466.50Q322 484 286 484Q250 484 220.50 466.50Q191 449 174 419.50Q157 390 157 353Z"  horiz-adv-x="572" vert-adv-y="1000"  />

      
      <glyph glyph-name="unia5" unicode="&#xa5;" d="M285 365L464 714L556 714L355 339L479 339L479 275L328 275L328 193L479 193L479 129L328 129L328 0L242 0L242 129L91 129L91 193L242 193L242 275L91 275L91 339L213 339L14 714L107 714L285 365Z"  horiz-adv-x="572" vert-adv-y="1000"  />

      
      <glyph glyph-name="unia6" unicode="&#xa6;" d="M239 760L312 760L312 379L239 379L239 760M239 140L312 140L312-241L239-241L239 140Z"  horiz-adv-x="551" vert-adv-y="1000"  />

      
      <glyph glyph-name="unia7" unicode="&#xa7;" d="M67 395Q67 444 91 475Q115 506 146 521Q110 540 90 568Q70 596 70 636Q70 696 121 730.50Q172 765 267 765Q323 765 361.50 755.50Q400 746 438 731L411 664Q376 678 342.50 687.50Q309 697 261 697Q201 697 176.50 681.50Q152 666 152 638Q152 610 180 590.50Q208 571 284 543Q361 514 404 478.50Q447 443 447 383Q447 332 424 299.50Q401 267 372 250Q407 231 426.50 204.50Q446 178 446 140Q446 71 388.50 33Q331-5 228-5Q172-5 131 3.50Q90 12 59 28L59 103Q91 88 138 75Q185 62 232 62Q306 62 334 83Q362 104 362 133Q362 152 352.50 166Q343 180 315.50 195Q288 210 233 231Q180 250 143 271.50Q106 293 86.50 322Q67 351 67 395M142 405Q142 368 173.50 342.50Q205 317 285 287L307 279Q330 292 350.50 314Q371 336 371 370Q371 395 357.50 415Q344 435 310 453.50Q276 472 214 491Q186 484 164 461Q142 438 142 405Z"  horiz-adv-x="513" vert-adv-y="1000"  />

      
      <glyph glyph-name="unia8" unicode="&#xa8;" d="M149 681Q149 707 162.50 718.50Q176 730 196 730Q215 730 229 718.50Q243 707 243 681Q243 656 229 643.50Q215 631 196 631Q176 631 162.50 643.50Q149 656 149 681M337 681Q337 707 350.50 718.50Q364 730 383 730Q402 730 416 718.50Q430 707 430 681Q430 656 416 643.50Q402 631 383 631Q364 631 350.50 643.50Q337 656 337 681Z"  horiz-adv-x="580" vert-adv-y="1000"  />

      
      <glyph glyph-name="unia9" unicode="&#xa9;" d="M416-10Q336-10 269 17Q202 44 152.50 93.50Q103 143 76 210Q49 277 49 357Q49 437 76 504Q103 571 152.50 620.50Q202 670 269 697Q336 724 416 724Q492 724 558.50 697Q625 670 675.50 620.50Q726 571 754.50 504Q783 437 783 357Q783 277 756 210Q729 143 679.50 93.50Q630 44 563 17Q496-10 416-10M416 43Q480 43 536 66Q592 89 635 131.50Q678 174 702 231Q726 288 726 357Q726 422 703 479Q680 536 638.50 579Q597 622 540.50 646.50Q484 671 416 671Q326 671 255.50 630.50Q185 590 145 519Q105 448 105 357Q105 292 128 235Q151 178 192.50 135Q234 92 291 67.50Q348 43 416 43M431 133Q332 133 283 194.50Q234 256 234 357Q234 422 257 472.50Q280 523 325 551.50Q370 580 435 580Q500 580 558 550L529 489Q479 515 436 515Q377 515 344.50 472.50Q312 430 312 357Q312 280 340.50 239Q369 198 435 198Q458 198 486.50 204.50Q515 211 540 221L540 157Q516 146 491 139.50Q466 133 431 133Z"  horiz-adv-x="832" vert-adv-y="1000"  />

      
      <glyph glyph-name="uniaa" unicode="&#xaa;" d="M177 722Q242 722 275 695Q308 668 308 609L308 389L261 389L249 431Q229 410 200.50 396.50Q172 383 135 383Q88 383 60 407.50Q32 432 32 482Q32 581 190 587L246 589L246 611Q246 644 225 657Q204 670 175 670Q147 670 121.50 662.50Q96 655 74 644L52 693Q78 706 110 714Q142 722 177 722M246 544L198 542Q138 540 117 524.50Q96 509 96 482Q96 456 110.50 445Q125 434 150 434Q201 434 223.50 457.50Q246 481 246 521L246 544Z"  horiz-adv-x="357" vert-adv-y="1000"  />

      
      <glyph glyph-name="uniab" unicode="&#xab;" d="M40 270L208 471L271 435L131 264L271 93L208 56L40 257L40 270M238 270L408 471L470 435L330 264L470 93L408 56L238 257L238 270Z"  horiz-adv-x="509" vert-adv-y="1000"  />

      
      <glyph glyph-name="uniac" unicode="&#xac;" d="M520 388L520 128L449 128L449 317L50 317L50 388L520 388Z"  horiz-adv-x="572" vert-adv-y="1000"  />

      
      <glyph glyph-name="uniad" unicode="&#xad;" d="M40 229L40 307L282 307L282 229L40 229Z"  horiz-adv-x="322" vert-adv-y="1000"  />

      
      <glyph glyph-name="uniae" unicode="&#xae;" d="M416-10Q336-10 269 17Q202 44 152.50 93.50Q103 143 76 210Q49 277 49 357Q49 437 76 504Q103 571 152.50 620.50Q202 670 269 697Q336 724 416 724Q492 724 558.50 697Q625 670 675.50 620.50Q726 571 754.50 504Q783 437 783 357Q783 277 756 210Q729 143 679.50 93.50Q630 44 563 17Q496-10 416-10M416 43Q480 43 536 66Q592 89 635 131.50Q678 174 702 231Q726 288 726 357Q726 422 703 479Q680 536 638.50 579Q597 622 540.50 646.50Q484 671 416 671Q326 671 255.50 630.50Q185 590 145 519Q105 448 105 357Q105 292 128 235Q151 178 192.50 135Q234 92 291 67.50Q348 43 416 43M279 138L279 575L407 575Q489 575 527 542.50Q565 510 565 446Q565 399 541 371.50Q517 344 487 332L603 138L517 138L417 311L355 311L355 138L279 138M355 373L405 373Q444 373 466 392.50Q488 412 488 444Q488 479 468 495Q448 511 404 511L355 511L355 373Z"  horiz-adv-x="832" vert-adv-y="1000"  />

      
      <glyph glyph-name="uniaf" unicode="&#xaf;" d="M503 760L-3 760L-3 826L503 826L503 760Z"  horiz-adv-x="500" vert-adv-y="1000"  />

      
      <glyph glyph-name="unib0" unicode="&#xb0;" d="M214 417Q142 417 98.50 459.50Q55 502 55 570Q55 638 97.50 681Q140 724 214 724Q284 724 328.50 681Q373 638 373 570Q373 502 328.50 459.50Q284 417 214 417M215 476Q263 476 285.50 502Q308 528 308 570Q308 614 284.50 640Q261 666 215 666Q166 666 143 640Q120 614 120 570Q120 528 143 502Q166 476 215 476Z"  horiz-adv-x="428" vert-adv-y="1000"  />

      
      <glyph glyph-name="unib1" unicode="&#xb1;" d="M321 391L520 391L520 320L321 320L321 114L249 114L249 320L50 320L50 391L249 391L249 598L321 598L321 391M50 0L50 71L521 71L521 0L50 0Z"  horiz-adv-x="572" vert-adv-y="1000"  />

      
      <glyph glyph-name="unib2" unicode="&#xb2;" d="M306 416L24 416L24 470L139 582Q180 621 200.50 645.50Q221 670 228.50 689Q236 708 236 731Q236 762 217.50 778.50Q199 795 169 795Q139 795 114.50 783.50Q90 772 64 752L29 798Q58 823 92.50 838Q127 853 170 853Q234 853 270.50 821.50Q307 790 307 735Q307 686 277.50 647Q248 608 192 555L111 478L306 478L306 416Z"  horiz-adv-x="350" vert-adv-y="1000"  />

      
      <glyph glyph-name="unib3" unicode="&#xb3;" d="M165 853Q236 853 272 822Q308 791 308 743Q308 702 286.50 676.50Q265 651 235 641L235 638Q274 630 297.50 605Q321 580 321 539Q321 481 278.50 444.50Q236 408 148 408Q111 408 79 414.50Q47 421 17 436L17 499Q87 465 149 465Q201 465 225 485.50Q249 506 249 541Q249 577 220 593.50Q191 610 139 610L82 610L82 665L139 665Q189 665 212.50 684.50Q236 704 236 735Q236 766 215.50 781Q195 796 166 796Q135 796 108.50 785.50Q82 775 55 758L19 804Q50 826 84 839.50Q118 853 165 853Z"  horiz-adv-x="350" vert-adv-y="1000"  />

      
      <glyph glyph-name="unib4" unicode="&#xb4;" d="M241 766L241 756Q228 738 203.50 709.50Q179 681 150.50 652.50Q122 624 98 606L40 606L40 618Q54 636 72 662.50Q90 689 107 716.50Q124 744 135 766L241 766Z"  horiz-adv-x="281" vert-adv-y="1000"  />

      
      <glyph glyph-name="unib5" unicode="&#xb5;" d="M538 536L538 0L467 0L453 72L448 72Q422 32 382.50 11Q343-10 287-10Q248-10 220 2.50Q192 15 172 35L168 35Q170 17 171.50-13.50Q173-44 173-84L173-240L85-240L85 536L173 536L173 190Q173 63 293 63Q382 63 416 113Q450 163 450 257L450 536L538 536Z"  horiz-adv-x="623" vert-adv-y="1000"  />

      
      <glyph glyph-name="unib6" unicode="&#xb6;" d="M549-127L491-127L491 704L389 704L389-127L331-127L331 273Q316 268 296.50 266Q277 264 260 264Q198 264 152 287Q106 310 80.50 364Q55 418 55 509Q55 604 82.50 659Q110 714 160 737Q210 760 275 760L549 760L549-127Z"  horiz-adv-x="655" vert-adv-y="1000"  />

      
      <glyph glyph-name="unib7" unicode="&#xb7;" d="M72 353Q72 390 90 405Q108 420 133 420Q158 420 177 405Q196 390 196 353Q196 317 177 301Q158 285 133 285Q108 285 90 301Q72 317 72 353Z"  horiz-adv-x="268" vert-adv-y="1000"  />

      
      <glyph glyph-name="unib8" unicode="&#xb8;" d="M212-139Q212-187 175-213.50Q138-240 64-240Q32-240 14-235L14-180Q23-182 38-183.50Q53-185 67-185Q103-185 122-175.50Q141-166 141-141Q141-115 114.50-103Q88-91 50-86L93 0L151 0L125-53Q161-61 186.50-81Q212-101 212-139Z"  horiz-adv-x="225" vert-adv-y="1000"  />

      
      <glyph glyph-name="unib9" unicode="&#xb9;" d="M240 844L240 416L169 416L169 692Q169 718 170.50 739Q172 760 173 781Q163 772 151 761.50Q139 751 126 742L72 703L37 752L167 844L240 844Z"  horiz-adv-x="350" vert-adv-y="1000"  />

      
      <glyph glyph-name="uniba" unicode="&#xba;" d="M345 553Q345 472 302 427.50Q259 383 187 383Q120 383 76 426.50Q32 470 32 553Q32 635 74 678.50Q116 722 189 722Q260 722 302.50 679Q345 636 345 553M95 553Q95 494 116.50 465Q138 436 188 436Q237 436 259 465Q281 494 281 553Q281 612 259 640.50Q237 669 188 669Q139 669 117 640.50Q95 612 95 553Z"  horiz-adv-x="376" vert-adv-y="1000"  />

      
      <glyph glyph-name="unibb" unicode="&#xbb;" d="M469 257L299 56L237 93L377 264L237 435L299 471L469 270L469 257M270 257L101 56L39 93L179 264L39 435L101 471L270 270L270 257Z"  horiz-adv-x="509" vert-adv-y="1000"  />

      
      <glyph glyph-name="unibc" unicode="&#xbc;" d="M126 0L562 714L637 714L201 0L126 0M166 286L166 562Q166 588 167 609Q168 630 170 651Q160 642 148 631.50Q136 621 123 612L69 573L34 622L164 714L237 714L237 286L166 286M600 0L600 96L405 96L405 148L602 431L675 431L675 156L736 156L736 96L675 96L675 0L600 0M475 156L600 156L600 249Q600 270 601 298Q602 326 603 350Q598 339 582 314.50Q566 290 555 273L475 156Z"  horiz-adv-x="745" vert-adv-y="1000"  />

      
      <glyph glyph-name="unibd" unicode="&#xbd;" d="M96 0L532 714L607 714L171 0L96 0M154 286L154 562Q154 588 155 609Q156 630 158 651Q148 642 136 631.50Q124 621 111 612L57 573L22 622L152 714L225 714L225 286L154 286M445 0L445 54L560 166Q600 205 621 229.50Q642 254 649.50 273Q657 292 657 315Q657 346 638.50 362.50Q620 379 590 379Q560 379 535 367.50Q510 356 485 336L450 382Q479 407 513.50 422Q548 437 591 437Q655 437 691.50 405.50Q728 374 728 319Q728 270 698 231Q668 192 613 139L532 62L727 62L727 0L445 0Z"  horiz-adv-x="771" vert-adv-y="1000"  />

      
      <glyph glyph-name="unibe" unicode="&#xbe;" d="M146 278Q109 278 77 284.50Q45 291 15 306L15 369Q85 335 147 335Q199 335 223 355.50Q247 376 247 411Q247 447 218 463.50Q189 480 137 480L80 480L80 535L137 535Q187 535 210.50 554.50Q234 574 234 605Q234 636 213.50 651Q193 666 164 666Q133 666 106.50 655.50Q80 645 53 628L17 674Q48 696 82 709.50Q116 723 163 723Q234 723 270 692Q306 661 306 613Q306 572 284.50 546.50Q263 521 233 511L233 508Q272 500 295.50 475Q319 450 319 409Q319 351 276.50 314.50Q234 278 146 278M170 0L606 714L681 714L245 0L170 0M636 0L636 96L441 96L441 148L638 431L711 431L711 156L772 156L772 96L711 96L711 0L636 0M511 156L636 156L636 249Q636 270 637 298Q638 326 639 350Q634 339 618 314.50Q602 290 591 273L511 156Z"  horiz-adv-x="781" vert-adv-y="1000"  />

      
      <glyph glyph-name="unibf" unicode="&#xbf;" d="M292 331L292 304Q292 266 284.50 238.50Q277 211 258.50 186.50Q240 162 208 134Q170 102 148 79.50Q126 57 117 36Q108 15 108-15Q108-63 139-89Q170-115 229-115Q278-115 316-102.50Q354-90 389-73L420-143Q380-164 331.50-178Q283-192 223-192Q128-192 76-145Q24-98 24-17Q24 28 38.50 59.50Q53 91 79.50 117.50Q106 144 142 174Q176 202 193 223Q210 244 216 265Q222 286 222 314L222 331L292 331M315 478Q315 441 297.50 426Q280 411 253 411Q228 411 210 426Q192 441 192 478Q192 514 210 530Q228 546 253 546Q280 546 297.50 530Q315 514 315 478Z"  horiz-adv-x="434" vert-adv-y="1000"  />

      
      <glyph glyph-name="unic0" unicode="&#xc0;" d="M545 0L459 221L176 221L91 0L0 0L279 717L360 717L638 0L545 0M432 301L352 517Q349 525 342 546Q335 567 328.50 589.50Q322 612 318 624Q310 593 301.50 563.50Q293 534 287 517L206 301L432 301M292 944Q303 922 319.50 894.50Q336 867 354.50 840.50Q373 814 388 796L388 784L329 784Q306 802 277 830.50Q248 859 223.50 887.50Q199 916 187 934L187 944L292 944Z"  horiz-adv-x="639" vert-adv-y="1000"  />

      
      <glyph glyph-name="unic1" unicode="&#xc1;" d="M545 0L459 221L176 221L91 0L0 0L279 717L360 717L638 0L545 0M432 301L352 517Q349 525 342 546Q335 567 328.50 589.50Q322 612 318 624Q310 593 301.50 563.50Q293 534 287 517L206 301L432 301M459 944L459 934Q446 916 421.50 887.50Q397 859 368.50 830.50Q340 802 316 784L258 784L258 796Q272 814 290 840.50Q308 867 325 894.50Q342 922 353 944L459 944Z"  horiz-adv-x="639" vert-adv-y="1000"  />

      
      <glyph glyph-name="unic2" unicode="&#xc2;" d="M545 0L459 221L176 221L91 0L0 0L279 717L360 717L638 0L545 0M432 301L352 517Q349 525 342 546Q335 567 328.50 589.50Q322 612 318 624Q310 593 301.50 563.50Q293 534 287 517L206 301L432 301M364 944Q376 922 398.50 894.50Q421 867 445.50 840.50Q470 814 489 795L489 784L427 784Q401 800 373 823.50Q345 847 318 874Q291 847 264 823.50Q237 800 211 784L151 784L151 795Q169 814 193 840.50Q217 867 239 894.50Q261 922 274 944L364 944Z"  horiz-adv-x="639" vert-adv-y="1000"  />

      
      <glyph glyph-name="unic3" unicode="&#xc3;" d="M545 0L459 221L176 221L91 0L0 0L279 717L360 717L638 0L545 0M432 301L352 517Q349 525 342 546Q335 567 328.50 589.50Q322 612 318 624Q310 593 301.50 563.50Q293 534 287 517L206 301L432 301M134 784Q140 843 168.50 877.50Q197 912 244 912Q274 912 300.50 897.50Q327 883 351 869Q375 855 396 855Q419 855 431.50 869.50Q444 884 451 913L501 913Q495 854 467 819.50Q439 785 392 785Q364 785 337.50 799Q311 813 286.50 827.50Q262 842 240 842Q216 842 204 827.50Q192 813 185 784L134 784Z"  horiz-adv-x="639" vert-adv-y="1000"  />

      
      <glyph glyph-name="unic4" unicode="&#xc4;" d="M545 0L459 221L176 221L91 0L0 0L279 717L360 717L638 0L545 0M432 301L352 517Q349 525 342 546Q335 567 328.50 589.50Q322 612 318 624Q310 593 301.50 563.50Q293 534 287 517L206 301L432 301M177 859Q177 885 190.50 896.50Q204 908 224 908Q243 908 257 896.50Q271 885 271 859Q271 834 257 821.50Q243 809 224 809Q204 809 190.50 821.50Q177 834 177 859M365 859Q365 885 378.50 896.50Q392 908 411 908Q430 908 444 896.50Q458 885 458 859Q458 834 444 821.50Q430 809 411 809Q392 809 378.50 821.50Q365 834 365 859Z"  horiz-adv-x="639" vert-adv-y="1000"  />

      
      <glyph glyph-name="unic5" unicode="&#xc5;" d="M545 0L459 221L176 221L91 0L0 0L279 717L360 717L638 0L545 0M432 301L352 517Q349 525 342 546Q335 567 328.50 589.50Q322 612 318 624Q310 593 301.50 563.50Q293 534 287 517L206 301L432 301M317 667Q268 667 238 695Q208 723 208 773Q208 823 238 850.50Q268 878 317 878Q364 878 396 850.50Q428 823 428 774Q428 723 396.50 695Q365 667 317 667M317 717Q342 717 357.50 732Q373 747 373 773Q373 799 357 814Q341 829 317 829Q293 829 277 814Q261 799 261 773Q261 747 275.50 732Q290 717 317 717Z"  horiz-adv-x="639" vert-adv-y="1000"  />

      
      <glyph glyph-name="unic6" unicode="&#xc6;" d="M821 0L449 0L449 221L199 221L92 0L-1 0L338 714L821 714L821 635L539 635L539 412L802 412L802 334L539 334L539 79L821 79L821 0M234 301L449 301L449 634L391 634L234 301Z"  horiz-adv-x="881" vert-adv-y="1000"  />

      
      <glyph glyph-name="unic7" unicode="&#xc7;" d="M403 645Q288 645 222 568Q156 491 156 357Q156 224 217.50 146.50Q279 69 402 69Q448 69 490 77Q532 85 573 97L573 19Q533 4 490.50-3Q448-10 389-10Q280-10 207 35Q134 80 97.50 163Q61 246 61 358Q61 466 100.50 548.50Q140 631 217 677.50Q294 724 404 724Q517 724 601 682L565 606Q532 621 491.50 633Q451 645 403 645M473-139Q473-187 436-213.50Q399-240 325-240Q293-240 275-235L275-180Q284-182 299-183.50Q314-185 328-185Q364-185 383-175.50Q402-166 402-141Q402-115 375.50-103Q349-91 311-86L354 0L412 0L386-53Q422-61 447.50-81Q473-101 473-139Z"  horiz-adv-x="632" vert-adv-y="1000"  />

      
      <glyph glyph-name="unic8" unicode="&#xc8;" d="M496 0L97 0L97 714L496 714L496 635L187 635L187 412L478 412L478 334L187 334L187 79L496 79L496 0M279 944Q290 922 306.50 894.50Q323 867 341.50 840.50Q360 814 375 796L375 784L316 784Q293 802 264 830.50Q235 859 210.50 887.50Q186 916 174 934L174 944L279 944Z"  horiz-adv-x="556" vert-adv-y="1000"  />

      
      <glyph glyph-name="unic9" unicode="&#xc9;" d="M496 0L97 0L97 714L496 714L496 635L187 635L187 412L478 412L478 334L187 334L187 79L496 79L496 0M446 944L446 934Q433 916 408.50 887.50Q384 859 355.50 830.50Q327 802 303 784L245 784L245 796Q259 814 277 840.50Q295 867 312 894.50Q329 922 340 944L446 944Z"  horiz-adv-x="556" vert-adv-y="1000"  />

      
      <glyph glyph-name="unica" unicode="&#xca;" d="M496 0L97 0L97 714L496 714L496 635L187 635L187 412L478 412L478 334L187 334L187 79L496 79L496 0M351 944Q363 922 385.50 894.50Q408 867 432.50 840.50Q457 814 476 795L476 784L414 784Q388 800 360 823.50Q332 847 305 874Q278 847 251 823.50Q224 800 198 784L138 784L138 795Q156 814 180 840.50Q204 867 226 894.50Q248 922 261 944L351 944Z"  horiz-adv-x="556" vert-adv-y="1000"  />

      
      <glyph glyph-name="unicb" unicode="&#xcb;" d="M496 0L97 0L97 714L496 714L496 635L187 635L187 412L478 412L478 334L187 334L187 79L496 79L496 0M164 859Q164 885 177.50 896.50Q191 908 211 908Q230 908 244 896.50Q258 885 258 859Q258 834 244 821.50Q230 809 211 809Q191 809 177.50 821.50Q164 834 164 859M352 859Q352 885 365.50 896.50Q379 908 398 908Q417 908 431 896.50Q445 885 445 859Q445 834 431 821.50Q417 809 398 809Q379 809 365.50 821.50Q352 834 352 859Z"  horiz-adv-x="556" vert-adv-y="1000"  />

      
      <glyph glyph-name="unicc" unicode="&#xcc;" d="M298 0L40 0L40 52L124 71L124 642L40 662L40 714L298 714L298 662L214 642L214 71L298 52L298 0M144 944Q155 922 171.50 894.50Q188 867 206.50 840.50Q225 814 240 796L240 784L181 784Q158 802 129 830.50Q100 859 75.50 887.50Q51 916 39 934L39 944L144 944Z"  horiz-adv-x="339" vert-adv-y="1000"  />

      
      <glyph glyph-name="unicd" unicode="&#xcd;" d="M298 0L40 0L40 52L124 71L124 642L40 662L40 714L298 714L298 662L214 642L214 71L298 52L298 0M311 944L311 934Q298 916 273.50 887.50Q249 859 220.50 830.50Q192 802 168 784L110 784L110 796Q124 814 142 840.50Q160 867 177 894.50Q194 922 205 944L311 944Z"  horiz-adv-x="339" vert-adv-y="1000"  />

      
      <glyph glyph-name="unice" unicode="&#xce;" d="M298 0L40 0L40 52L124 71L124 642L40 662L40 714L298 714L298 662L214 642L214 71L298 52L298 0M216 944Q228 922 250.50 894.50Q273 867 297.50 840.50Q322 814 341 795L341 784L279 784Q253 800 225 823.50Q197 847 170 874Q143 847 116 823.50Q89 800 63 784L3 784L3 795Q21 814 45 840.50Q69 867 91 894.50Q113 922 126 944L216 944Z"  horiz-adv-x="339" vert-adv-y="1000"  />

      
      <glyph glyph-name="unicf" unicode="&#xcf;" d="M298 0L40 0L40 52L124 71L124 642L40 662L40 714L298 714L298 662L214 642L214 71L298 52L298 0M29 859Q29 885 42.50 896.50Q56 908 76 908Q95 908 109 896.50Q123 885 123 859Q123 834 109 821.50Q95 809 76 809Q56 809 42.50 821.50Q29 834 29 859M217 859Q217 885 230.50 896.50Q244 908 263 908Q282 908 296 896.50Q310 885 310 859Q310 834 296 821.50Q282 809 263 809Q244 809 230.50 821.50Q217 834 217 859Z"  horiz-adv-x="339" vert-adv-y="1000"  />

      
      <glyph glyph-name="unid0" unicode="&#xd0;" d="M317 714Q424 714 503 674Q582 634 625.50 556Q669 478 669 364Q669 183 570.50 91.50Q472 0 295 0L104 0L104 314L30 314L30 392L104 392L104 714L317 714M304 637L194 637L194 392L372 392L372 314L194 314L194 77L284 77Q574 77 574 361Q574 504 503 570.50Q432 637 304 637Z"  horiz-adv-x="730" vert-adv-y="1000"  />

      
      <glyph glyph-name="unid1" unicode="&#xd1;" d="M663 0L558 0L176 593L172 593Q174 558 177 506Q180 454 180 399L180 0L97 0L97 714L201 714L582 123L586 123Q585 139 583.50 171Q582 203 580.50 240.50Q579 278 579 311L579 714L663 714L663 0M196 784Q202 843 230.50 877.50Q259 912 306 912Q336 912 362.50 897.50Q389 883 413 869Q437 855 458 855Q481 855 493.50 869.50Q506 884 513 913L563 913Q557 854 529 819.50Q501 785 454 785Q426 785 399.50 799Q373 813 348.50 827.50Q324 842 302 842Q278 842 266 827.50Q254 813 247 784L196 784Z"  horiz-adv-x="760" vert-adv-y="1000"  />

      
      <glyph glyph-name="unid2" unicode="&#xd2;" d="M720 358Q720 247 682.50 164.50Q645 82 571.50 36Q498-10 391-10Q280-10 206.50 36Q133 82 97 165Q61 248 61 359Q61 468 97 550.50Q133 633 206.50 679Q280 725 392 725Q499 725 572 679.50Q645 634 682.50 551.50Q720 469 720 358M156 358Q156 223 213 145.50Q270 68 391 68Q512 68 568.50 145.50Q625 223 625 358Q625 493 569 569.50Q513 646 392 646Q270 646 213 569.50Q156 493 156 358M365 944Q376 922 392.50 894.50Q409 867 427.50 840.50Q446 814 461 796L461 784L402 784Q379 802 350 830.50Q321 859 296.50 887.50Q272 916 260 934L260 944L365 944Z"  horiz-adv-x="781" vert-adv-y="1000"  />

      
      <glyph glyph-name="unid3" unicode="&#xd3;" d="M720 358Q720 247 682.50 164.50Q645 82 571.50 36Q498-10 391-10Q280-10 206.50 36Q133 82 97 165Q61 248 61 359Q61 468 97 550.50Q133 633 206.50 679Q280 725 392 725Q499 725 572 679.50Q645 634 682.50 551.50Q720 469 720 358M156 358Q156 223 213 145.50Q270 68 391 68Q512 68 568.50 145.50Q625 223 625 358Q625 493 569 569.50Q513 646 392 646Q270 646 213 569.50Q156 493 156 358M532 944L532 934Q519 916 494.50 887.50Q470 859 441.50 830.50Q413 802 389 784L331 784L331 796Q345 814 363 840.50Q381 867 398 894.50Q415 922 426 944L532 944Z"  horiz-adv-x="781" vert-adv-y="1000"  />

      
      <glyph glyph-name="unid4" unicode="&#xd4;" d="M720 358Q720 247 682.50 164.50Q645 82 571.50 36Q498-10 391-10Q280-10 206.50 36Q133 82 97 165Q61 248 61 359Q61 468 97 550.50Q133 633 206.50 679Q280 725 392 725Q499 725 572 679.50Q645 634 682.50 551.50Q720 469 720 358M156 358Q156 223 213 145.50Q270 68 391 68Q512 68 568.50 145.50Q625 223 625 358Q625 493 569 569.50Q513 646 392 646Q270 646 213 569.50Q156 493 156 358M437 944Q449 922 471.50 894.50Q494 867 518.50 840.50Q543 814 562 795L562 784L500 784Q474 800 446 823.50Q418 847 391 874Q364 847 337 823.50Q310 800 284 784L224 784L224 795Q242 814 266 840.50Q290 867 312 894.50Q334 922 347 944L437 944Z"  horiz-adv-x="781" vert-adv-y="1000"  />

      
      <glyph glyph-name="unid5" unicode="&#xd5;" d="M720 358Q720 247 682.50 164.50Q645 82 571.50 36Q498-10 391-10Q280-10 206.50 36Q133 82 97 165Q61 248 61 359Q61 468 97 550.50Q133 633 206.50 679Q280 725 392 725Q499 725 572 679.50Q645 634 682.50 551.50Q720 469 720 358M156 358Q156 223 213 145.50Q270 68 391 68Q512 68 568.50 145.50Q625 223 625 358Q625 493 569 569.50Q513 646 392 646Q270 646 213 569.50Q156 493 156 358M207 784Q213 843 241.50 877.50Q270 912 317 912Q347 912 373.50 897.50Q400 883 424 869Q448 855 469 855Q492 855 504.50 869.50Q517 884 524 913L574 913Q568 854 540 819.50Q512 785 465 785Q437 785 410.50 799Q384 813 359.50 827.50Q335 842 313 842Q289 842 277 827.50Q265 813 258 784L207 784Z"  horiz-adv-x="781" vert-adv-y="1000"  />

      
      <glyph glyph-name="unid6" unicode="&#xd6;" d="M720 358Q720 247 682.50 164.50Q645 82 571.50 36Q498-10 391-10Q280-10 206.50 36Q133 82 97 165Q61 248 61 359Q61 468 97 550.50Q133 633 206.50 679Q280 725 392 725Q499 725 572 679.50Q645 634 682.50 551.50Q720 469 720 358M156 358Q156 223 213 145.50Q270 68 391 68Q512 68 568.50 145.50Q625 223 625 358Q625 493 569 569.50Q513 646 392 646Q270 646 213 569.50Q156 493 156 358M250 859Q250 885 263.50 896.50Q277 908 297 908Q316 908 330 896.50Q344 885 344 859Q344 834 330 821.50Q316 809 297 809Q277 809 263.50 821.50Q250 834 250 859M438 859Q438 885 451.50 896.50Q465 908 484 908Q503 908 517 896.50Q531 885 531 859Q531 834 517 821.50Q503 809 484 809Q465 809 451.50 821.50Q438 834 438 859Z"  horiz-adv-x="781" vert-adv-y="1000"  />

      
      <glyph glyph-name="unid7" unicode="&#xd7;" d="M456 574L506 523L336 353L505 183L455 132L284 301L117 132L65 183L234 353L64 522L116 574L285 403L456 574Z"  horiz-adv-x="572" vert-adv-y="1000"  />

      
      <glyph glyph-name="unid8" unicode="&#xd8;" d="M720 358Q720 247 682.50 164.50Q645 82 571.50 36Q498-10 391-10Q279-10 206 37L158-31L97 9L149 83Q105 132 83 202Q61 272 61 359Q61 468 97 550.50Q133 633 206.50 679Q280 725 392 725Q444 725 488.50 713Q533 701 570 680L616 746L677 705L626 634Q720 535 720 358M156 358Q156 296 167.50 246.50Q179 197 203 160L522 611Q470 646 392 646Q270 646 213 569.50Q156 493 156 358M625 358Q625 486 574 560L254 106Q280 88 314.50 78Q349 68 391 68Q512 68 568.50 145.50Q625 223 625 358Z"  horiz-adv-x="781" vert-adv-y="1000"  />

      
      <glyph glyph-name="unid9" unicode="&#xd9;" d="M640 714L640 252Q640 178 610 118.50Q580 59 518 24.50Q456-10 362-10Q228-10 159 62.50Q90 135 90 254L90 714L180 714L180 251Q180 164 226.50 116Q273 68 367 68Q464 68 507.50 119.50Q551 171 551 252L551 714L640 714M340 944Q351 922 367.50 894.50Q384 867 402.50 840.50Q421 814 436 796L436 784L377 784Q354 802 325 830.50Q296 859 271.50 887.50Q247 916 235 934L235 944L340 944Z"  horiz-adv-x="731" vert-adv-y="1000"  />

      
      <glyph glyph-name="unida" unicode="&#xda;" d="M640 714L640 252Q640 178 610 118.50Q580 59 518 24.50Q456-10 362-10Q228-10 159 62.50Q90 135 90 254L90 714L180 714L180 251Q180 164 226.50 116Q273 68 367 68Q464 68 507.50 119.50Q551 171 551 252L551 714L640 714M507 944L507 934Q494 916 469.50 887.50Q445 859 416.50 830.50Q388 802 364 784L306 784L306 796Q320 814 338 840.50Q356 867 373 894.50Q390 922 401 944L507 944Z"  horiz-adv-x="731" vert-adv-y="1000"  />

      
      <glyph glyph-name="unidb" unicode="&#xdb;" d="M640 714L640 252Q640 178 610 118.50Q580 59 518 24.50Q456-10 362-10Q228-10 159 62.50Q90 135 90 254L90 714L180 714L180 251Q180 164 226.50 116Q273 68 367 68Q464 68 507.50 119.50Q551 171 551 252L551 714L640 714M412 944Q424 922 446.50 894.50Q469 867 493.50 840.50Q518 814 537 795L537 784L475 784Q449 800 421 823.50Q393 847 366 874Q339 847 312 823.50Q285 800 259 784L199 784L199 795Q217 814 241 840.50Q265 867 287 894.50Q309 922 322 944L412 944Z"  horiz-adv-x="731" vert-adv-y="1000"  />

      
      <glyph glyph-name="unidc" unicode="&#xdc;" d="M640 714L640 252Q640 178 610 118.50Q580 59 518 24.50Q456-10 362-10Q228-10 159 62.50Q90 135 90 254L90 714L180 714L180 251Q180 164 226.50 116Q273 68 367 68Q464 68 507.50 119.50Q551 171 551 252L551 714L640 714M225 859Q225 885 238.50 896.50Q252 908 272 908Q291 908 305 896.50Q319 885 319 859Q319 834 305 821.50Q291 809 272 809Q252 809 238.50 821.50Q225 834 225 859M413 859Q413 885 426.50 896.50Q440 908 459 908Q478 908 492 896.50Q506 885 506 859Q506 834 492 821.50Q478 809 459 809Q440 809 426.50 821.50Q413 834 413 859Z"  horiz-adv-x="731" vert-adv-y="1000"  />

      
      <glyph glyph-name="unidd" unicode="&#xdd;" d="M283 363L469 714L566 714L328 277L328 0L238 0L238 273L0 714L98 714L283 363M424 944L424 934Q411 916 386.50 887.50Q362 859 333.50 830.50Q305 802 281 784L223 784L223 796Q237 814 255 840.50Q273 867 290 894.50Q307 922 318 944L424 944Z"  horiz-adv-x="566" vert-adv-y="1000"  />

      
      <glyph glyph-name="unide" unicode="&#xde;" d="M554 382Q554 322 528 270Q502 218 439.50 186.50Q377 155 268 155L187 155L187 0L97 0L97 714L187 714L187 590L283 590Q428 590 491 535Q554 480 554 382M187 231L259 231Q364 231 412.50 264.50Q461 298 461 377Q461 446 417.50 479.50Q374 513 276 513L187 513L187 231Z"  horiz-adv-x="605" vert-adv-y="1000"  />

      
      <glyph glyph-name="unidf" unicode="&#xdf;" d="M522 617Q522 583 508 557.50Q494 532 473 512.50Q452 493 431 477Q410 461 396 445.50Q382 430 382 412Q382 398 388.50 387.50Q395 377 414 362.50Q433 348 470 323Q524 287 555 249.50Q586 212 586 153Q586 68 534 29Q482-10 400-10Q353-10 317-1Q281 8 255 24L255 103Q280 87 318.50 74Q357 61 397 61Q452 61 476 84Q500 107 500 147Q500 183 479.50 207.50Q459 232 406 267Q343 308 320 337.50Q297 367 297 407Q297 438 310.50 460Q324 482 344.50 498.50Q365 515 385.50 531Q406 547 419.50 566Q433 585 433 612Q433 654 397.50 673Q362 692 306 692Q271 692 240.50 682.50Q210 673 191.50 649.50Q173 626 173 584L173 0L85 0L85 584Q85 651 114 690.50Q143 730 193 747.50Q243 765 306 765Q403 765 462.50 728Q522 691 522 617Z"  horiz-adv-x="631" vert-adv-y="1000"  />

      
      <glyph glyph-name="unie0" unicode="&#xe0;" d="M288 545Q386 545 433 502Q480 459 480 365L480 0L416 0L399 76L395 76Q360 32 321 11Q282-10 215-10Q142-10 94 28.50Q46 67 46 149Q46 229 109 272.50Q172 316 303 320L394 323L394 355Q394 422 365 448Q336 474 283 474Q241 474 203 461.50Q165 449 132 433L105 499Q140 518 188 531.50Q236 545 288 545M393 262L314 259Q214 255 175.50 227Q137 199 137 148Q137 103 164.50 82Q192 61 235 61Q302 61 347.50 98.50Q393 136 393 214L393 262M255 766Q266 744 282.50 716.50Q299 689 317.50 662.50Q336 636 351 618L351 606L292 606Q269 624 240 652.50Q211 681 186.50 709.50Q162 738 150 756L150 766L255 766Z"  horiz-adv-x="561" vert-adv-y="1000"  />

      
      <glyph glyph-name="unie1" unicode="&#xe1;" d="M288 545Q386 545 433 502Q480 459 480 365L480 0L416 0L399 76L395 76Q360 32 321 11Q282-10 215-10Q142-10 94 28.50Q46 67 46 149Q46 229 109 272.50Q172 316 303 320L394 323L394 355Q394 422 365 448Q336 474 283 474Q241 474 203 461.50Q165 449 132 433L105 499Q140 518 188 531.50Q236 545 288 545M393 262L314 259Q214 255 175.50 227Q137 199 137 148Q137 103 164.50 82Q192 61 235 61Q302 61 347.50 98.50Q393 136 393 214L393 262M422 766L422 756Q409 738 384.50 709.50Q360 681 331.50 652.50Q303 624 279 606L221 606L221 618Q235 636 253 662.50Q271 689 288 716.50Q305 744 316 766L422 766Z"  horiz-adv-x="561" vert-adv-y="1000"  />

      
      <glyph glyph-name="unie2" unicode="&#xe2;" d="M288 545Q386 545 433 502Q480 459 480 365L480 0L416 0L399 76L395 76Q360 32 321 11Q282-10 215-10Q142-10 94 28.50Q46 67 46 149Q46 229 109 272.50Q172 316 303 320L394 323L394 355Q394 422 365 448Q336 474 283 474Q241 474 203 461.50Q165 449 132 433L105 499Q140 518 188 531.50Q236 545 288 545M393 262L314 259Q214 255 175.50 227Q137 199 137 148Q137 103 164.50 82Q192 61 235 61Q302 61 347.50 98.50Q393 136 393 214L393 262M327 766Q339 744 361.50 716.50Q384 689 408.50 662.50Q433 636 452 617L452 606L390 606Q364 622 336 645.50Q308 669 281 696Q254 669 227 645.50Q200 622 174 606L114 606L114 617Q132 636 156 662.50Q180 689 202 716.50Q224 744 237 766L327 766Z"  horiz-adv-x="561" vert-adv-y="1000"  />

      
      <glyph glyph-name="unie3" unicode="&#xe3;" d="M288 545Q386 545 433 502Q480 459 480 365L480 0L416 0L399 76L395 76Q360 32 321 11Q282-10 215-10Q142-10 94 28.50Q46 67 46 149Q46 229 109 272.50Q172 316 303 320L394 323L394 355Q394 422 365 448Q336 474 283 474Q241 474 203 461.50Q165 449 132 433L105 499Q140 518 188 531.50Q236 545 288 545M393 262L314 259Q214 255 175.50 227Q137 199 137 148Q137 103 164.50 82Q192 61 235 61Q302 61 347.50 98.50Q393 136 393 214L393 262M97 606Q103 665 131.50 699.50Q160 734 207 734Q237 734 263.50 719.50Q290 705 314 691Q338 677 359 677Q382 677 394.50 691.50Q407 706 414 735L464 735Q458 676 430 641.50Q402 607 355 607Q327 607 300.50 621Q274 635 249.50 649.50Q225 664 203 664Q179 664 167 649.50Q155 635 148 606L97 606Z"  horiz-adv-x="561" vert-adv-y="1000"  />

      
      <glyph glyph-name="unie4" unicode="&#xe4;" d="M288 545Q386 545 433 502Q480 459 480 365L480 0L416 0L399 76L395 76Q360 32 321 11Q282-10 215-10Q142-10 94 28.50Q46 67 46 149Q46 229 109 272.50Q172 316 303 320L394 323L394 355Q394 422 365 448Q336 474 283 474Q241 474 203 461.50Q165 449 132 433L105 499Q140 518 188 531.50Q236 545 288 545M393 262L314 259Q214 255 175.50 227Q137 199 137 148Q137 103 164.50 82Q192 61 235 61Q302 61 347.50 98.50Q393 136 393 214L393 262M140 681Q140 707 153.50 718.50Q167 730 187 730Q206 730 220 718.50Q234 707 234 681Q234 656 220 643.50Q206 631 187 631Q167 631 153.50 643.50Q140 656 140 681M328 681Q328 707 341.50 718.50Q355 730 374 730Q393 730 407 718.50Q421 707 421 681Q421 656 407 643.50Q393 631 374 631Q355 631 341.50 643.50Q328 656 328 681Z"  horiz-adv-x="561" vert-adv-y="1000"  />

      
      <glyph glyph-name="unie5" unicode="&#xe5;" d="M288 545Q386 545 433 502Q480 459 480 365L480 0L416 0L399 76L395 76Q360 32 321 11Q282-10 215-10Q142-10 94 28.50Q46 67 46 149Q46 229 109 272.50Q172 316 303 320L394 323L394 355Q394 422 365 448Q336 474 283 474Q241 474 203 461.50Q165 449 132 433L105 499Q140 518 188 531.50Q236 545 288 545M393 262L314 259Q214 255 175.50 227Q137 199 137 148Q137 103 164.50 82Q192 61 235 61Q302 61 347.50 98.50Q393 136 393 214L393 262M282 606Q233 606 203 634Q173 662 173 712Q173 762 203 789.50Q233 817 282 817Q329 817 361 789.50Q393 762 393 713Q393 662 361.50 634Q330 606 282 606M282 656Q307 656 322.50 671Q338 686 338 712Q338 738 322 753Q306 768 282 768Q258 768 242 753Q226 738 226 712Q226 686 240.50 671Q255 656 282 656Z"  horiz-adv-x="561" vert-adv-y="1000"  />

      
      <glyph glyph-name="unie6" unicode="&#xe6;" d="M603 546Q668 546 715 516Q762 486 787.50 432Q813 378 813 306L813 252L470 252Q472 156 511.50 110.50Q551 65 625 65Q674 65 712.50 74.50Q751 84 789 102L789 25Q749 7 710.50-1.50Q672-10 622-10Q481-10 419 103Q384 51 338.50 20.50Q293-10 216-10Q143-10 94.50 28.50Q46 67 46 149Q46 229 106 272.50Q166 316 290 320L380 323L380 357Q380 422 349.50 448Q319 474 268 474Q228 474 189.50 462Q151 450 118 433L91 499Q126 518 176 531.50Q226 545 275 545Q337 545 377.50 524.50Q418 504 439 459Q465 500 507 523Q549 546 603 546M602 474Q544 474 510.50 434.50Q477 395 472 321L720 321Q720 390 691.50 432Q663 474 602 474M378 262L303 259Q209 255 173 227Q137 199 137 148Q137 103 162.50 82Q188 61 230 61Q293 61 335.50 98.50Q378 136 378 214L378 262Z"  horiz-adv-x="864" vert-adv-y="1000"  />

      
      <glyph glyph-name="unie7" unicode="&#xe7;" d="M300-10Q228-10 173 19Q118 48 86.50 109Q55 170 55 265Q55 364 87.50 426Q120 488 177 517Q234 546 306 546Q346 546 384.50 537.50Q423 529 447 517L420 444Q396 453 364 461Q332 469 304 469Q146 469 146 266Q146 169 184.50 117.50Q223 66 299 66Q342 66 376 75Q410 84 438 97L438 19Q411 5 378.50-2.50Q346-10 300-10M382-139Q382-187 345-213.50Q308-240 234-240Q202-240 184-235L184-180Q193-182 208-183.50Q223-185 237-185Q273-185 292-175.50Q311-166 311-141Q311-115 284.50-103Q258-91 220-86L263 0L321 0L295-53Q331-61 356.50-81Q382-101 382-139Z"  horiz-adv-x="480" vert-adv-y="1000"  />

      
      <glyph glyph-name="unie8" unicode="&#xe8;" d="M292 546Q360 546 410 516Q460 486 486.50 431.50Q513 377 513 304L513 251L146 251Q148 160 192.50 112.50Q237 65 317 65Q368 65 407.50 74.50Q447 84 489 102L489 25Q448 7 408-1.50Q368-10 313-10Q236-10 178 21Q120 52 87.50 113Q55 174 55 264Q55 352 84.50 415Q114 478 167.50 512Q221 546 292 546M291 474Q228 474 191.50 433.50Q155 393 148 321L421 321Q420 389 389 431.50Q358 474 291 474M259 766Q270 744 286.50 716.50Q303 689 321.50 662.50Q340 636 355 618L355 606L296 606Q273 624 244 652.50Q215 681 190.50 709.50Q166 738 154 756L154 766L259 766Z"  horiz-adv-x="564" vert-adv-y="1000"  />

      
      <glyph glyph-name="unie9" unicode="&#xe9;" d="M292 546Q360 546 410 516Q460 486 486.50 431.50Q513 377 513 304L513 251L146 251Q148 160 192.50 112.50Q237 65 317 65Q368 65 407.50 74.50Q447 84 489 102L489 25Q448 7 408-1.50Q368-10 313-10Q236-10 178 21Q120 52 87.50 113Q55 174 55 264Q55 352 84.50 415Q114 478 167.50 512Q221 546 292 546M291 474Q228 474 191.50 433.50Q155 393 148 321L421 321Q420 389 389 431.50Q358 474 291 474M426 766L426 756Q413 738 388.50 709.50Q364 681 335.50 652.50Q307 624 283 606L225 606L225 618Q239 636 257 662.50Q275 689 292 716.50Q309 744 320 766L426 766Z"  horiz-adv-x="564" vert-adv-y="1000"  />

      
      <glyph glyph-name="uniea" unicode="&#xea;" d="M292 546Q360 546 410 516Q460 486 486.50 431.50Q513 377 513 304L513 251L146 251Q148 160 192.50 112.50Q237 65 317 65Q368 65 407.50 74.50Q447 84 489 102L489 25Q448 7 408-1.50Q368-10 313-10Q236-10 178 21Q120 52 87.50 113Q55 174 55 264Q55 352 84.50 415Q114 478 167.50 512Q221 546 292 546M291 474Q228 474 191.50 433.50Q155 393 148 321L421 321Q420 389 389 431.50Q358 474 291 474M331 766Q343 744 365.50 716.50Q388 689 412.50 662.50Q437 636 456 617L456 606L394 606Q368 622 340 645.50Q312 669 285 696Q258 669 231 645.50Q204 622 178 606L118 606L118 617Q136 636 160 662.50Q184 689 206 716.50Q228 744 241 766L331 766Z"  horiz-adv-x="564" vert-adv-y="1000"  />

      
      <glyph glyph-name="unieb" unicode="&#xeb;" d="M292 546Q360 546 410 516Q460 486 486.50 431.50Q513 377 513 304L513 251L146 251Q148 160 192.50 112.50Q237 65 317 65Q368 65 407.50 74.50Q447 84 489 102L489 25Q448 7 408-1.50Q368-10 313-10Q236-10 178 21Q120 52 87.50 113Q55 174 55 264Q55 352 84.50 415Q114 478 167.50 512Q221 546 292 546M291 474Q228 474 191.50 433.50Q155 393 148 321L421 321Q420 389 389 431.50Q358 474 291 474M144 681Q144 707 157.50 718.50Q171 730 191 730Q210 730 224 718.50Q238 707 238 681Q238 656 224 643.50Q210 631 191 631Q171 631 157.50 643.50Q144 656 144 681M332 681Q332 707 345.50 718.50Q359 730 378 730Q397 730 411 718.50Q425 707 425 681Q425 656 411 643.50Q397 631 378 631Q359 631 345.50 643.50Q332 656 332 681Z"  horiz-adv-x="564" vert-adv-y="1000"  />

      
      <glyph glyph-name="uniec" unicode="&#xec;" d="M173 0L85 0L85 536L173 536L173 0M103 766Q114 744 130.50 716.50Q147 689 165.50 662.50Q184 636 199 618L199 606L140 606Q117 624 88 652.50Q59 681 34.50 709.50Q10 738-2 756L-2 766L103 766Z"  horiz-adv-x="258" vert-adv-y="1000"  />

      
      <glyph glyph-name="unied" unicode="&#xed;" d="M173 0L85 0L85 536L173 536L173 0M270 766L270 756Q257 738 232.50 709.50Q208 681 179.50 652.50Q151 624 127 606L69 606L69 618Q83 636 101 662.50Q119 689 136 716.50Q153 744 164 766L270 766Z"  horiz-adv-x="258" vert-adv-y="1000"  />

      
      <glyph glyph-name="uniee" unicode="&#xee;" d="M173 0L85 0L85 536L173 536L173 0M175 766Q187 744 209.50 716.50Q232 689 256.50 662.50Q281 636 300 617L300 606L238 606Q212 622 184 645.50Q156 669 129 696Q102 669 75 645.50Q48 622 22 606L-38 606L-38 617Q-20 636 4 662.50Q28 689 50 716.50Q72 744 85 766L175 766Z"  horiz-adv-x="258" vert-adv-y="1000"  />

      
      <glyph glyph-name="unief" unicode="&#xef;" d="M173 0L85 0L85 536L173 536L173 0M-12 681Q-12 707 1.50 718.50Q15 730 35 730Q54 730 68 718.50Q82 707 82 681Q82 656 68 643.50Q54 631 35 631Q15 631 1.50 643.50Q-12 656-12 681M176 681Q176 707 189.50 718.50Q203 730 222 730Q241 730 255 718.50Q269 707 269 681Q269 656 255 643.50Q241 631 222 631Q203 631 189.50 643.50Q176 656 176 681Z"  horiz-adv-x="258" vert-adv-y="1000"  />

      
      <glyph glyph-name="unif0" unicode="&#xf0;" d="M216 765Q248 750 280.50 732Q313 714 342 693L457 760L495 706L396 649Q464 585 507.50 490.50Q551 396 551 275Q551 132 484 61Q417-10 301-10Q229-10 173.50 19.50Q118 49 86.50 103.50Q55 158 55 233Q55 345 118.50 409Q182 473 290 473Q342 473 382 459Q422 445 446 415L450 417Q434 474 401 522Q368 570 326 608L196 533L158 588L270 652Q249 666 226 679.50Q203 693 180 705L216 765M303 402Q219 402 181.50 357.50Q144 313 144 230Q144 156 182 109Q220 62 303 62Q386 62 424 110.50Q462 159 462 251Q462 313 423 357.50Q384 402 303 402Z"  horiz-adv-x="605" vert-adv-y="1000"  />

      
      <glyph glyph-name="unif1" unicode="&#xf1;" d="M343 546Q439 546 488 499Q537 452 537 349L537 0L450 0L450 343Q450 472 330 472Q241 472 207 422Q173 372 173 278L173 0L85 0L85 536L156 536L169 463L174 463Q200 505 246 525.50Q292 546 343 546M125 606Q131 665 159.50 699.50Q188 734 235 734Q265 734 291.50 719.50Q318 705 342 691Q366 677 387 677Q410 677 422.50 691.50Q435 706 442 735L492 735Q486 676 458 641.50Q430 607 383 607Q355 607 328.50 621Q302 635 277.50 649.50Q253 664 231 664Q207 664 195 649.50Q183 635 176 606L125 606Z"  horiz-adv-x="618" vert-adv-y="1000"  />

      
      <glyph glyph-name="unif2" unicode="&#xf2;" d="M551 269Q551 136 483.50 63Q416-10 301-10Q230-10 174.50 22.50Q119 55 87 117.50Q55 180 55 269Q55 402 121.50 474Q188 546 304 546Q376 546 432 513.50Q488 481 519.50 419.50Q551 358 551 269M146 269Q146 174 183.50 118.50Q221 63 303 63Q384 63 422 118.50Q460 174 460 269Q460 364 422 418Q384 472 302 472Q220 472 183 418Q146 364 146 269M277 766Q288 744 304.50 716.50Q321 689 339.50 662.50Q358 636 373 618L373 606L314 606Q291 624 262 652.50Q233 681 208.50 709.50Q184 738 172 756L172 766L277 766Z"  horiz-adv-x="605" vert-adv-y="1000"  />

      
      <glyph glyph-name="unif3" unicode="&#xf3;" d="M551 269Q551 136 483.50 63Q416-10 301-10Q230-10 174.50 22.50Q119 55 87 117.50Q55 180 55 269Q55 402 121.50 474Q188 546 304 546Q376 546 432 513.50Q488 481 519.50 419.50Q551 358 551 269M146 269Q146 174 183.50 118.50Q221 63 303 63Q384 63 422 118.50Q460 174 460 269Q460 364 422 418Q384 472 302 472Q220 472 183 418Q146 364 146 269M444 766L444 756Q431 738 406.50 709.50Q382 681 353.50 652.50Q325 624 301 606L243 606L243 618Q257 636 275 662.50Q293 689 310 716.50Q327 744 338 766L444 766Z"  horiz-adv-x="605" vert-adv-y="1000"  />

      
      <glyph glyph-name="unif4" unicode="&#xf4;" d="M551 269Q551 136 483.50 63Q416-10 301-10Q230-10 174.50 22.50Q119 55 87 117.50Q55 180 55 269Q55 402 121.50 474Q188 546 304 546Q376 546 432 513.50Q488 481 519.50 419.50Q551 358 551 269M146 269Q146 174 183.50 118.50Q221 63 303 63Q384 63 422 118.50Q460 174 460 269Q460 364 422 418Q384 472 302 472Q220 472 183 418Q146 364 146 269M349 766Q361 744 383.50 716.50Q406 689 430.50 662.50Q455 636 474 617L474 606L412 606Q386 622 358 645.50Q330 669 303 696Q276 669 249 645.50Q222 622 196 606L136 606L136 617Q154 636 178 662.50Q202 689 224 716.50Q246 744 259 766L349 766Z"  horiz-adv-x="605" vert-adv-y="1000"  />

      
      <glyph glyph-name="unif5" unicode="&#xf5;" d="M551 269Q551 136 483.50 63Q416-10 301-10Q230-10 174.50 22.50Q119 55 87 117.50Q55 180 55 269Q55 402 121.50 474Q188 546 304 546Q376 546 432 513.50Q488 481 519.50 419.50Q551 358 551 269M146 269Q146 174 183.50 118.50Q221 63 303 63Q384 63 422 118.50Q460 174 460 269Q460 364 422 418Q384 472 302 472Q220 472 183 418Q146 364 146 269M119 606Q125 665 153.50 699.50Q182 734 229 734Q259 734 285.50 719.50Q312 705 336 691Q360 677 381 677Q404 677 416.50 691.50Q429 706 436 735L486 735Q480 676 452 641.50Q424 607 377 607Q349 607 322.50 621Q296 635 271.50 649.50Q247 664 225 664Q201 664 189 649.50Q177 635 170 606L119 606Z"  horiz-adv-x="605" vert-adv-y="1000"  />

      
      <glyph glyph-name="unif6" unicode="&#xf6;" d="M551 269Q551 136 483.50 63Q416-10 301-10Q230-10 174.50 22.50Q119 55 87 117.50Q55 180 55 269Q55 402 121.50 474Q188 546 304 546Q376 546 432 513.50Q488 481 519.50 419.50Q551 358 551 269M146 269Q146 174 183.50 118.50Q221 63 303 63Q384 63 422 118.50Q460 174 460 269Q460 364 422 418Q384 472 302 472Q220 472 183 418Q146 364 146 269M162 681Q162 707 175.50 718.50Q189 730 209 730Q228 730 242 718.50Q256 707 256 681Q256 656 242 643.50Q228 631 209 631Q189 631 175.50 643.50Q162 656 162 681M350 681Q350 707 363.50 718.50Q377 730 396 730Q415 730 429 718.50Q443 707 443 681Q443 656 429 643.50Q415 631 396 631Q377 631 363.50 643.50Q350 656 350 681Z"  horiz-adv-x="605" vert-adv-y="1000"  />

      
      <glyph glyph-name="unif7" unicode="&#xf7;" d="M285 462Q262 462 245.50 476.50Q229 491 229 523Q229 557 245.50 570Q262 583 285 583Q308 583 324 570Q340 557 340 523Q340 491 324 476.50Q308 462 285 462M50 317L50 388L521 388L521 317L50 317M285 121Q262 121 245.50 135.50Q229 150 229 182Q229 216 245.50 229Q262 242 285 242Q308 242 324 229Q340 216 340 182Q340 150 324 135.50Q308 121 285 121Z"  horiz-adv-x="572" vert-adv-y="1000"  />

      
      <glyph glyph-name="unif8" unicode="&#xf8;" d="M551 269Q551 136 483.50 63Q416-10 301-10Q228-10 172 23L132-33L74 6L119 68Q88 104 71.50 154Q55 204 55 269Q55 402 121.50 474Q188 546 304 546Q377 546 435 510L474 566L533 528L488 465Q517 430 534 380.50Q551 331 551 269M146 269Q146 231 151.50 198.50Q157 166 170 141L390 447Q354 472 302 472Q220 472 183 418Q146 364 146 269M460 269Q460 343 437 392L217 86Q251 63 303 63Q384 63 422 118.50Q460 174 460 269Z"  horiz-adv-x="605" vert-adv-y="1000"  />

      
      <glyph glyph-name="unif9" unicode="&#xf9;" d="M533 536L533 0L461 0L448 71L444 71Q418 29 372 9.50Q326-10 274-10Q177-10 128 36.50Q79 83 79 185L79 536L168 536L168 191Q168 63 287 63Q376 63 410.50 113Q445 163 445 257L445 536L533 536M283 766Q294 744 310.50 716.50Q327 689 345.50 662.50Q364 636 379 618L379 606L320 606Q297 624 268 652.50Q239 681 214.50 709.50Q190 738 178 756L178 766L283 766Z"  horiz-adv-x="618" vert-adv-y="1000"  />

      
      <glyph glyph-name="unifa" unicode="&#xfa;" d="M533 536L533 0L461 0L448 71L444 71Q418 29 372 9.50Q326-10 274-10Q177-10 128 36.50Q79 83 79 185L79 536L168 536L168 191Q168 63 287 63Q376 63 410.50 113Q445 163 445 257L445 536L533 536M450 766L450 756Q437 738 412.50 709.50Q388 681 359.50 652.50Q331 624 307 606L249 606L249 618Q263 636 281 662.50Q299 689 316 716.50Q333 744 344 766L450 766Z"  horiz-adv-x="618" vert-adv-y="1000"  />

      
      <glyph glyph-name="unifb" unicode="&#xfb;" d="M533 536L533 0L461 0L448 71L444 71Q418 29 372 9.50Q326-10 274-10Q177-10 128 36.50Q79 83 79 185L79 536L168 536L168 191Q168 63 287 63Q376 63 410.50 113Q445 163 445 257L445 536L533 536M355 766Q367 744 389.50 716.50Q412 689 436.50 662.50Q461 636 480 617L480 606L418 606Q392 622 364 645.50Q336 669 309 696Q282 669 255 645.50Q228 622 202 606L142 606L142 617Q160 636 184 662.50Q208 689 230 716.50Q252 744 265 766L355 766Z"  horiz-adv-x="618" vert-adv-y="1000"  />

      
      <glyph glyph-name="unifc" unicode="&#xfc;" d="M533 536L533 0L461 0L448 71L444 71Q418 29 372 9.50Q326-10 274-10Q177-10 128 36.50Q79 83 79 185L79 536L168 536L168 191Q168 63 287 63Q376 63 410.50 113Q445 163 445 257L445 536L533 536M168 681Q168 707 181.50 718.50Q195 730 215 730Q234 730 248 718.50Q262 707 262 681Q262 656 248 643.50Q234 631 215 631Q195 631 181.50 643.50Q168 656 168 681M356 681Q356 707 369.50 718.50Q383 730 402 730Q421 730 435 718.50Q449 707 449 681Q449 656 435 643.50Q421 631 402 631Q383 631 369.50 643.50Q356 656 356 681Z"  horiz-adv-x="618" vert-adv-y="1000"  />

      
      <glyph glyph-name="unifd" unicode="&#xfd;" d="M1 536L95 536L211 231Q226 190 238 154Q250 118 256 85L260 85Q266 110 279 150.50Q292 191 306 232L415 536L510 536L279-74Q250-150 206-195Q162-240 84-240Q60-240 42-237.50Q24-235 11-232L11-162Q22-164 37.50-166Q53-168 70-168Q116-168 144-142Q172-116 189-73L217-2L1 536M396 766L396 756Q383 738 358.50 709.50Q334 681 305.50 652.50Q277 624 253 606L195 606L195 618Q209 636 227 662.50Q245 689 262 716.50Q279 744 290 766L396 766Z"  horiz-adv-x="510" vert-adv-y="1000"  />

      
      <glyph glyph-name="unife" unicode="&#xfe;" d="M560 269Q560 132 499.50 61Q439-10 340-10Q277-10 237 13Q197 36 173 68L167 68Q168 60 169.50 44Q171 28 172 11Q173-6 173-16L173-240L85-240L85 760L173 760L173 536Q173 522 172 499.50Q171 477 170 464L174 464Q198 498 237 522Q276 546 340 546Q439 546 499.50 476Q560 406 560 269M469 270Q469 371 434 421.50Q399 472 325 472Q242 472 208 426Q174 380 173 288L173 269Q173 170 205.50 116.50Q238 63 326 63Q400 63 434.50 116.50Q469 170 469 270Z"  horiz-adv-x="615" vert-adv-y="1000"  />

      
      <glyph glyph-name="uniff" unicode="&#xff;" d="M1 536L95 536L211 231Q226 190 238 154Q250 118 256 85L260 85Q266 110 279 150.50Q292 191 306 232L415 536L510 536L279-74Q250-150 206-195Q162-240 84-240Q60-240 42-237.50Q24-235 11-232L11-162Q22-164 37.50-166Q53-168 70-168Q116-168 144-142Q172-116 189-73L217-2L1 536M114 681Q114 707 127.50 718.50Q141 730 161 730Q180 730 194 718.50Q208 707 208 681Q208 656 194 643.50Q180 631 161 631Q141 631 127.50 643.50Q114 656 114 681M302 681Q302 707 315.50 718.50Q329 730 348 730Q367 730 381 718.50Q395 707 395 681Q395 656 381 643.50Q367 631 348 631Q329 631 315.50 643.50Q302 656 302 681Z"  horiz-adv-x="510" vert-adv-y="1000"  />

      
      <glyph glyph-name="uni0100" unicode="&#x0100;" d="M545 0L459 221L176 221L91 0L0 0L279 717L360 717L638 0L545 0M432 301L352 517Q349 525 342 546Q335 567 328.50 589.50Q322 612 318 624Q310 593 301.50 563.50Q293 534 287 517L206 301L432 301M466 855L466 784L169 784L169 855L466 855Z"  horiz-adv-x="639" vert-adv-y="1000"  />

      
      <glyph glyph-name="uni0101" unicode="&#x0101;" d="M288 545Q386 545 433 502Q480 459 480 365L480 0L416 0L399 76L395 76Q360 32 321 11Q282-10 215-10Q142-10 94 28.50Q46 67 46 149Q46 229 109 272.50Q172 316 303 320L394 323L394 355Q394 422 365 448Q336 474 283 474Q241 474 203 461.50Q165 449 132 433L105 499Q140 518 188 531.50Q236 545 288 545M393 262L314 259Q214 255 175.50 227Q137 199 137 148Q137 103 164.50 82Q192 61 235 61Q302 61 347.50 98.50Q393 136 393 214L393 262M429 677L429 606L132 606L132 677L429 677Z"  horiz-adv-x="561" vert-adv-y="1000"  />

      
      <glyph glyph-name="uni0102" unicode="&#x0102;" d="M545 0L459 221L176 221L91 0L0 0L279 717L360 717L638 0L545 0M432 301L352 517Q349 525 342 546Q335 567 328.50 589.50Q322 612 318 624Q310 593 301.50 563.50Q293 534 287 517L206 301L432 301M478 918Q473 858 432.50 821Q392 784 320 784Q246 784 208.50 820Q171 856 167 918L221 918Q225 877 250.50 866Q276 855 322 855Q361 855 389.50 867Q418 879 423 918L478 918Z"  horiz-adv-x="639" vert-adv-y="1000"  />

      
      <glyph glyph-name="uni0103" unicode="&#x0103;" d="M288 545Q386 545 433 502Q480 459 480 365L480 0L416 0L399 76L395 76Q360 32 321 11Q282-10 215-10Q142-10 94 28.50Q46 67 46 149Q46 229 109 272.50Q172 316 303 320L394 323L394 355Q394 422 365 448Q336 474 283 474Q241 474 203 461.50Q165 449 132 433L105 499Q140 518 188 531.50Q236 545 288 545M393 262L314 259Q214 255 175.50 227Q137 199 137 148Q137 103 164.50 82Q192 61 235 61Q302 61 347.50 98.50Q393 136 393 214L393 262M441 740Q436 680 395.50 643Q355 606 283 606Q209 606 171.50 642Q134 678 130 740L184 740Q188 699 213.50 688Q239 677 285 677Q324 677 352.50 689Q381 701 386 740L441 740Z"  horiz-adv-x="561" vert-adv-y="1000"  />

      
      <glyph glyph-name="uni0104" unicode="&#x0104;" d="M545 0L459 221L176 221L91 0L0 0L279 717L360 717L638 0L545 0M432 301L352 517Q349 525 342 546Q335 567 328.50 589.50Q322 612 318 624Q310 593 301.50 563.50Q293 534 287 517L206 301L432 301M545-116Q545-161 590-161Q607-161 618.50-158.50Q630-156 638-155L638-211Q624-215 609.50-217.50Q595-220 576-220Q523-220 498-195Q473-170 473-126Q473-98 487.50-70.50Q502-43 523.50-21Q545 1 565 15L613 0Q579-32 562-58.50Q545-85 545-116Z"  horiz-adv-x="639" vert-adv-y="1000"  />

      
      <glyph glyph-name="uni0105" unicode="&#x0105;" d="M288 545Q386 545 433 502Q480 459 480 365L480 0L416 0L399 76L395 76Q360 32 321 11Q282-10 215-10Q142-10 94 28.50Q46 67 46 149Q46 229 109 272.50Q172 316 303 320L394 323L394 355Q394 422 365 448Q336 474 283 474Q241 474 203 461.50Q165 449 132 433L105 499Q140 518 188 531.50Q236 545 288 545M393 262L314 259Q214 255 175.50 227Q137 199 137 148Q137 103 164.50 82Q192 61 235 61Q302 61 347.50 98.50Q393 136 393 214L393 262M412-116Q412-161 457-161Q474-161 485.50-158.50Q497-156 505-155L505-211Q491-215 476.50-217.50Q462-220 443-220Q390-220 365-195Q340-170 340-126Q340-98 354.50-70.50Q369-43 390.50-21Q412 1 432 15L480 0Q446-32 429-58.50Q412-85 412-116Z"  horiz-adv-x="561" vert-adv-y="1000"  />

      
      <glyph glyph-name="uni0106" unicode="&#x0106;" d="M403 645Q288 645 222 568Q156 491 156 357Q156 224 217.50 146.50Q279 69 402 69Q448 69 490 77Q532 85 573 97L573 19Q533 4 490.50-3Q448-10 389-10Q280-10 207 35Q134 80 97.50 163Q61 246 61 358Q61 466 100.50 548.50Q140 631 217 677.50Q294 724 404 724Q517 724 601 682L565 606Q532 621 491.50 633Q451 645 403 645M521 944L521 934Q508 916 483.50 887.50Q459 859 430.50 830.50Q402 802 378 784L320 784L320 796Q334 814 352 840.50Q370 867 387 894.50Q404 922 415 944L521 944Z"  horiz-adv-x="632" vert-adv-y="1000"  />

      
      <glyph glyph-name="uni0107" unicode="&#x0107;" d="M300-10Q228-10 173 19Q118 48 86.50 109Q55 170 55 265Q55 364 87.50 426Q120 488 177 517Q234 546 306 546Q346 546 384.50 537.50Q423 529 447 517L420 444Q396 453 364 461Q332 469 304 469Q146 469 146 266Q146 169 184.50 117.50Q223 66 299 66Q342 66 376 75Q410 84 438 97L438 19Q411 5 378.50-2.50Q346-10 300-10M425 766L425 756Q412 738 387.50 709.50Q363 681 334.50 652.50Q306 624 282 606L224 606L224 618Q238 636 256 662.50Q274 689 291 716.50Q308 744 319 766L425 766Z"  horiz-adv-x="480" vert-adv-y="1000"  />

      
      <glyph glyph-name="uni0108" unicode="&#x0108;" d="M403 645Q288 645 222 568Q156 491 156 357Q156 224 217.50 146.50Q279 69 402 69Q448 69 490 77Q532 85 573 97L573 19Q533 4 490.50-3Q448-10 389-10Q280-10 207 35Q134 80 97.50 163Q61 246 61 358Q61 466 100.50 548.50Q140 631 217 677.50Q294 724 404 724Q517 724 601 682L565 606Q532 621 491.50 633Q451 645 403 645M426 944Q438 922 460.50 894.50Q483 867 507.50 840.50Q532 814 551 795L551 784L489 784Q463 800 435 823.50Q407 847 380 874Q353 847 326 823.50Q299 800 273 784L213 784L213 795Q231 814 255 840.50Q279 867 301 894.50Q323 922 336 944L426 944Z"  horiz-adv-x="632" vert-adv-y="1000"  />

      
      <glyph glyph-name="uni0109" unicode="&#x0109;" d="M300-10Q228-10 173 19Q118 48 86.50 109Q55 170 55 265Q55 364 87.50 426Q120 488 177 517Q234 546 306 546Q346 546 384.50 537.50Q423 529 447 517L420 444Q396 453 364 461Q332 469 304 469Q146 469 146 266Q146 169 184.50 117.50Q223 66 299 66Q342 66 376 75Q410 84 438 97L438 19Q411 5 378.50-2.50Q346-10 300-10M330 766Q342 744 364.50 716.50Q387 689 411.50 662.50Q436 636 455 617L455 606L393 606Q367 622 339 645.50Q311 669 284 696Q257 669 230 645.50Q203 622 177 606L117 606L117 617Q135 636 159 662.50Q183 689 205 716.50Q227 744 240 766L330 766Z"  horiz-adv-x="480" vert-adv-y="1000"  />

      
      <glyph glyph-name="uni010A" unicode="&#x010A;" d="M403 645Q288 645 222 568Q156 491 156 357Q156 224 217.50 146.50Q279 69 402 69Q448 69 490 77Q532 85 573 97L573 19Q533 4 490.50-3Q448-10 389-10Q280-10 207 35Q134 80 97.50 163Q61 246 61 358Q61 466 100.50 548.50Q140 631 217 677.50Q294 724 404 724Q517 724 601 682L565 606Q532 621 491.50 633Q451 645 403 645M383 915Q403 915 418.50 901.50Q434 888 434 859Q434 830 418.50 816.50Q403 803 383 803Q361 803 346 816.50Q331 830 331 859Q331 888 346 901.50Q361 915 383 915Z"  horiz-adv-x="632" vert-adv-y="1000"  />

      
      <glyph glyph-name="uni010B" unicode="&#x010B;" d="M300-10Q228-10 173 19Q118 48 86.50 109Q55 170 55 265Q55 364 87.50 426Q120 488 177 517Q234 546 306 546Q346 546 384.50 537.50Q423 529 447 517L420 444Q396 453 364 461Q332 469 304 469Q146 469 146 266Q146 169 184.50 117.50Q223 66 299 66Q342 66 376 75Q410 84 438 97L438 19Q411 5 378.50-2.50Q346-10 300-10M287 737Q307 737 322.50 723.50Q338 710 338 681Q338 652 322.50 638.50Q307 625 287 625Q265 625 250 638.50Q235 652 235 681Q235 710 250 723.50Q265 737 287 737Z"  horiz-adv-x="480" vert-adv-y="1000"  />

      
      <glyph glyph-name="uni010C" unicode="&#x010C;" d="M403 645Q288 645 222 568Q156 491 156 357Q156 224 217.50 146.50Q279 69 402 69Q448 69 490 77Q532 85 573 97L573 19Q533 4 490.50-3Q448-10 389-10Q280-10 207 35Q134 80 97.50 163Q61 246 61 358Q61 466 100.50 548.50Q140 631 217 677.50Q294 724 404 724Q517 724 601 682L565 606Q532 621 491.50 633Q451 645 403 645M334 784Q321 806 299 833Q277 860 253 886Q229 912 211 931L211 944L271 944Q297 927 325 903Q353 879 378 852Q405 879 433 903Q461 927 487 944L549 944L549 931Q530 912 505.50 886Q481 860 458.50 833Q436 806 424 784L334 784Z"  horiz-adv-x="632" vert-adv-y="1000"  />

      
      <glyph glyph-name="uni010D" unicode="&#x010D;" d="M300-10Q228-10 173 19Q118 48 86.50 109Q55 170 55 265Q55 364 87.50 426Q120 488 177 517Q234 546 306 546Q346 546 384.50 537.50Q423 529 447 517L420 444Q396 453 364 461Q332 469 304 469Q146 469 146 266Q146 169 184.50 117.50Q223 66 299 66Q342 66 376 75Q410 84 438 97L438 19Q411 5 378.50-2.50Q346-10 300-10M238 606Q225 628 203 655Q181 682 157 708Q133 734 115 753L115 766L175 766Q201 749 229 725Q257 701 282 674Q309 701 337 725Q365 749 391 766L453 766L453 753Q434 734 409.50 708Q385 682 362.50 655Q340 628 328 606L238 606Z"  horiz-adv-x="480" vert-adv-y="1000"  />

      
      <glyph glyph-name="uni010E" unicode="&#x010E;" d="M669 364Q669 183 570.50 91.50Q472 0 296 0L97 0L97 714L317 714Q424 714 503.50 674Q583 634 626 556Q669 478 669 364M574 361Q574 504 503.50 570.50Q433 637 304 637L187 637L187 77L284 77Q574 77 574 361M315 784Q302 806 280 833Q258 860 234 886Q210 912 192 931L192 944L252 944Q278 927 306 903Q334 879 359 852Q386 879 414 903Q442 927 468 944L530 944L530 931Q511 912 486.50 886Q462 860 439.50 833Q417 806 405 784L315 784Z"  horiz-adv-x="730" vert-adv-y="1000"  />

      
      <glyph glyph-name="uni010F" unicode="&#x010F;" d="M275-10Q175-10 115 59.50Q55 129 55 267Q55 405 115.50 475.50Q176 546 276 546Q338 546 377.50 523Q417 500 442 467L448 467Q446 480 444 505.50Q442 531 442 546L442 760L530 760L530 0L459 0L446 72L442 72Q418 38 378 14Q338-10 275-10M289 63Q374 63 408.50 109.50Q443 156 443 250L443 266Q443 366 410 419.50Q377 473 288 473Q217 473 181.50 416.50Q146 360 146 265Q146 169 181.50 116Q217 63 289 63M688 760L688 751Q684 733 672.50 706Q661 679 646 650.50Q631 622 616 600L568 600L568 612Q574 631 581 657.50Q588 684 593 711Q598 738 601 760L688 760Z"  horiz-adv-x="615" vert-adv-y="1000"  />

      
      <glyph glyph-name="uni0110" unicode="&#x0110;" d="M317 714Q424 714 503 674Q582 634 625.50 556Q669 478 669 364Q669 183 570.50 91.50Q472 0 295 0L104 0L104 314L30 314L30 392L104 392L104 714L317 714M304 637L194 637L194 392L372 392L372 314L194 314L194 77L284 77Q574 77 574 361Q574 504 503 570.50Q432 637 304 637Z"  horiz-adv-x="730" vert-adv-y="1000"  />

      
      <glyph glyph-name="uni0111" unicode="&#x0111;" d="M275-10Q174-10 114.50 59Q55 128 55 265Q55 405 115.50 474Q176 543 275 543Q338 543 377.50 520Q417 497 442 464L448 464Q446 477 444 502.50Q442 528 442 544L442 605L229 605L229 671L442 671L442 760L530 760L530 671L606 671L606 605L530 605L530 0L458 0L445 72L441 72Q417 38 377 14Q337-10 275-10M290 63Q374 63 408.50 109Q443 155 443 248L443 265Q443 366 410 418Q377 470 288 470Q217 470 182 415Q147 360 147 264Q147 168 182 115.50Q217 63 290 63Z"  horiz-adv-x="617" vert-adv-y="1000"  />

      
      <glyph glyph-name="uni0112" unicode="&#x0112;" d="M496 0L97 0L97 714L496 714L496 635L187 635L187 412L478 412L478 334L187 334L187 79L496 79L496 0M453 855L453 784L156 784L156 855L453 855Z"  horiz-adv-x="556" vert-adv-y="1000"  />

      
      <glyph glyph-name="uni0113" unicode="&#x0113;" d="M292 546Q360 546 410 516Q460 486 486.50 431.50Q513 377 513 304L513 251L146 251Q148 160 192.50 112.50Q237 65 317 65Q368 65 407.50 74.50Q447 84 489 102L489 25Q448 7 408-1.50Q368-10 313-10Q236-10 178 21Q120 52 87.50 113Q55 174 55 264Q55 352 84.50 415Q114 478 167.50 512Q221 546 292 546M291 474Q228 474 191.50 433.50Q155 393 148 321L421 321Q420 389 389 431.50Q358 474 291 474M433 677L433 606L136 606L136 677L433 677Z"  horiz-adv-x="564" vert-adv-y="1000"  />

      
      <glyph glyph-name="uni0114" unicode="&#x0114;" d="M496 0L97 0L97 714L496 714L496 635L187 635L187 412L478 412L478 334L187 334L187 79L496 79L496 0M465 918Q460 858 419.50 821Q379 784 307 784Q233 784 195.50 820Q158 856 154 918L208 918Q212 877 237.50 866Q263 855 309 855Q348 855 376.50 867Q405 879 410 918L465 918Z"  horiz-adv-x="556" vert-adv-y="1000"  />

      
      <glyph glyph-name="uni0115" unicode="&#x0115;" d="M292 546Q360 546 410 516Q460 486 486.50 431.50Q513 377 513 304L513 251L146 251Q148 160 192.50 112.50Q237 65 317 65Q368 65 407.50 74.50Q447 84 489 102L489 25Q448 7 408-1.50Q368-10 313-10Q236-10 178 21Q120 52 87.50 113Q55 174 55 264Q55 352 84.50 415Q114 478 167.50 512Q221 546 292 546M291 474Q228 474 191.50 433.50Q155 393 148 321L421 321Q420 389 389 431.50Q358 474 291 474M445 740Q440 680 399.50 643Q359 606 287 606Q213 606 175.50 642Q138 678 134 740L188 740Q192 699 217.50 688Q243 677 289 677Q328 677 356.50 689Q385 701 390 740L445 740Z"  horiz-adv-x="564" vert-adv-y="1000"  />

      
      <glyph glyph-name="uni0116" unicode="&#x0116;" d="M496 0L97 0L97 714L496 714L496 635L187 635L187 412L478 412L478 334L187 334L187 79L496 79L496 0M308 915Q328 915 343.50 901.50Q359 888 359 859Q359 830 343.50 816.50Q328 803 308 803Q286 803 271 816.50Q256 830 256 859Q256 888 271 901.50Q286 915 308 915Z"  horiz-adv-x="556" vert-adv-y="1000"  />

      
      <glyph glyph-name="uni0117" unicode="&#x0117;" d="M292 546Q360 546 410 516Q460 486 486.50 431.50Q513 377 513 304L513 251L146 251Q148 160 192.50 112.50Q237 65 317 65Q368 65 407.50 74.50Q447 84 489 102L489 25Q448 7 408-1.50Q368-10 313-10Q236-10 178 21Q120 52 87.50 113Q55 174 55 264Q55 352 84.50 415Q114 478 167.50 512Q221 546 292 546M291 474Q228 474 191.50 433.50Q155 393 148 321L421 321Q420 389 389 431.50Q358 474 291 474M288 737Q308 737 323.50 723.50Q339 710 339 681Q339 652 323.50 638.50Q308 625 288 625Q266 625 251 638.50Q236 652 236 681Q236 710 251 723.50Q266 737 288 737Z"  horiz-adv-x="564" vert-adv-y="1000"  />

      
      <glyph glyph-name="uni0118" unicode="&#x0118;" d="M496 0L97 0L97 714L496 714L496 635L187 635L187 412L478 412L478 334L187 334L187 79L496 79L496 0M398-116Q398-161 443-161Q460-161 471.50-158.50Q483-156 491-155L491-211Q477-215 462.50-217.50Q448-220 429-220Q376-220 351-195Q326-170 326-126Q326-98 340.50-70.50Q355-43 376.50-21Q398 1 418 15L466 0Q432-32 415-58.50Q398-85 398-116Z"  horiz-adv-x="556" vert-adv-y="1000"  />

      
      <glyph glyph-name="uni0119" unicode="&#x0119;" d="M389-116Q389-161 434-161Q450-161 462-158.50Q474-156 482-155L482-211Q468-215 454-217.50Q440-220 420-220Q367-220 342-195Q317-170 317-126Q317-92 337.50-60.50Q358-29 383-6Q352-10 313-10Q236-10 178 21Q120 52 87.50 113Q55 174 55 264Q55 352 84.50 415Q114 478 167.50 512Q221 546 292 546Q360 546 410 516Q460 486 486.50 431.50Q513 377 513 304L513 251L146 251Q148 160 192.50 112.50Q237 65 317 65Q368 65 407.50 74.50Q447 84 489 102L489 25Q448-7 426.50-31Q405-55 397-75.50Q389-96 389-116M291 474Q228 474 191.50 433.50Q155 393 148 321L421 321Q420 389 389 431.50Q358 474 291 474Z"  horiz-adv-x="564" vert-adv-y="1000"  />

      
      <glyph glyph-name="uni011A" unicode="&#x011A;" d="M496 0L97 0L97 714L496 714L496 635L187 635L187 412L478 412L478 334L187 334L187 79L496 79L496 0M259 784Q246 806 224 833Q202 860 178 886Q154 912 136 931L136 944L196 944Q222 927 250 903Q278 879 303 852Q330 879 358 903Q386 927 412 944L474 944L474 931Q455 912 430.50 886Q406 860 383.50 833Q361 806 349 784L259 784Z"  horiz-adv-x="556" vert-adv-y="1000"  />

      
      <glyph glyph-name="uni011B" unicode="&#x011B;" d="M292 546Q360 546 410 516Q460 486 486.50 431.50Q513 377 513 304L513 251L146 251Q148 160 192.50 112.50Q237 65 317 65Q368 65 407.50 74.50Q447 84 489 102L489 25Q448 7 408-1.50Q368-10 313-10Q236-10 178 21Q120 52 87.50 113Q55 174 55 264Q55 352 84.50 415Q114 478 167.50 512Q221 546 292 546M291 474Q228 474 191.50 433.50Q155 393 148 321L421 321Q420 389 389 431.50Q358 474 291 474M239 606Q226 628 204 655Q182 682 158 708Q134 734 116 753L116 766L176 766Q202 749 230 725Q258 701 283 674Q310 701 338 725Q366 749 392 766L454 766L454 753Q435 734 410.50 708Q386 682 363.50 655Q341 628 329 606L239 606Z"  horiz-adv-x="564" vert-adv-y="1000"  />

      
      <glyph glyph-name="uni011C" unicode="&#x011C;" d="M407 377L654 377L654 27Q596 8 537-1Q478-10 403-10Q292-10 216 34.50Q140 79 100.50 161.50Q61 244 61 357Q61 468 104.50 550.50Q148 633 231 678.50Q314 724 431 724Q491 724 544.50 713Q598 702 644 682L610 604Q572 620 524.50 632.50Q477 645 426 645Q298 645 226.50 567.50Q155 490 155 357Q155 272 182.50 206.50Q210 141 269 104.50Q328 68 424 68Q471 68 504 73Q537 78 564 85L564 297L407 297L407 377M451 944Q463 922 485.50 894.50Q508 867 532.50 840.50Q557 814 576 795L576 784L514 784Q488 800 460 823.50Q432 847 405 874Q378 847 351 823.50Q324 800 298 784L238 784L238 795Q256 814 280 840.50Q304 867 326 894.50Q348 922 361 944L451 944Z"  horiz-adv-x="728" vert-adv-y="1000"  />

      
      <glyph glyph-name="uni011D" unicode="&#x011D;" d="M275 546Q328 546 370.50 526Q413 506 443 465L448 465L460 536L530 536L530-9Q530-124 471.50-182Q413-240 290-240Q172-240 97-206L97-125Q176-167 295-167Q364-167 403.50-126.50Q443-86 443-16L443 5Q443 17 444 39.50Q445 62 446 71L442 71Q388-10 276-10Q172-10 113.50 63Q55 136 55 267Q55 395 113.50 470.50Q172 546 275 546M287 472Q220 472 183 418.50Q146 365 146 266Q146 167 182 114.50Q218 62 289 62Q370 62 407 105.50Q444 149 444 246L444 267Q444 376 406 424Q368 472 287 472M343 766Q355 744 377.50 716.50Q400 689 424.50 662.50Q449 636 468 617L468 606L406 606Q380 622 352 645.50Q324 669 297 696Q270 669 243 645.50Q216 622 190 606L130 606L130 617Q148 636 172 662.50Q196 689 218 716.50Q240 744 253 766L343 766Z"  horiz-adv-x="615" vert-adv-y="1000"  />

      
      <glyph glyph-name="uni011E" unicode="&#x011E;" d="M407 377L654 377L654 27Q596 8 537-1Q478-10 403-10Q292-10 216 34.50Q140 79 100.50 161.50Q61 244 61 357Q61 468 104.50 550.50Q148 633 231 678.50Q314 724 431 724Q491 724 544.50 713Q598 702 644 682L610 604Q572 620 524.50 632.50Q477 645 426 645Q298 645 226.50 567.50Q155 490 155 357Q155 272 182.50 206.50Q210 141 269 104.50Q328 68 424 68Q471 68 504 73Q537 78 564 85L564 297L407 297L407 377M565 918Q560 858 519.50 821Q479 784 407 784Q333 784 295.50 820Q258 856 254 918L308 918Q312 877 337.50 866Q363 855 409 855Q448 855 476.50 867Q505 879 510 918L565 918Z"  horiz-adv-x="728" vert-adv-y="1000"  />

      
      <glyph glyph-name="uni011F" unicode="&#x011F;" d="M275 546Q328 546 370.50 526Q413 506 443 465L448 465L460 536L530 536L530-9Q530-124 471.50-182Q413-240 290-240Q172-240 97-206L97-125Q176-167 295-167Q364-167 403.50-126.50Q443-86 443-16L443 5Q443 17 444 39.50Q445 62 446 71L442 71Q388-10 276-10Q172-10 113.50 63Q55 136 55 267Q55 395 113.50 470.50Q172 546 275 546M287 472Q220 472 183 418.50Q146 365 146 266Q146 167 182 114.50Q218 62 289 62Q370 62 407 105.50Q444 149 444 246L444 267Q444 376 406 424Q368 472 287 472M457 740Q452 680 411.50 643Q371 606 299 606Q225 606 187.50 642Q150 678 146 740L200 740Q204 699 229.50 688Q255 677 301 677Q340 677 368.50 689Q397 701 402 740L457 740Z"  horiz-adv-x="615" vert-adv-y="1000"  />

      
      <glyph glyph-name="uni0120" unicode="&#x0120;" d="M407 377L654 377L654 27Q596 8 537-1Q478-10 403-10Q292-10 216 34.50Q140 79 100.50 161.50Q61 244 61 357Q61 468 104.50 550.50Q148 633 231 678.50Q314 724 431 724Q491 724 544.50 713Q598 702 644 682L610 604Q572 620 524.50 632.50Q477 645 426 645Q298 645 226.50 567.50Q155 490 155 357Q155 272 182.50 206.50Q210 141 269 104.50Q328 68 424 68Q471 68 504 73Q537 78 564 85L564 297L407 297L407 377M408 915Q428 915 443.50 901.50Q459 888 459 859Q459 830 443.50 816.50Q428 803 408 803Q386 803 371 816.50Q356 830 356 859Q356 888 371 901.50Q386 915 408 915Z"  horiz-adv-x="728" vert-adv-y="1000"  />

      
      </font>
</defs>
</svg>
