<?xml version="1.0" standalone="no"?>
<!DOCTYPE svg PUBLIC "-//W3C//DTD SVG 1.1//EN" "http://www.w3.org/Graphics/SVG/1.1/DTD/svg11.dtd" >
<svg xmlns="http://www.w3.org/2000/svg" xmlns:xlink="http://www.w3.org/1999/xlink" version="1.1">
<metadata>
Created by FontForge 20170910 at Tue Sep 19 23:59:12 2017
 By Jimmy Wärting
Copyright 2015 Google Inc. All Rights Reserved.
</metadata>
<defs>
<font id="NotoSans-Bold" horiz-adv-x="0" >
  <font-face 
    font-family="Noto Sans"
    font-weight="700"
    font-stretch="normal"
    units-per-em="1000"
    panose-1="2 11 8 2 4 5 4 2 2 4"
    ascent="800"
    descent="-200"
    x-height="546"
    cap-height="714"
    bbox="-631 -389 2800 1069"
    underline-thickness="50"
    underline-position="-125"
    unicode-range="U+000D-FFFD"
  />
<missing-glyph horiz-adv-x="600" 
d="M94 0v714h411v-714h-411zM145 51h309v612h-309v-612z" />
    <glyph glyph-name=".notdef" horiz-adv-x="600" 
d="M94 0v714h411v-714h-411zM145 51h309v612h-309v-612z" />
    <glyph glyph-name="NULL" 
 />
    <glyph glyph-name="NULL" 
 />
    <glyph glyph-name="CR" unicode="&#xd;" horiz-adv-x="260" 
 />
    <glyph glyph-name="space" unicode=" " horiz-adv-x="260" 
 />
    <glyph glyph-name="exclam" unicode="!" horiz-adv-x="286" 
d="M203 237h-119l-25 477h169zM57 70q0 46 25 64.5t61 18.5q35 0 60 -18.5t25 -64.5q0 -44 -25 -63.5t-60 -19.5q-36 0 -61 19.5t-25 63.5z" />
    <glyph glyph-name="quotedbl" unicode="&#x22;" horiz-adv-x="472" 
d="M201 714l-20 -258h-96l-20 258h136zM407 714l-20 -258h-96l-20 258h136z" />
    <glyph glyph-name="numbersign" unicode="#" horiz-adv-x="646" 
d="M488 412l-23 -113h126v-101h-145l-38 -198h-107l38 198h-95l-37 -198h-105l36 198h-116v101h135l23 113h-123v102h141l38 199h107l-38 -199h97l38 199h105l-38 -199h117v-102h-136zM263 299h96l23 113h-96z" />
    <glyph glyph-name="dollar" unicode="$" horiz-adv-x="572" 
d="M253 -58v98q-65 2 -116 12.5t-93 29.5v129q41 -20 98.5 -36.5t110.5 -19.5v151q-77 30 -123.5 58.5t-66.5 63.5t-20 84q0 75 58.5 119.5t151.5 52.5v75h67v-73q111 -4 202 -45l-46 -114q-40 17 -80.5 26t-75.5 12v-144q54 -20 103 -43.5t79.5 -59.5t30.5 -95
q0 -73 -53 -122t-160 -59v-100h-67zM253 448v115q-63 -9 -63 -51q0 -21 15 -35t48 -29zM320 158q66 12 66 58q0 20 -16.5 34.5t-49.5 29.5v-122z" />
    <glyph glyph-name="percent" unicode="%" horiz-adv-x="901" 
d="M199 724q84 0 127.5 -58.5t43.5 -164.5t-41 -165.5t-130 -59.5q-83 0 -125.5 59.5t-42.5 165.5t40 164.5t128 58.5zM706 714l-396 -714h-117l396 714h117zM200 622q-46 0 -46 -122q0 -123 46 -123q47 0 47 123q0 122 -47 122zM699 439q84 0 127.5 -58.5t43.5 -164.5
t-41 -165.5t-130 -59.5q-83 0 -125.5 59.5t-42.5 165.5t40 164.5t128 58.5zM700 337q-46 0 -46 -122q0 -123 46 -123q47 0 47 123q0 122 -47 122z" />
    <glyph glyph-name="ampersand" unicode="&#x26;" horiz-adv-x="750" 
d="M310 724q58 0 103 -18t71 -53t26 -84q0 -69 -41 -116t-102 -82l139 -135q20 34 35 71.5t25 75.5h155q-15 -56 -44 -120t-74 -120l147 -143h-184l-56 55q-44 -30 -96.5 -47.5t-114.5 -17.5q-122 0 -190.5 56t-68.5 147q0 76 35 121.5t96 80.5q-39 45 -54.5 83t-15.5 81
q0 51 26.5 88t73.5 57t109 20zM309 609q-25 0 -47.5 -12.5t-22.5 -47.5q0 -25 12.5 -48t33.5 -47q42 23 64.5 46t22.5 53t-20 43t-43 13zM258 306q-28 -21 -44.5 -44.5t-16.5 -54.5q0 -43 32 -67.5t80 -24.5q32 0 60 8t51 22z" />
    <glyph glyph-name="quotesingle" unicode="'" horiz-adv-x="266" 
d="M201 714l-20 -258h-96l-20 258h136z" />
    <glyph glyph-name="parenleft" unicode="(" horiz-adv-x="339" 
d="M40 274q0 122 35.5 235.5t111.5 204.5h122q-68 -94 -103.5 -207t-35.5 -232q0 -116 35 -228.5t103 -204.5h-121q-76 88 -111.5 199.5t-35.5 232.5z" />
    <glyph glyph-name="parenright" unicode=")" horiz-adv-x="339" 
d="M299 274q0 -121 -35.5 -232.5t-111.5 -199.5h-121q67 92 102.5 204.5t35.5 228.5q0 119 -35.5 232t-103.5 207h122q76 -91 111.5 -204.5t35.5 -235.5z" />
    <glyph glyph-name="asterisk" unicode="*" horiz-adv-x="545" 
d="M336 760l-20 -180l182 51l16 -123l-166 -12l109 -145l-111 -59l-76 153l-67 -152l-115 58l108 145l-165 13l19 122l178 -51l-20 180h128z" />
    <glyph glyph-name="plus" unicode="+" horiz-adv-x="572" 
d="M339 406h189v-107h-189v-188h-107v188h-189v107h189v190h107v-190z" />
    <glyph glyph-name="comma" unicode="," horiz-adv-x="285" 
d="M217 116l7 -11q-14 -53 -37.5 -116t-48.5 -118h-107q14 59 27.5 126t21.5 119h137z" />
    <glyph glyph-name="hyphen" unicode="-" horiz-adv-x="322" 
d="M30 207v122h262v-122h-262z" />
    <glyph glyph-name="period" unicode="." horiz-adv-x="285" 
d="M57 70q0 46 25 64.5t61 18.5q35 0 60 -18.5t25 -64.5q0 -44 -25 -63.5t-60 -19.5q-36 0 -61 19.5t-25 63.5z" />
    <glyph glyph-name="slash" unicode="/" horiz-adv-x="413" 
d="M408 714l-266 -714h-135l266 714h135z" />
    <glyph glyph-name="zero" unicode="0" horiz-adv-x="572" 
d="M535 357q0 -115 -24.5 -197t-79.5 -126t-146 -44q-129 0 -189 97t-60 270q0 115 24 197.5t79 126.5t146 44q128 0 189 -97t61 -271zM186 357q0 -122 21 -183.5t78 -61.5q56 0 78 61t22 184q0 122 -22 184t-78 62q-57 0 -78 -62t-21 -184z" />
    <glyph glyph-name="one" unicode="1" horiz-adv-x="572" 
d="M413 0h-151v413q0 25 1 67.5t3 74.5q-5 -6 -21.5 -21.5t-30.5 -27.5l-82 -66l-73 91l230 183h124v-714z" />
    <glyph glyph-name="two" unicode="2" horiz-adv-x="572" 
d="M539 0h-499v105l179 181q54 56 87 93.5t48 68t15 65.5q0 43 -23.5 64t-63.5 21q-41 0 -80 -19t-82 -54l-82 97q30 26 65 49.5t80.5 38t109.5 14.5q70 0 120.5 -25.5t78 -69t27.5 -98.5q0 -59 -23.5 -108t-68 -97t-107.5 -106l-92 -86v-7h311v-127z" />
    <glyph glyph-name="three" unicode="3" horiz-adv-x="572" 
d="M511 554q0 -74 -44.5 -118t-109.5 -60v-3q85 -11 130 -53t45 -112q0 -62 -30.5 -111.5t-94 -78t-163.5 -28.5q-116 0 -206 39v128q46 -23 96 -35t94 -12q81 0 113.5 28t32.5 79q0 29 -15 50t-52.5 31.5t-104.5 10.5h-54v116h55q66 0 100.5 12.5t47 34t12.5 49.5
q0 38 -23.5 59.5t-78.5 21.5q-51 0 -89 -18t-63 -34l-70 104q42 30 98.5 50t134.5 20q110 0 174.5 -44.5t64.5 -125.5z" />
    <glyph glyph-name="four" unicode="4" horiz-adv-x="572" 
d="M555 148h-86v-148h-147v148h-305v105l313 461h139v-449h86v-117zM322 265v121q0 23 1 56t2.5 61.5t2.5 37.5h-4q-9 -20 -19.5 -39t-23.5 -39l-131 -198h172z" />
    <glyph glyph-name="five" unicode="5" horiz-adv-x="572" 
d="M300 456q65 0 116 -25t80.5 -73t29.5 -119q0 -116 -72 -182.5t-213 -66.5q-56 0 -105.5 10t-86.5 29v130q37 -19 89 -32.5t98 -13.5q67 0 102.5 27.5t35.5 85.5q0 108 -143 108q-28 0 -58 -5.5t-50 -10.5l-60 32l27 364h387v-128h-255l-13 -140q17 3 36.5 6.5t54.5 3.5z
" />
    <glyph glyph-name="six" unicode="6" horiz-adv-x="572" 
d="M35 303q0 61 9 121.5t31.5 114t63 95t103 65t151.5 23.5q21 0 49 -1.5t47 -5.5v-121q-19 4 -41.5 7t-44.5 3q-89 0 -137.5 -28t-68.5 -78.5t-23 -116.5h6q20 35 57.5 59t97.5 24q94 0 149 -59t55 -167q0 -116 -65.5 -182t-177.5 -66q-73 0 -132 33.5t-94 103t-35 176.5z
M293 111q44 0 72 30.5t28 94.5q0 52 -24 82t-73 30q-34 0 -58.5 -15t-38.5 -37.5t-14 -46.5q0 -33 12 -65t36.5 -52.5t59.5 -20.5z" />
    <glyph glyph-name="seven" unicode="7" horiz-adv-x="572" 
d="M111 0l268 587h-352v127h512v-95l-270 -619h-158z" />
    <glyph glyph-name="eight" unicode="8" horiz-adv-x="572" 
d="M286 723q62 0 113.5 -19t83 -57.5t31.5 -95.5q0 -65 -36.5 -106t-91.5 -68q38 -20 72.5 -46.5t56 -62.5t21.5 -83q0 -59 -31.5 -103t-88 -68t-130.5 -24q-120 0 -185.5 51t-65.5 140q0 73 40 118.5t97 73.5q-48 30 -81.5 72.5t-33.5 106.5q0 56 32 94.5t84.5 57.5
t112.5 19zM285 613q-37 0 -61.5 -19.5t-24.5 -53.5q0 -37 26 -60t61 -40q34 16 60 38.5t26 61.5q0 34 -25 53.5t-62 19.5zM175 190q0 -39 27.5 -64t81.5 -25q56 0 84 24t28 64q0 27 -16 47.5t-40 37t-48 30.5l-13 7q-47 -22 -75.5 -51t-28.5 -70z" />
    <glyph glyph-name="nine" unicode="9" horiz-adv-x="572" 
d="M536 409q0 -61 -9 -121.5t-31.5 -114t-63 -95t-103 -65t-151.5 -23.5q-21 0 -49 1.5t-47 5.5v121q20 -4 42 -7t44 -3q89 0 137.5 28t68.5 78.5t23 116.5h-6q-21 -35 -55.5 -59t-102.5 -24q-91 0 -146 59t-55 167q0 116 65.5 182t177.5 66q73 0 132 -33.5t94 -103
t35 -176.5zM278 601q-44 0 -72 -30.5t-28 -94.5q0 -52 24 -82t73 -30q33 0 58 15t39 37.5t14 46.5q0 33 -12 65t-36 52.5t-60 20.5z" />
    <glyph glyph-name="colon" unicode=":" horiz-adv-x="285" 
d="M57 473q0 46 25 64.5t61 18.5q35 0 60 -18.5t25 -64.5q0 -44 -25 -63.5t-60 -19.5q-36 0 -61 19.5t-25 63.5zM57 70q0 46 25 64.5t61 18.5q35 0 60 -18.5t25 -64.5q0 -44 -25 -63.5t-60 -19.5q-36 0 -61 19.5t-25 63.5z" />
    <glyph glyph-name="semicolon" unicode=";" horiz-adv-x="285" 
d="M57 473q0 46 25 64.5t61 18.5q35 0 60 -18.5t25 -64.5q0 -44 -25 -63.5t-60 -19.5q-36 0 -61 19.5t-25 63.5zM217 116l7 -11q-14 -53 -37.5 -116t-48.5 -118h-107q14 59 27.5 126t21.5 119h137z" />
    <glyph glyph-name="less" unicode="&#x3c;" horiz-adv-x="572" 
d="M528 99l-485 214v70l485 242v-117l-334 -155l334 -137v-117z" />
    <glyph glyph-name="equal" unicode="=" horiz-adv-x="572" 
d="M43 394v106h485v-106h-485zM43 204v107h485v-107h-485z" />
    <glyph glyph-name="greater" unicode="&#x3e;" horiz-adv-x="572" 
d="M43 216l334 137l-334 155v117l485 -242v-70l-485 -214v117z" />
    <glyph glyph-name="question" unicode="?" horiz-adv-x="477" 
d="M135 237v36q0 49 21 83.5t72 71.5q45 32 64.5 55.5t19.5 55.5q0 31 -23.5 48t-65.5 17t-83 -13t-84 -35l-53 107q49 27 106 44t125 17q104 0 161.5 -50t57.5 -127q0 -41 -13 -71t-39 -56t-65 -54q-30 -22 -45.5 -36.5t-21 -29t-5.5 -34.5v-29h-129zM119 70q0 46 25 64.5
t61 18.5q35 0 60 -18.5t25 -64.5q0 -44 -25 -63.5t-60 -19.5q-36 0 -61 19.5t-25 63.5z" />
    <glyph glyph-name="at" unicode="@" horiz-adv-x="897" 
d="M847 358q0 -46 -11 -91t-33.5 -82t-56.5 -58.5t-80 -21.5q-37 0 -65 17.5t-39 45.5h-8q-20 -25 -53.5 -44t-80.5 -19q-89 0 -137.5 53.5t-48.5 140.5q0 67 29 118.5t82 81t125 29.5q47 0 97.5 -8.5t78.5 -18.5l-10 -205q-1 -10 -1 -20.5v-13.5q0 -41 11.5 -54.5
t25.5 -13.5q22 0 37.5 22.5t23 60t7.5 82.5q0 83 -34 142t-93 90t-133 31q-105 0 -176.5 -43.5t-108.5 -119t-37 -171.5q0 -135 72 -207t209 -72q58 0 120.5 12.5t115.5 32.5v-94q-48 -20 -107 -32t-125 -12q-124 0 -212 44t-134.5 126.5t-46.5 198.5q0 91 30 169t86 136.5
t135.5 91t177.5 32.5q107 0 190 -43t130.5 -123t47.5 -190zM347 297q0 -55 23 -79t61 -24q50 0 70.5 36.5t24.5 95.5l6 108q-11 2 -25.5 3.5t-30.5 1.5q-48 0 -76 -20.5t-40.5 -53.5t-12.5 -68z" />
    <glyph glyph-name="A" unicode="A" horiz-adv-x="690" 
d="M527 0l-52 170h-260l-52 -170h-163l252 717h185l253 -717h-163zM439 297l-52 166q-5 17 -13 43t-16 53t-13 47q-5 -20 -13.5 -49.5t-16 -56t-11.5 -37.5l-51 -166h186z" />
    <glyph glyph-name="B" unicode="B" horiz-adv-x="672" 
d="M90 714h222q142 0 215.5 -40t73.5 -141q0 -61 -28.5 -103t-81.5 -51v-5q35 -8 64.5 -25.5t46.5 -51.5t17 -90q0 -97 -70.5 -152t-191.5 -55h-267v714zM241 431h88q66 0 91.5 20.5t25.5 61.5t-30 59t-95 18h-80v-159zM241 311v-186h99q68 0 95 26.5t27 70.5
q0 40 -27.5 64.5t-99.5 24.5h-94z" />
    <glyph glyph-name="C" unicode="C" horiz-adv-x="637" 
d="M393 598q-87 0 -133 -65t-46 -178q0 -114 42.5 -176.5t136.5 -62.5q43 0 87 10t95 28v-127q-47 -19 -93 -28t-103 -9q-111 0 -182 45.5t-105 128t-34 192.5q0 108 39 191t113.5 130t182.5 47q53 0 106.5 -13.5t102.5 -36.5l-49 -123q-40 19 -80.5 33t-79.5 14z" />
    <glyph glyph-name="D" unicode="D" horiz-adv-x="740" 
d="M682 364q0 -181 -103 -272.5t-287 -91.5h-202v714h224q112 0 194.5 -40t128 -118t45.5 -192zM525 360q0 118 -52 174t-151 56h-81v-465h65q219 0 219 235z" />
    <glyph glyph-name="E" unicode="E" horiz-adv-x="560" 
d="M501 0h-411v714h411v-124h-260v-157h242v-124h-242v-184h260v-125z" />
    <glyph glyph-name="F" unicode="F" horiz-adv-x="549" 
d="M239 0h-149v714h409v-124h-260v-184h242v-124h-242v-282z" />
    <glyph glyph-name="G" unicode="G" horiz-adv-x="724" 
d="M361 401h283v-370q-56 -19 -117 -30t-137 -11q-160 0 -246 94t-86 274q0 112 43 194t126.5 127t203.5 45q57 0 112 -12t100 -32l-50 -121q-33 17 -75 28t-88 11q-66 0 -114.5 -30t-75 -85t-26.5 -128q0 -70 19 -124t60 -84.5t107 -30.5q32 0 54 3t42 7v149h-135v126z" />
    <glyph glyph-name="H" unicode="H" horiz-adv-x="765" 
d="M675 0h-151v308h-283v-308h-151v714h151v-280h283v280h151v-714z" />
    <glyph glyph-name="I" unicode="I" horiz-adv-x="389" 
d="M357 0h-325v86l87 40v462l-87 40v86h325v-86l-87 -40v-462l87 -40v-86z" />
    <glyph glyph-name="J" unicode="J" horiz-adv-x="331" 
d="M15 -210q-29 0 -51 3t-38 8v126q16 -4 33.5 -7t37.5 -3q26 0 47.5 10t33.5 37.5t12 80.5v669h151v-668q0 -92 -28.5 -148.5t-79.5 -82t-118 -25.5z" />
    <glyph glyph-name="K" unicode="K" horiz-adv-x="664" 
d="M664 0h-172l-187 301l-64 -46v-255h-151v714h151v-327l30 42l30 42l193 243h168l-249 -316z" />
    <glyph glyph-name="L" unicode="L" horiz-adv-x="565" 
d="M90 0v714h151v-589h290v-125h-441z" />
    <glyph glyph-name="M" unicode="M" horiz-adv-x="943" 
d="M392 0l-172 560h-4l3 -60t4 -86t2 -82v-332h-135v714h206l169 -546h3l179 546h206v-714h-141v338q0 34 1.5 78t3 83.5t2.5 59.5h-4l-184 -559h-139z" />
    <glyph glyph-name="N" unicode="N" horiz-adv-x="813" 
d="M723 0h-192l-311 540h-4q2 -51 4.5 -102t4.5 -102v-336h-135v714h191l310 -535h3l-4 98t-3 99v338h136v-714z" />
    <glyph glyph-name="O" unicode="O" horiz-adv-x="796" 
d="M738 358q0 -111 -36.5 -193.5t-112 -128.5t-191.5 -46t-191.5 46t-112 129t-36.5 194t36.5 193t112 127.5t192.5 45.5q116 0 191 -45.5t111.5 -128t36.5 -193.5zM217 358q0 -112 43 -176.5t138 -64.5q97 0 139 64.5t42 176.5t-42 176.5t-138 64.5t-139 -64.5t-43 -176.5z
" />
    <glyph glyph-name="P" unicode="P" horiz-adv-x="628" 
d="M318 714q138 0 201.5 -59.5t63.5 -163.5q0 -63 -26 -117t-86.5 -87t-164.5 -33h-65v-254h-151v714h228zM310 590h-69v-212h50q64 0 101.5 25.5t37.5 82.5q0 104 -120 104z" />
    <glyph glyph-name="Q" unicode="Q" horiz-adv-x="796" 
d="M738 358q0 -120 -43 -208t-133 -128l172 -192h-194l-131 160h-11q-116 0 -191.5 46t-112 129t-36.5 194t36.5 193t112 127.5t192.5 45.5q116 0 191 -45.5t111.5 -128t36.5 -193.5zM217 358q0 -112 43 -176.5t138 -64.5q97 0 139 64.5t42 176.5t-42 176.5t-138 64.5
t-139 -64.5t-43 -176.5z" />
    <glyph glyph-name="R" unicode="R" horiz-adv-x="660" 
d="M298 714q146 0 215.5 -53t69.5 -161q0 -49 -18.5 -85.5t-49 -62t-65.5 -41.5l210 -311h-168l-170 274h-81v-274h-151v714h208zM287 590h-46v-193h49q75 0 107.5 25t32.5 74q0 51 -35 72.5t-108 21.5z" />
    <glyph glyph-name="S" unicode="S" horiz-adv-x="551" 
d="M511 198q0 -95 -68.5 -151.5t-194.5 -56.5q-113 0 -202 43v141q51 -22 105.5 -40.5t108.5 -18.5q56 0 79.5 21.5t23.5 54.5q0 27 -18.5 46t-49.5 35.5t-71 35.5q-25 12 -54 28.5t-55.5 41t-43.5 59.5t-17 84q0 96 65 149.5t177 53.5q56 0 106 -13t106 -37l-49 -118
q-49 20 -88 31t-80 11q-43 0 -66 -20t-23 -52q0 -38 34 -60t101 -54q55 -26 93.5 -54t59.5 -66t21 -94z" />
    <glyph glyph-name="T" unicode="T" horiz-adv-x="579" 
d="M365 0h-151v588h-194v126h539v-126h-194v-588z" />
    <glyph glyph-name="U" unicode="U" horiz-adv-x="756" 
d="M671 714v-462q0 -74 -32.5 -133.5t-98.5 -94t-165 -34.5q-142 0 -216 72.5t-74 191.5v460h151v-437q0 -89 36 -124.5t107 -35.5q74 0 107.5 39t33.5 122v436h151z" />
    <glyph glyph-name="V" unicode="V" horiz-adv-x="650" 
d="M650 714l-243 -714h-165l-242 714h153l134 -425q3 -11 11 -40.5t16 -62t11 -54.5q3 22 10.5 54.5t15 62t11.5 40.5l135 425h153z" />
    <glyph glyph-name="W" unicode="W" horiz-adv-x="967" 
d="M967 714l-182 -714h-172l-97 375q-3 11 -7.5 33t-10 48t-10 49t-5.5 37q-1 -14 -5.5 -37t-9.5 -48.5t-10 -48t-8 -34.5l-96 -374h-172l-182 714h149l91 -390q6 -23 13 -58t13 -70t9 -59q3 25 9 59.5t12.5 67t11.5 50.5l104 400h143l104 -400q5 -18 11.5 -50.5t12.5 -67.5
t9 -59q3 25 9 59.5t13.5 69t12.5 58.5l91 390h149z" />
    <glyph glyph-name="X" unicode="X" horiz-adv-x="667" 
d="M667 0h-173l-166 270l-166 -270h-162l237 368l-222 346h167l154 -257l151 257h163l-224 -354z" />
    <glyph glyph-name="Y" unicode="Y" horiz-adv-x="624" 
d="M312 420l149 294h163l-237 -436v-278h-150v273l-237 441h164z" />
    <glyph glyph-name="Z" unicode="Z" horiz-adv-x="579" 
d="M555 0h-531v98l342 491h-333v125h513v-98l-342 -491h351v-125z" />
    <glyph glyph-name="bracketleft" unicode="[" horiz-adv-x="331" 
d="M306 -158h-236v872h236v-103h-109v-666h109v-103z" />
    <glyph glyph-name="backslash" unicode="\" horiz-adv-x="413" 
d="M141 714l266 -714h-135l-266 714h135z" />
    <glyph glyph-name="bracketright" unicode="]" horiz-adv-x="331" 
d="M25 -55h109v666h-109v103h236v-872h-236v103z" />
    <glyph glyph-name="asciicircum" unicode="^" horiz-adv-x="572" 
d="M23 254l214 464h70l242 -464h-117l-157 314l-137 -314h-115z" />
    <glyph glyph-name="underscore" unicode="_" horiz-adv-x="411" 
d="M413 -158h-415v68h415v-68z" />
    <glyph glyph-name="grave" unicode="`" horiz-adv-x="362" 
d="M207 766q15 -22 35.5 -49.5t42 -53t37.5 -44.5v-13h-99q-19 13 -44.5 32.5t-52 41.5t-49.5 42t-37 34v10h167z" />
    <glyph glyph-name="a" unicode="a" horiz-adv-x="604" 
d="M302 557q110 0 168.5 -47.5t58.5 -145.5v-364h-104l-29 74h-4q-35 -44 -74 -64t-107 -20q-73 0 -121 42t-48 131q0 87 61 128t183 46l95 3v24q0 43 -22.5 63t-62.5 20t-78 -11.5t-76 -28.5l-49 101q43 22 97 35.5t112 13.5zM381 253l-58 -2q-72 -2 -100 -26t-28 -63
q0 -34 20 -48.5t52 -14.5q48 0 81 28.5t33 80.5v45z" />
    <glyph glyph-name="b" unicode="b" horiz-adv-x="633" 
d="M227 760v-177q0 -31 -2 -61t-4 -47h6q22 34 59 57.5t96 23.5q92 0 149 -71.5t57 -210.5q0 -140 -58 -212t-152 -72q-60 0 -94.5 21.5t-56.5 48.5h-10l-25 -60h-114v760h149zM334 437q-58 0 -82 -36.5t-25 -109.5v-16q0 -79 23.5 -121.5t85.5 -42.5q46 0 73 42.5t27 122.5
t-27.5 120.5t-74.5 40.5z" />
    <glyph glyph-name="c" unicode="c" horiz-adv-x="514" 
d="M300 -10q-122 0 -188.5 67t-66.5 213q0 100 34 163t94.5 93t139.5 30q56 0 97.5 -11t72.5 -26l-44 -115q-35 14 -65.5 23t-60.5 9q-116 0 -116 -165q0 -82 30.5 -121t85.5 -39q47 0 83 12.5t70 34.5v-127q-34 -22 -71.5 -31.5t-94.5 -9.5z" />
    <glyph glyph-name="d" unicode="d" horiz-adv-x="633" 
d="M251 -10q-91 0 -148.5 71.5t-57.5 210.5q0 140 58 212t152 72q59 0 97 -23t60 -57h5q-3 16 -7 46.5t-4 62.5v175h149v-760h-114l-29 71h-6q-22 -34 -59 -57.5t-96 -23.5zM303 109q61 0 86 36.5t27 109.5v16q0 79 -24.5 121.5t-90.5 42.5q-49 0 -77 -42.5t-28 -122.5
t28 -120.5t79 -40.5z" />
    <glyph glyph-name="e" unicode="e" horiz-adv-x="591" 
d="M303 556q113 0 179 -64.5t66 -183.5v-72h-352q2 -63 37.5 -99t98.5 -36q52 0 95.5 10.5t89.5 32.5v-115q-41 -20 -85 -29.5t-107 -9.5q-82 0 -145 30.5t-99 92t-36 156.5t32.5 159t90.5 96t135 32zM304 450q-44 0 -72 -28t-33 -87h209q-1 49 -26.5 82t-77.5 33z" />
    <glyph glyph-name="f" unicode="f" horiz-adv-x="387" 
d="M380 434h-129v-434h-149v434h-82v72l82 40v40q0 70 23.5 108.5t67 54.5t102.5 16q43 0 79 -7t58 -16l-38 -109q-17 5 -37.5 9.5t-45.5 4.5q-31 0 -45.5 -19t-14.5 -48v-34h129v-112z" />
    <glyph glyph-name="g" unicode="g" horiz-adv-x="633" 
d="M255 556q101 0 158 -80h4l12 70h126v-547q0 -117 -69 -178t-204 -61q-58 0 -107.5 7t-96.5 25v119q100 -42 213 -42q115 0 115 124v11q0 16 1 34.5t3 32.5h-4q-28 -43 -67 -62t-88 -19q-97 0 -151.5 74.5t-54.5 207.5q0 134 56 209t154 75zM302 435q-105 0 -105 -165
q0 -163 107 -163q57 0 84.5 32.5t27.5 113.5v18q0 88 -27 126t-87 38z" />
    <glyph glyph-name="h" unicode="h" horiz-adv-x="657" 
d="M227 760v-155q0 -41 -2.5 -77.5t-4.5 -51.5h8q26 42 67 61t91 19q88 0 142 -47.5t54 -152.5v-356h-149v319q0 118 -88 118q-67 0 -92.5 -46.5t-25.5 -133.5v-257h-149v760h149z" />
    <glyph glyph-name="i" unicode="i" horiz-adv-x="305" 
d="M153 760q33 0 57 -15.5t24 -57.5q0 -41 -24 -57t-57 -16q-34 0 -57.5 16t-23.5 57q0 42 23.5 57.5t57.5 15.5zM227 546v-546h-149v546h149z" />
    <glyph glyph-name="j" unicode="j" horiz-adv-x="305" 
d="M72 687q0 42 23.5 57.5t57.5 15.5q33 0 57 -15.5t24 -57.5q0 -41 -24 -57t-57 -16q-34 0 -57.5 16t-23.5 57zM34 -240q-26 0 -53 3.5t-45 8.5v117q18 -5 34 -7t36 -2q30 0 51 17t21 66v583h149v-605q0 -50 -19 -91t-61.5 -65.5t-112.5 -24.5z" />
    <glyph glyph-name="k" unicode="k" horiz-adv-x="620" 
d="M227 760v-340q0 -31 -2.5 -61.5t-5.5 -61.5h2q15 21 31 42t34 41l153 166h168l-217 -237l230 -309h-172l-157 221l-64 -51v-170h-149v760h149z" />
    <glyph glyph-name="l" unicode="l" horiz-adv-x="305" 
d="M227 0h-149v760h149v-760z" />
    <glyph glyph-name="m" unicode="m" horiz-adv-x="982" 
d="M719 556q93 0 140.5 -47.5t47.5 -152.5v-356h-149v319q0 118 -82 118q-59 0 -84 -42t-25 -121v-274h-149v319q0 118 -82 118q-62 0 -85.5 -46.5t-23.5 -133.5v-257h-149v546h114l20 -70h8q25 42 68.5 61t90.5 19q60 0 101.5 -19.5t64.5 -60.5h13q25 42 69.5 61t91.5 19z
" />
    <glyph glyph-name="n" unicode="n" horiz-adv-x="657" 
d="M388 556q88 0 141 -47.5t53 -152.5v-356h-149v319q0 59 -21 88.5t-67 29.5q-68 0 -93 -46.5t-25 -133.5v-257h-149v546h114l20 -70h8q26 42 71.5 61t96.5 19z" />
    <glyph glyph-name="o" unicode="o" horiz-adv-x="619" 
d="M574 274q0 -136 -71.5 -210t-194.5 -74q-76 0 -135.5 33t-93.5 96.5t-34 154.5q0 136 71 209t195 73q77 0 136 -33t93 -96t34 -153zM197 274q0 -81 26.5 -122.5t86.5 -41.5q59 0 85.5 41.5t26.5 122.5t-26.5 121.5t-86.5 40.5q-59 0 -85.5 -40.5t-26.5 -121.5z" />
    <glyph glyph-name="p" unicode="p" horiz-adv-x="633" 
d="M382 556q92 0 149 -71.5t57 -210.5q0 -140 -59 -212t-151 -72q-59 0 -94 21.5t-57 48.5h-8q8 -42 8 -80v-220h-149v786h121l21 -71h7q22 33 59 57t96 24zM334 437q-58 0 -82 -36.5t-25 -109.5v-16q0 -79 23.5 -121.5t85.5 -42.5q51 0 75.5 42.5t24.5 122.5
q0 161 -102 161z" />
    <glyph glyph-name="q" unicode="q" horiz-adv-x="633" 
d="M406 -240v229q0 41 6 82h-6q-21 -34 -58 -57.5t-97 -23.5q-92 0 -149 71.5t-57 210.5q0 140 58 212t151 72q60 0 97.5 -23t60.5 -57h4l13 70h126v-786h-149zM304 107q62 0 86 36.5t26 109.5v18q0 79 -24.5 121.5t-89.5 42.5q-53 0 -79 -42.5t-26 -122.5q0 -163 107 -163z
" />
    <glyph glyph-name="r" unicode="r" horiz-adv-x="454" 
d="M383 556q11 0 26 -1t24 -3l-11 -140q-8 2 -21 3.5t-23 1.5q-38 0 -73 -13.5t-56.5 -43.5t-21.5 -82v-278h-149v546h113l22 -92h7q24 42 66 72t97 30z" />
    <glyph glyph-name="s" unicode="s" horiz-adv-x="497" 
d="M459 162q0 -83 -58.5 -127.5t-174.5 -44.5q-57 0 -98 7.5t-82 24.5v123q44 -20 95 -33t90 -13q43 0 62 13t19 34q0 14 -7.5 25t-32.5 25t-78 36q-52 22 -84.5 43.5t-48.5 52t-16 76.5q0 76 59 114t157 38q51 0 97 -10t95 -33l-45 -107q-40 17 -76 28.5t-73 11.5
q-66 0 -66 -36q0 -13 8.5 -23.5t33 -22.5t72.5 -32q47 -19 81 -39.5t52.5 -51.5t18.5 -79z" />
    <glyph glyph-name="t" unicode="t" horiz-adv-x="434" 
d="M308 109q25 0 48 4.5t46 12.5v-111q-24 -11 -59.5 -18t-77.5 -7q-49 0 -87.5 16t-61 55t-22.5 110v263h-71v63l82 50l43 115h95v-116h153v-112h-153v-263q0 -31 18 -46.5t47 -15.5z" />
    <glyph glyph-name="u" unicode="u" horiz-adv-x="657" 
d="M579 546v-546h-114l-20 70h-8q-26 -42 -71.5 -61t-96.5 -19q-88 0 -141 47.5t-53 152.5v356h149v-319q0 -59 21 -88.5t67 -29.5q68 0 93 46.5t25 133.5v257h149z" />
    <glyph glyph-name="v" unicode="v" horiz-adv-x="569" 
d="M208 0l-208 546h156l105 -311q9 -28 14 -58t7 -54h4q3 54 22 112l105 311h156l-208 -546h-153z" />
    <glyph glyph-name="w" unicode="w" horiz-adv-x="856" 
d="M527 0l-42 191q-4 17 -11.5 50.5t-16.5 72t-17 71t-11 47.5h-4q-3 -15 -10.5 -47.5t-16.5 -71t-17 -72.5t-12 -52l-44 -189h-160l-155 546h148l63 -242q7 -26 12.5 -60.5t10 -67t7.5 -51.5h4q1 14 4 37.5t7.5 48.5t8 45t5.5 28l67 262h164l64 -262q3 -14 9 -45t10 -63
t5 -51h4q2 17 7 49.5t11.5 68t13.5 61.5l65 242h146l-157 -546h-162z" />
    <glyph glyph-name="x" unicode="x" horiz-adv-x="578" 
d="M190 279l-176 267h169l106 -174l107 174h169l-178 -267l186 -279h-169l-115 187l-115 -187h-169z" />
    <glyph glyph-name="y" unicode="y" horiz-adv-x="569" 
d="M0 546h163l103 -307q8 -23 12 -46t6 -49h3q3 26 8 49t13 46l101 307h160l-231 -616q-32 -85 -91 -127.5t-137 -42.5q-26 0 -44 2.5t-32 5.5v118q10 -2 26 -4t33 -2q47 0 74 28.5t41 68.5l9 27z" />
    <glyph glyph-name="z" unicode="z" horiz-adv-x="488" 
d="M458 0h-431v88l253 344h-238v114h407v-97l-246 -335h255v-114z" />
    <glyph glyph-name="braceleft" unicode="{" horiz-adv-x="394" 
d="M354 -158q-86 0 -132 14t-64 44t-18 78v154q0 47 -32 67t-93 20v117q61 0 93 20t32 67v155q0 48 18 78t64 44t132 14v-110q-39 -1 -62 -14t-23 -55v-146q0 -91 -114 -108v-6q114 -17 114 -108v-146q0 -42 23 -55t62 -14v-110z" />
    <glyph glyph-name="bar" unicode="|" horiz-adv-x="551" 
d="M222 757h107v-984h-107v984z" />
    <glyph glyph-name="braceright" unicode="}" horiz-adv-x="394" 
d="M40 -158v110q39 1 62 14t23 55v146q0 91 114 108v6q-114 17 -114 108v146q0 42 -23 55t-62 14v110q86 0 132 -14t64 -44t18 -78v-155q0 -47 32 -67t93 -20v-117q-61 0 -93 -20t-32 -67v-154q0 -48 -18 -78t-64 -44t-132 -14z" />
    <glyph glyph-name="asciitilde" unicode="~" horiz-adv-x="572" 
d="M268 301q-37 16 -62.5 21.5t-48.5 5.5q-29 0 -59 -17t-55 -42v113q50 53 125 53q29 0 58.5 -5.5t76.5 -25.5q37 -16 63 -21.5t48 -5.5q28 0 58.5 17t55.5 42v-113q-50 -53 -125 -53q-29 0 -58.5 6t-76.5 25z" />
    <glyph glyph-name="uni00A0" unicode="&#xa0;" horiz-adv-x="260" 
 />
    <glyph glyph-name="exclamdown" unicode="&#xa1;" horiz-adv-x="286" 
d="M228 463q0 -46 -25 -64.5t-61 -18.5q-34 0 -59.5 18.5t-25.5 64.5q0 44 25.5 63.5t59.5 19.5q36 0 61 -19.5t25 -63.5zM82 296h119l25 -476h-169z" />
    <glyph glyph-name="cent" unicode="&#xa2;" horiz-adv-x="572" 
d="M362 724v-77q47 -2 82.5 -12.5t63.5 -23.5l-44 -115q-35 14 -65.5 23t-60.5 9q-116 0 -116 -165q0 -82 30 -121t86 -39q46 0 80 10t73 27v-124q-31 -15 -62.5 -23.5t-66.5 -10.5v-92h-87v96q-97 14 -151 80t-54 196q0 94 25.5 152.5t72 89t107.5 39.5v81h87z" />
    <glyph glyph-name="sterling" unicode="&#xa3;" horiz-adv-x="572" 
d="M342 724q54 0 102.5 -12t87.5 -28l-45 -112q-35 14 -68.5 22.5t-64.5 8.5q-32 0 -55.5 -18.5t-23.5 -65.5v-94h183v-107h-183v-70q0 -53 -24 -80.5t-50 -40.5h351v-127h-512v121q41 18 64.5 43.5t23.5 82.5v71h-87v107h87v95q0 74 29 118.5t77.5 65t107.5 20.5z" />
    <glyph glyph-name="currency" unicode="&#xa4;" horiz-adv-x="572" 
d="M92 353q0 26 7 50.5t19 45.5l-63 62l72 72l62 -62q21 12 46 19t50 7q51 0 96 -27l62 63l73 -70l-63 -63q12 -20 19 -45.5t7 -51.5q0 -53 -26 -97l61 -61l-71 -71l-62 61q-21 -11 -45.5 -18t-50.5 -7q-56 0 -97 25l-61 -60l-71 71l62 61q-26 44 -26 96zM193 353
q0 -38 27 -65t65 -27q39 0 66.5 27t27.5 65q0 39 -27.5 66t-66.5 27q-38 0 -65 -27t-27 -66z" />
    <glyph glyph-name="yen" unicode="&#xa5;" horiz-adv-x="572" 
d="M285 420l129 294h153l-187 -365h95v-87h-120v-67h120v-87h-120v-108h-140v108h-121v87h121v67h-121v87h93l-184 365h154z" />
    <glyph glyph-name="brokenbar" unicode="&#xa6;" horiz-adv-x="551" 
d="M222 757h107v-398h-107v398zM222 171h107v-398h-107v398z" />
    <glyph glyph-name="section" unicode="&#xa7;" horiz-adv-x="486" 
d="M59 391q0 43 19.5 73t45.5 48q-31 20 -48 48t-17 65q0 63 54.5 101.5t143.5 38.5q49 0 92.5 -11.5t84.5 -29.5l-40 -93q-33 16 -67.5 28.5t-72.5 12.5q-40 0 -58 -11t-18 -34q0 -25 24.5 -42t79.5 -39q70 -28 112.5 -67t42.5 -98q0 -49 -17 -78.5t-44 -47.5
q30 -19 45.5 -45t15.5 -62q0 -72 -58 -115t-157 -43q-53 0 -94.5 10t-75.5 29v101q38 -20 85 -34t85 -14q55 0 75 16.5t20 40.5q0 17 -7.5 29t-29 24.5t-64.5 30.5q-50 21 -85 42.5t-53.5 51t-18.5 74.5zM168 402q0 -30 27.5 -53.5t85.5 -47.5l7 -3q14 10 26 27t12 43
q0 30 -23 53.5t-91 47.5q-17 -7 -30.5 -24.5t-13.5 -42.5z" />
    <glyph glyph-name="dieresis" unicode="&#xa8;" horiz-adv-x="607" 
d="M136 686q0 34 20 50t48 16t48.5 -16t20.5 -50q0 -33 -20.5 -49t-48.5 -16t-48 16t-20 49zM333 686q0 34 20 50t49 16q28 0 48.5 -16t20.5 -50q0 -33 -20.5 -49t-48.5 -16q-29 0 -49 16t-20 49z" />
    <glyph glyph-name="copyright" unicode="&#xa9;" horiz-adv-x="832" 
d="M416 -10q-80 0 -147 27t-116.5 76.5t-76.5 116.5t-27 147q0 76 27.5 142.5t77.5 117t117 79t145 28.5q76 0 142.5 -27t117 -76.5t79 -116.5t28.5 -147t-27 -147t-76.5 -116.5t-116.5 -76.5t-147 -27zM416 54q82 0 149.5 39t107.5 107t40 157q0 63 -22.5 118t-62.5 97
t-94.5 65.5t-117.5 23.5q-86 0 -153.5 -39t-106.5 -107.5t-39 -157.5t38.5 -157t105.5 -107t155 -39zM431 128q-102 0 -152.5 63t-50.5 166q0 67 24 118.5t70 81t113 29.5q65 0 123 -30l-29 -67q-50 26 -93 26q-59 0 -91.5 -42.5t-32.5 -115.5q0 -77 28.5 -118t94.5 -41
q23 0 51.5 6.5t53.5 16.5v-69q-24 -10 -49 -17t-60 -7z" />
    <glyph glyph-name="ordfeminine" unicode="&#xaa;" horiz-adv-x="383" 
d="M200 722q71 0 105.5 -36t34.5 -97v-216h-66l-15 54q-44 -60 -118 -60q-53 0 -85.5 26.5t-32.5 82.5q0 58 45 82.5t126 28.5l48 2v8q0 49 -62 49q-22 0 -49.5 -8t-56.5 -22l-32 66q32 16 71 28t87 12zM242 531l-48 -3q-44 -3 -57.5 -18.5t-13.5 -32.5q0 -19 11 -27.5
t27 -8.5q37 0 59 20.5t22 51.5v18z" />
    <glyph glyph-name="guillemotleft" unicode="&#xab;" horiz-adv-x="615" 
d="M40 280l181 222l107 -58l-136 -170l136 -170l-107 -58l-181 221v13zM287 280l181 222l107 -58l-136 -170l136 -170l-107 -58l-181 221v13z" />
    <glyph glyph-name="logicalnot" unicode="&#xac;" horiz-adv-x="572" 
d="M528 406v-285h-107v178h-378v107h485z" />
    <glyph glyph-name="uni00AD" unicode="&#xad;" horiz-adv-x="322" 
d="M30 207v122h262v-122h-262z" />
    <glyph glyph-name="registered" unicode="&#xae;" horiz-adv-x="832" 
d="M416 -10q-80 0 -147 27t-116.5 76.5t-76.5 116.5t-27 147q0 76 27.5 142.5t77.5 117t117 79t145 28.5q76 0 142.5 -27t117 -76.5t79 -116.5t28.5 -147t-27 -147t-76.5 -116.5t-116.5 -76.5t-147 -27zM416 54q82 0 149.5 39t107.5 107t40 157q0 63 -22.5 118t-62.5 97
t-94.5 65.5t-117.5 23.5q-86 0 -153.5 -39t-106.5 -107.5t-39 -157.5t38.5 -157t105.5 -107t155 -39zM274 138v442h133q82 0 120 -35t38 -99q0 -47 -24 -74.5t-54 -39.5l116 -194h-91l-95 168h-62v-168h-81zM355 373h50q39 0 58.5 19.5t19.5 51.5q0 35 -17.5 51t-61.5 16
h-49v-138z" />
    <glyph glyph-name="overscore" unicode="&#xaf;" horiz-adv-x="500" 
d="M503 760h-506v98h506v-98z" />
    <glyph glyph-name="degree" unicode="&#xb0;" horiz-adv-x="428" 
d="M214 387q-52 0 -91 21.5t-61.5 59.5t-22.5 87t22.5 87t61.5 60t91 22t91 -21.5t61 -60t22 -87.5t-22 -87t-61 -59.5t-91 -21.5zM214 480q32 0 54 20t22 55q0 36 -22 56.5t-54 20.5t-54 -20.5t-22 -56.5q0 -35 22 -55t54 -20z" />
    <glyph glyph-name="plusminus" unicode="&#xb1;" horiz-adv-x="572" 
d="M339 436h189v-107h-189v-188h-107v188h-189v107h189v190h107v-190zM43 0v107h485v-107h-485z" />
    <glyph glyph-name="uni00B2" unicode="&#xb2;" horiz-adv-x="379" 
d="M343 416h-316v82l109 107q45 43 61.5 67t16.5 50q0 18 -12 28t-31 10q-39 0 -88 -43l-60 74q31 28 71 45.5t93 17.5q65 0 104.5 -31.5t39.5 -90.5q0 -45 -25.5 -82t-83.5 -90l-51 -46h172v-98z" />
    <glyph glyph-name="uni00B3" unicode="&#xb3;" horiz-adv-x="379" 
d="M184 853q61 0 101 -30.5t40 -82.5q0 -34 -19.5 -58.5t-63.5 -38.5v-6q50 -11 73.5 -39t23.5 -63q0 -59 -43 -93t-134 -34q-71 0 -133 34v93q32 -19 64.5 -31.5t67.5 -12.5q70 0 70 52q0 20 -17 36t-64 16h-55v78h45q51 0 65.5 16.5t14.5 36.5q0 19 -12 31t-37 12
q-23 0 -43.5 -9.5t-48.5 -28.5l-49 69q30 22 67 37.5t87 15.5z" />
    <glyph glyph-name="acute" unicode="&#xb4;" horiz-adv-x="362" 
d="M322 766v-10q-14 -14 -37 -34t-49.5 -42t-52 -41.5t-44.5 -32.5h-99v13q16 19 37.5 44.5t42 53t35.5 49.5h167z" />
    <glyph glyph-name="uni00B5" unicode="&#xb5;" horiz-adv-x="660" 
d="M582 546v-546h-113l-21 73h-7q-20 -41 -49.5 -62t-72.5 -21q-61 0 -94 44h-3q2 -10 3 -31.5t1.5 -45t0.5 -41.5v-156h-149v786h149v-319q0 -118 89 -118q67 0 92 46.5t25 133.5v257h149z" />
    <glyph glyph-name="paragraph" unicode="&#xb6;" horiz-adv-x="655" 
d="M570 -127h-79v789h-81v-789h-79v400q-30 -9 -71 -9q-62 0 -108 23t-71.5 77t-25.5 145q0 95 27.5 150t77.5 78t115 23h295v-887z" />
    <glyph glyph-name="periodcentered" unicode="&#xb7;" horiz-adv-x="285" 
d="M57 352q0 46 25 64.5t61 18.5q35 0 60 -18.5t25 -64.5q0 -44 -25 -63.5t-60 -19.5q-36 0 -61 19.5t-25 63.5z" />
    <glyph glyph-name="cedilla" unicode="&#xb8;" horiz-adv-x="205" 
d="M204 -122q0 -56 -33 -87t-118 -31q-22 0 -39.5 3t-31.5 7v82q14 -4 34.5 -7t35.5 -3q14 0 24.5 6.5t10.5 23.5q0 18 -18 32t-63 21l38 75h94l-13 -30q30 -10 54.5 -32.5t24.5 -59.5z" />
    <glyph glyph-name="uni00B9" unicode="&#xb9;" horiz-adv-x="379" 
d="M285 844v-428h-116v218q0 13 0.5 34t1.5 40.5t2 26.5q-6 -8 -17.5 -19.5t-19.5 -18.5l-38 -30l-53 62l147 115h93z" />
    <glyph glyph-name="ordmasculine" unicode="&#xba;" horiz-adv-x="388" 
d="M360 545q0 -85 -45 -131.5t-122 -46.5q-72 0 -118.5 46.5t-46.5 131.5t45 131t122 46q71 0 118 -46t47 -131zM127 545q0 -49 16 -73.5t51 -24.5q66 0 66 98q0 97 -66 97q-35 0 -51 -24t-16 -73z" />
    <glyph glyph-name="guillemotright" unicode="&#xbb;" horiz-adv-x="615" 
d="M575 267l-181 -221l-107 58l136 170l-136 170l107 58l181 -222v-13zM328 267l-181 -221l-107 58l136 170l-136 170l107 58l181 -222v-13z" />
    <glyph glyph-name="onequarter" unicode="&#xbc;" horiz-adv-x="830" 
d="M156 0l396 714h117l-396 -714h-117zM146 286v218q0 13 0.5 34t1.5 40.5t2 26.5q-6 -8 -17.5 -19.5t-19.5 -18.5l-38 -30l-53 62l147 115h93v-428h-116zM644 0v74h-187v75l188 282h115v-275h61v-82h-61v-74h-116zM547 156h97v80q0 42 3 90q-5 -14 -17 -39t-21 -38z" />
    <glyph glyph-name="onehalf" unicode="&#xbd;" horiz-adv-x="874" 
d="M156 0l396 714h117l-396 -714h-117zM146 286v218q0 13 0.5 34t1.5 40.5t2 26.5q-6 -8 -17.5 -19.5t-19.5 -18.5l-38 -30l-53 62l147 115h93v-428h-116zM522 0v82l109 107q45 43 61.5 67t16.5 50q0 18 -11.5 28t-31.5 10q-39 0 -88 -43l-60 74q32 28 71.5 45.5t92.5 17.5
q64 0 104 -31.5t40 -90.5q0 -45 -25 -82t-84 -90l-51 -46h172v-98h-316z" />
    <glyph glyph-name="threequarters" unicode="&#xbe;" horiz-adv-x="845" 
d="M177 278q-71 0 -133 34v93q32 -19 64.5 -31.5t67.5 -12.5q70 0 70 52q0 20 -17 36t-64 16h-55v78h45q51 0 65.5 16.5t14.5 36.5q0 19 -12 31t-37 12q-23 0 -43.5 -9.5t-48.5 -28.5l-49 69q30 22 67 37.5t87 15.5q61 0 101 -30.5t40 -82.5q0 -34 -20 -58.5t-63 -38.5v-6
q49 -11 73 -39t24 -63q0 -59 -43 -93t-134 -34zM191 0l396 714h117l-396 -714h-117zM659 0v74h-187v75l188 282h115v-275h61v-82h-61v-74h-116zM562 156h97v80q0 42 3 90q-5 -14 -17 -39t-21 -38z" />
    <glyph glyph-name="questiondown" unicode="&#xbf;" horiz-adv-x="477" 
d="M345 295v-36q0 -49 -21 -83.5t-72 -71.5q-45 -32 -64.5 -55.5t-19.5 -55.5q0 -31 23.5 -48t65.5 -17t83 13t84 35l53 -107q-49 -27 -106 -44t-125 -17q-104 0 -161.5 50t-57.5 127q0 41 13 71t39 56t65 54q30 22 45.5 36.5t21 29t5.5 34.5v29h129zM361 462
q0 -46 -25 -64.5t-61 -18.5q-35 0 -60 18.5t-25 64.5q0 44 25 63.5t60 19.5q36 0 61 -19.5t25 -63.5z" />
    <glyph glyph-name="Agrave" unicode="&#xc0;" horiz-adv-x="690" 
d="M527 0l-52 170h-260l-52 -170h-163l252 717h185l253 -717h-163zM439 297l-52 166q-5 17 -13 43t-16 53t-13 47q-5 -20 -13.5 -49.5t-16 -56t-11.5 -37.5l-51 -166h186zM321 934q15 -22 35.5 -49.5t42 -53t37.5 -44.5v-13h-99q-19 13 -44.5 32.5t-52 41.5t-49.5 42t-37 34
v10h167z" />
    <glyph glyph-name="Aacute" unicode="&#xc1;" horiz-adv-x="690" 
d="M527 0l-52 170h-260l-52 -170h-163l252 717h185l253 -717h-163zM439 297l-52 166q-5 17 -13 43t-16 53t-13 47q-5 -20 -13.5 -49.5t-16 -56t-11.5 -37.5l-51 -166h186zM537 934v-10q-14 -14 -37 -34t-49.5 -42t-52 -41.5t-44.5 -32.5h-99v13q16 19 37.5 44.5t42 53
t35.5 49.5h167z" />
    <glyph glyph-name="Acircumflex" unicode="&#xc2;" horiz-adv-x="690" 
d="M527 0l-52 170h-260l-52 -170h-163l252 717h185l253 -717h-163zM439 297l-52 166q-5 17 -13 43t-16 53t-13 47q-5 -20 -13.5 -49.5t-16 -56t-11.5 -37.5l-51 -166h186zM433 934q14 -22 36.5 -49.5t46.5 -53.5t42 -44v-13h-99q-26 16 -57.5 37.5t-56.5 48.5
q-26 -27 -56 -48.5t-56 -37.5h-99v13q18 19 42 44.5t46.5 53t36.5 49.5h174z" />
    <glyph glyph-name="Atilde" unicode="&#xc3;" horiz-adv-x="690" 
d="M527 0l-52 170h-260l-52 -170h-163l252 717h185l253 -717h-163zM439 297l-52 166q-5 17 -13 43t-16 53t-13 47q-5 -20 -13.5 -49.5t-16 -56t-11.5 -37.5l-51 -166h186zM142 773q6 78 43.5 114.5t89.5 36.5q27 0 52 -13t50 -25.5t48 -12.5q15 0 29 13t20 39h73
q-6 -77 -44 -114t-89 -37q-26 0 -52 12.5t-50 25.5t-48 13q-15 0 -29 -13t-20 -39h-73z" />
    <glyph glyph-name="Adieresis" unicode="&#xc4;" horiz-adv-x="690" 
d="M527 0l-52 170h-260l-52 -170h-163l252 717h185l253 -717h-163zM439 297l-52 166q-5 17 -13 43t-16 53t-13 47q-5 -20 -13.5 -49.5t-16 -56t-11.5 -37.5l-51 -166h186zM177 854q0 34 20 50t48 16t48.5 -16t20.5 -50q0 -33 -20.5 -49t-48.5 -16t-48 16t-20 49zM374 854
q0 34 20 50t49 16q28 0 48.5 -16t20.5 -50q0 -33 -20.5 -49t-48.5 -16q-29 0 -49 16t-20 49z" />
    <glyph glyph-name="Aring" unicode="&#xc5;" horiz-adv-x="690" 
d="M527 0l-52 170h-260l-52 -170h-163l252 717h185l253 -717h-163zM439 297l-52 166q-5 17 -13 43t-16 53t-13 47q-5 -20 -13.5 -49.5t-16 -56t-11.5 -37.5l-51 -166h186zM344 648q-54 0 -87.5 31t-33.5 85t33.5 85t87.5 31q52 0 88 -31t36 -84q0 -55 -35.5 -86t-88.5 -31z
M344 717q20 0 33.5 12.5t13.5 34.5t-13.5 34.5t-33.5 12.5t-33.5 -12.5t-13.5 -34.5t12 -34.5t35 -12.5z" />
    <glyph glyph-name="AE" unicode="&#xc6;" horiz-adv-x="952" 
d="M893 0h-426v170h-240l-73 -170h-154l320 714h573v-124h-275v-157h257v-124h-257v-184h275v-125zM282 297h185v288h-62z" />
    <glyph glyph-name="Ccedilla" unicode="&#xc7;" horiz-adv-x="637" 
d="M393 598q-87 0 -133 -65t-46 -178q0 -114 42.5 -176.5t136.5 -62.5q43 0 87 10t95 28v-127q-47 -19 -93 -28t-103 -9q-111 0 -182 45.5t-105 128t-34 192.5q0 108 39 191t113.5 130t182.5 47q53 0 106.5 -13.5t102.5 -36.5l-49 -123q-40 19 -80.5 33t-79.5 14zM486 -122
q0 -56 -33 -87t-118 -31q-22 0 -39.5 3t-31.5 7v82q14 -4 34.5 -7t35.5 -3q14 0 24.5 6.5t10.5 23.5q0 18 -18 32t-63 21l38 75h94l-13 -30q30 -10 54.5 -32.5t24.5 -59.5z" />
    <glyph glyph-name="Egrave" unicode="&#xc8;" horiz-adv-x="560" 
d="M501 0h-411v714h411v-124h-260v-157h242v-124h-242v-184h260v-125zM277 934q15 -22 35.5 -49.5t42 -53t37.5 -44.5v-13h-99q-19 13 -44.5 32.5t-52 41.5t-49.5 42t-37 34v10h167z" />
    <glyph glyph-name="Eacute" unicode="&#xc9;" horiz-adv-x="560" 
d="M501 0h-411v714h411v-124h-260v-157h242v-124h-242v-184h260v-125zM493 934v-10q-14 -14 -37 -34t-49.5 -42t-52 -41.5t-44.5 -32.5h-99v13q16 19 37.5 44.5t42 53t35.5 49.5h167z" />
    <glyph glyph-name="Ecircumflex" unicode="&#xca;" horiz-adv-x="560" 
d="M501 0h-411v714h411v-124h-260v-157h242v-124h-242v-184h260v-125zM389 934q14 -22 36.5 -49.5t46.5 -53.5t42 -44v-13h-99q-26 16 -57.5 37.5t-56.5 48.5q-26 -27 -56 -48.5t-56 -37.5h-99v13q18 19 42 44.5t46.5 53t36.5 49.5h174z" />
    <glyph glyph-name="Edieresis" unicode="&#xcb;" horiz-adv-x="560" 
d="M501 0h-411v714h411v-124h-260v-157h242v-124h-242v-184h260v-125zM133 854q0 34 20 50t48 16t48.5 -16t20.5 -50q0 -33 -20.5 -49t-48.5 -16t-48 16t-20 49zM330 854q0 34 20 50t49 16q28 0 48.5 -16t20.5 -50q0 -33 -20.5 -49t-48.5 -16q-29 0 -49 16t-20 49z" />
    <glyph glyph-name="Igrave" unicode="&#xcc;" horiz-adv-x="389" 
d="M357 0h-325v86l87 40v462l-87 40v86h325v-86l-87 -40v-462l87 -40v-86zM171 934q15 -22 35.5 -49.5t42 -53t37.5 -44.5v-13h-99q-19 13 -44.5 32.5t-52 41.5t-49.5 42t-37 34v10h167z" />
    <glyph glyph-name="Iacute" unicode="&#xcd;" horiz-adv-x="389" 
d="M357 0h-325v86l87 40v462l-87 40v86h325v-86l-87 -40v-462l87 -40v-86zM387 934v-10q-14 -14 -37 -34t-49.5 -42t-52 -41.5t-44.5 -32.5h-99v13q16 19 37.5 44.5t42 53t35.5 49.5h167z" />
    <glyph glyph-name="Icircumflex" unicode="&#xce;" horiz-adv-x="389" 
d="M357 0h-325v86l87 40v462l-87 40v86h325v-86l-87 -40v-462l87 -40v-86zM283 934q14 -22 36.5 -49.5t46.5 -53.5t42 -44v-13h-99q-26 16 -57.5 37.5t-56.5 48.5q-26 -27 -56 -48.5t-56 -37.5h-99v13q18 19 42 44.5t46.5 53t36.5 49.5h174z" />
    <glyph glyph-name="Idieresis" unicode="&#xcf;" horiz-adv-x="389" 
d="M357 0h-325v86l87 40v462l-87 40v86h325v-86l-87 -40v-462l87 -40v-86zM27 854q0 34 20 50t48 16t48.5 -16t20.5 -50q0 -33 -20.5 -49t-48.5 -16t-48 16t-20 49zM224 854q0 34 20 50t49 16q28 0 48.5 -16t20.5 -50q0 -33 -20.5 -49t-48.5 -16q-29 0 -49 16t-20 49z" />
    <glyph glyph-name="Eth" unicode="&#xd0;" horiz-adv-x="740" 
d="M314 714q112 0 194.5 -40t128 -118t45.5 -192q0 -181 -103 -272.5t-287 -91.5h-202v291h-67v124h67v299h224zM321 590h-80v-175h116v-124h-116v-166h64q220 0 220 235q0 118 -53.5 174t-150.5 56z" />
    <glyph glyph-name="Ntilde" unicode="&#xd1;" horiz-adv-x="813" 
d="M723 0h-192l-311 540h-4q2 -51 4.5 -102t4.5 -102v-336h-135v714h191l310 -535h3l-4 98t-3 99v338h136v-714zM204 773q6 78 43.5 114.5t89.5 36.5q27 0 52 -13t50 -25.5t48 -12.5q15 0 29 13t20 39h73q-6 -77 -44 -114t-89 -37q-26 0 -52 12.5t-50 25.5t-48 13
q-15 0 -29 -13t-20 -39h-73z" />
    <glyph glyph-name="Ograve" unicode="&#xd2;" horiz-adv-x="796" 
d="M738 358q0 -111 -36.5 -193.5t-112 -128.5t-191.5 -46t-191.5 46t-112 129t-36.5 194t36.5 193t112 127.5t192.5 45.5q116 0 191 -45.5t111.5 -128t36.5 -193.5zM217 358q0 -112 43 -176.5t138 -64.5q97 0 139 64.5t42 176.5t-42 176.5t-138 64.5t-139 -64.5t-43 -176.5z
M374 934q15 -22 35.5 -49.5t42 -53t37.5 -44.5v-13h-99q-19 13 -44.5 32.5t-52 41.5t-49.5 42t-37 34v10h167z" />
    <glyph glyph-name="Oacute" unicode="&#xd3;" horiz-adv-x="796" 
d="M738 358q0 -111 -36.5 -193.5t-112 -128.5t-191.5 -46t-191.5 46t-112 129t-36.5 194t36.5 193t112 127.5t192.5 45.5q116 0 191 -45.5t111.5 -128t36.5 -193.5zM217 358q0 -112 43 -176.5t138 -64.5q97 0 139 64.5t42 176.5t-42 176.5t-138 64.5t-139 -64.5t-43 -176.5z
M590 934v-10q-14 -14 -37 -34t-49.5 -42t-52 -41.5t-44.5 -32.5h-99v13q16 19 37.5 44.5t42 53t35.5 49.5h167z" />
    <glyph glyph-name="Ocircumflex" unicode="&#xd4;" horiz-adv-x="796" 
d="M738 358q0 -111 -36.5 -193.5t-112 -128.5t-191.5 -46t-191.5 46t-112 129t-36.5 194t36.5 193t112 127.5t192.5 45.5q116 0 191 -45.5t111.5 -128t36.5 -193.5zM217 358q0 -112 43 -176.5t138 -64.5q97 0 139 64.5t42 176.5t-42 176.5t-138 64.5t-139 -64.5t-43 -176.5z
M486 934q14 -22 36.5 -49.5t46.5 -53.5t42 -44v-13h-99q-26 16 -57.5 37.5t-56.5 48.5q-26 -27 -56 -48.5t-56 -37.5h-99v13q18 19 42 44.5t46.5 53t36.5 49.5h174z" />
    <glyph glyph-name="Otilde" unicode="&#xd5;" horiz-adv-x="796" 
d="M738 358q0 -111 -36.5 -193.5t-112 -128.5t-191.5 -46t-191.5 46t-112 129t-36.5 194t36.5 193t112 127.5t192.5 45.5q116 0 191 -45.5t111.5 -128t36.5 -193.5zM217 358q0 -112 43 -176.5t138 -64.5q97 0 139 64.5t42 176.5t-42 176.5t-138 64.5t-139 -64.5t-43 -176.5z
M195 773q6 78 43.5 114.5t89.5 36.5q27 0 52 -13t50 -25.5t48 -12.5q15 0 29 13t20 39h73q-6 -77 -44 -114t-89 -37q-26 0 -52 12.5t-50 25.5t-48 13q-15 0 -29 -13t-20 -39h-73z" />
    <glyph glyph-name="Odieresis" unicode="&#xd6;" horiz-adv-x="796" 
d="M738 358q0 -111 -36.5 -193.5t-112 -128.5t-191.5 -46t-191.5 46t-112 129t-36.5 194t36.5 193t112 127.5t192.5 45.5q116 0 191 -45.5t111.5 -128t36.5 -193.5zM217 358q0 -112 43 -176.5t138 -64.5q97 0 139 64.5t42 176.5t-42 176.5t-138 64.5t-139 -64.5t-43 -176.5z
M230 854q0 34 20 50t48 16t48.5 -16t20.5 -50q0 -33 -20.5 -49t-48.5 -16t-48 16t-20 49zM427 854q0 34 20 50t49 16q28 0 48.5 -16t20.5 -50q0 -33 -20.5 -49t-48.5 -16q-29 0 -49 16t-20 49z" />
    <glyph glyph-name="multiply" unicode="&#xd7;" horiz-adv-x="572" 
d="M433 575l75 -73l-149 -149l147 -148l-73 -74l-149 147l-147 -146l-73 74l145 147l-146 147l74 75l147 -146z" />
    <glyph glyph-name="Oslash" unicode="&#xd8;" horiz-adv-x="796" 
d="M738 358q0 -111 -36.5 -193.5t-112 -128.5t-191.5 -46q-95 0 -164 32l-44 -66l-79 53l44 66q-49 49 -73 121t-24 163q0 111 36.5 193t112 127.5t192.5 45.5q49 0 91 -8.5t77 -25.5l41 61l78 -51l-43 -64q48 -48 71.5 -119.5t23.5 -159.5zM217 358q0 -45 6.5 -83t20.5 -67
l247 369q-39 22 -92 22q-96 0 -139 -64.5t-43 -176.5zM579 358q0 89 -25 145l-244 -367q18 -9 40 -14t48 -5q97 0 139 64.5t42 176.5z" />
    <glyph glyph-name="Ugrave" unicode="&#xd9;" horiz-adv-x="756" 
d="M671 714v-462q0 -74 -32.5 -133.5t-98.5 -94t-165 -34.5q-142 0 -216 72.5t-74 191.5v460h151v-437q0 -89 36 -124.5t107 -35.5q74 0 107.5 39t33.5 122v436h151zM354 934q15 -22 35.5 -49.5t42 -53t37.5 -44.5v-13h-99q-19 13 -44.5 32.5t-52 41.5t-49.5 42t-37 34v10
h167z" />
    <glyph glyph-name="Uacute" unicode="&#xda;" horiz-adv-x="756" 
d="M671 714v-462q0 -74 -32.5 -133.5t-98.5 -94t-165 -34.5q-142 0 -216 72.5t-74 191.5v460h151v-437q0 -89 36 -124.5t107 -35.5q74 0 107.5 39t33.5 122v436h151zM570 934v-10q-14 -14 -37 -34t-49.5 -42t-52 -41.5t-44.5 -32.5h-99v13q16 19 37.5 44.5t42 53t35.5 49.5
h167z" />
    <glyph glyph-name="Ucircumflex" unicode="&#xdb;" horiz-adv-x="756" 
d="M671 714v-462q0 -74 -32.5 -133.5t-98.5 -94t-165 -34.5q-142 0 -216 72.5t-74 191.5v460h151v-437q0 -89 36 -124.5t107 -35.5q74 0 107.5 39t33.5 122v436h151zM466 934q14 -22 36.5 -49.5t46.5 -53.5t42 -44v-13h-99q-26 16 -57.5 37.5t-56.5 48.5q-26 -27 -56 -48.5
t-56 -37.5h-99v13q18 19 42 44.5t46.5 53t36.5 49.5h174z" />
    <glyph glyph-name="Udieresis" unicode="&#xdc;" horiz-adv-x="756" 
d="M671 714v-462q0 -74 -32.5 -133.5t-98.5 -94t-165 -34.5q-142 0 -216 72.5t-74 191.5v460h151v-437q0 -89 36 -124.5t107 -35.5q74 0 107.5 39t33.5 122v436h151zM210 854q0 34 20 50t48 16t48.5 -16t20.5 -50q0 -33 -20.5 -49t-48.5 -16t-48 16t-20 49zM407 854
q0 34 20 50t49 16q28 0 48.5 -16t20.5 -50q0 -33 -20.5 -49t-48.5 -16q-29 0 -49 16t-20 49z" />
    <glyph glyph-name="Yacute" unicode="&#xdd;" horiz-adv-x="624" 
d="M312 420l149 294h163l-237 -436v-278h-150v273l-237 441h164zM504 934v-10q-14 -14 -37 -34t-49.5 -42t-52 -41.5t-44.5 -32.5h-99v13q16 19 37.5 44.5t42 53t35.5 49.5h167z" />
    <glyph glyph-name="Thorn" unicode="&#xde;" horiz-adv-x="628" 
d="M583 376q0 -61 -25 -114t-83.5 -86t-158.5 -33h-75v-143h-151v714h151v-112h87q132 0 193.5 -61.5t61.5 -164.5zM241 265h49q70 0 105 26t35 85q0 52 -31 77.5t-97 25.5h-61v-214z" />
    <glyph glyph-name="germandbls" unicode="&#xdf;" horiz-adv-x="711" 
d="M610 606q0 -37 -14 -64t-35 -47t-42 -35t-35 -27.5t-14 -25.5q0 -19 25 -35.5t81 -53.5q48 -31 74 -65.5t26 -93.5q0 -83 -57.5 -126t-167.5 -43q-93 0 -148 31v118q23 -16 63.5 -29t74.5 -13q39 0 60.5 15t21.5 45q0 17 -7 30.5t-26.5 28t-58.5 36.5q-61 35 -85 64
t-24 69q0 31 13.5 53t34 38t41 31t34 32t13.5 41q0 31 -32 50t-79 19q-53 0 -86.5 -24t-33.5 -74v-551h-149v556q0 71 35.5 117.5t96 69t137.5 22.5q75 0 134.5 -18.5t94 -54t34.5 -86.5z" />
    <glyph glyph-name="agrave" unicode="&#xe0;" horiz-adv-x="604" 
d="M302 557q110 0 168.5 -47.5t58.5 -145.5v-364h-104l-29 74h-4q-35 -44 -74 -64t-107 -20q-73 0 -121 42t-48 131q0 87 61 128t183 46l95 3v24q0 43 -22.5 63t-62.5 20t-78 -11.5t-76 -28.5l-49 101q43 22 97 35.5t112 13.5zM381 253l-58 -2q-72 -2 -100 -26t-28 -63
q0 -34 20 -48.5t52 -14.5q48 0 81 28.5t33 80.5v45zM278 766q15 -22 35.5 -49.5t42 -53t37.5 -44.5v-13h-99q-19 13 -44.5 32.5t-52 41.5t-49.5 42t-37 34v10h167z" />
    <glyph glyph-name="aacute" unicode="&#xe1;" horiz-adv-x="604" 
d="M302 557q110 0 168.5 -47.5t58.5 -145.5v-364h-104l-29 74h-4q-35 -44 -74 -64t-107 -20q-73 0 -121 42t-48 131q0 87 61 128t183 46l95 3v24q0 43 -22.5 63t-62.5 20t-78 -11.5t-76 -28.5l-49 101q43 22 97 35.5t112 13.5zM381 253l-58 -2q-72 -2 -100 -26t-28 -63
q0 -34 20 -48.5t52 -14.5q48 0 81 28.5t33 80.5v45zM494 766v-10q-14 -14 -37 -34t-49.5 -42t-52 -41.5t-44.5 -32.5h-99v13q16 19 37.5 44.5t42 53t35.5 49.5h167z" />
    <glyph glyph-name="acircumflex" unicode="&#xe2;" horiz-adv-x="604" 
d="M302 557q110 0 168.5 -47.5t58.5 -145.5v-364h-104l-29 74h-4q-35 -44 -74 -64t-107 -20q-73 0 -121 42t-48 131q0 87 61 128t183 46l95 3v24q0 43 -22.5 63t-62.5 20t-78 -11.5t-76 -28.5l-49 101q43 22 97 35.5t112 13.5zM381 253l-58 -2q-72 -2 -100 -26t-28 -63
q0 -34 20 -48.5t52 -14.5q48 0 81 28.5t33 80.5v45zM390 766q14 -22 36.5 -49.5t46.5 -53.5t42 -44v-13h-99q-26 16 -57.5 37.5t-56.5 48.5q-26 -27 -56 -48.5t-56 -37.5h-99v13q18 19 42 44.5t46.5 53t36.5 49.5h174z" />
    <glyph glyph-name="atilde" unicode="&#xe3;" horiz-adv-x="604" 
d="M302 557q110 0 168.5 -47.5t58.5 -145.5v-364h-104l-29 74h-4q-35 -44 -74 -64t-107 -20q-73 0 -121 42t-48 131q0 87 61 128t183 46l95 3v24q0 43 -22.5 63t-62.5 20t-78 -11.5t-76 -28.5l-49 101q43 22 97 35.5t112 13.5zM381 253l-58 -2q-72 -2 -100 -26t-28 -63
q0 -34 20 -48.5t52 -14.5q48 0 81 28.5t33 80.5v45zM99 605q6 78 43.5 114.5t89.5 36.5q27 0 52 -13t50 -25.5t48 -12.5q15 0 29 13t20 39h73q-6 -77 -44 -114t-89 -37q-26 0 -52 12.5t-50 25.5t-48 13q-15 0 -29 -13t-20 -39h-73z" />
    <glyph glyph-name="adieresis" unicode="&#xe4;" horiz-adv-x="604" 
d="M302 557q110 0 168.5 -47.5t58.5 -145.5v-364h-104l-29 74h-4q-35 -44 -74 -64t-107 -20q-73 0 -121 42t-48 131q0 87 61 128t183 46l95 3v24q0 43 -22.5 63t-62.5 20t-78 -11.5t-76 -28.5l-49 101q43 22 97 35.5t112 13.5zM381 253l-58 -2q-72 -2 -100 -26t-28 -63
q0 -34 20 -48.5t52 -14.5q48 0 81 28.5t33 80.5v45zM134 686q0 34 20 50t48 16t48.5 -16t20.5 -50q0 -33 -20.5 -49t-48.5 -16t-48 16t-20 49zM331 686q0 34 20 50t49 16q28 0 48.5 -16t20.5 -50q0 -33 -20.5 -49t-48.5 -16q-29 0 -49 16t-20 49z" />
    <glyph glyph-name="aring" unicode="&#xe5;" horiz-adv-x="604" 
d="M302 557q110 0 168.5 -47.5t58.5 -145.5v-364h-104l-29 74h-4q-35 -44 -74 -64t-107 -20q-73 0 -121 42t-48 131q0 87 61 128t183 46l95 3v24q0 43 -22.5 63t-62.5 20t-78 -11.5t-76 -28.5l-49 101q43 22 97 35.5t112 13.5zM381 253l-58 -2q-72 -2 -100 -26t-28 -63
q0 -34 20 -48.5t52 -14.5q48 0 81 28.5t33 80.5v45zM303 605q-54 0 -87.5 31t-33.5 85t33.5 85t87.5 31q52 0 88 -31t36 -84q0 -55 -35.5 -86t-88.5 -31zM303 674q20 0 33.5 12.5t13.5 34.5t-13.5 34.5t-33.5 12.5t-33.5 -12.5t-13.5 -34.5t12 -34.5t35 -12.5z" />
    <glyph glyph-name="ae" unicode="&#xe6;" horiz-adv-x="917" 
d="M641 556q69 0 121.5 -29t82 -84t29.5 -135v-72h-353q2 -63 37.5 -99t98.5 -36q96 0 186 43v-115q-41 -20 -85 -29.5t-109 -9.5q-67 0 -122 25t-90 76q-29 -35 -58.5 -57.5t-68 -33t-94.5 -10.5q-47 0 -86.5 18.5t-63.5 57t-24 97.5q0 87 59 128t177 46l93 3v41
q0 34 -21.5 50t-59.5 16q-39 0 -75.5 -10.5t-73.5 -27.5l-48 99q43 22 96 35.5t110 13.5q110 0 167 -64q32 31 74 47t101 16zM638 450q-50 0 -80 -28t-34 -87h210q-1 49 -25.5 82t-70.5 33zM371 253l-55 -2q-68 -2 -94.5 -26t-26.5 -63q0 -34 18.5 -48.5t49.5 -14.5
q46 0 77 28.5t31 80.5v45z" />
    <glyph glyph-name="ccedilla" unicode="&#xe7;" horiz-adv-x="514" 
d="M300 -10q-122 0 -188.5 67t-66.5 213q0 100 34 163t94.5 93t139.5 30q56 0 97.5 -11t72.5 -26l-44 -115q-35 14 -65.5 23t-60.5 9q-116 0 -116 -165q0 -82 30.5 -121t85.5 -39q47 0 83 12.5t70 34.5v-127q-34 -22 -71.5 -31.5t-94.5 -9.5zM407 -122q0 -56 -33 -87
t-118 -31q-22 0 -39.5 3t-31.5 7v82q14 -4 34.5 -7t35.5 -3q14 0 24.5 6.5t10.5 23.5q0 18 -18 32t-63 21l38 75h94l-13 -30q30 -10 54.5 -32.5t24.5 -59.5z" />
    <glyph glyph-name="egrave" unicode="&#xe8;" horiz-adv-x="591" 
d="M303 556q113 0 179 -64.5t66 -183.5v-72h-352q2 -63 37.5 -99t98.5 -36q52 0 95.5 10.5t89.5 32.5v-115q-41 -20 -85 -29.5t-107 -9.5q-82 0 -145 30.5t-99 92t-36 156.5t32.5 159t90.5 96t135 32zM304 450q-44 0 -72 -28t-33 -87h209q-1 49 -26.5 82t-77.5 33zM272 766
q15 -22 35.5 -49.5t42 -53t37.5 -44.5v-13h-99q-19 13 -44.5 32.5t-52 41.5t-49.5 42t-37 34v10h167z" />
    <glyph glyph-name="eacute" unicode="&#xe9;" horiz-adv-x="591" 
d="M303 556q113 0 179 -64.5t66 -183.5v-72h-352q2 -63 37.5 -99t98.5 -36q52 0 95.5 10.5t89.5 32.5v-115q-41 -20 -85 -29.5t-107 -9.5q-82 0 -145 30.5t-99 92t-36 156.5t32.5 159t90.5 96t135 32zM304 450q-44 0 -72 -28t-33 -87h209q-1 49 -26.5 82t-77.5 33zM488 766
v-10q-14 -14 -37 -34t-49.5 -42t-52 -41.5t-44.5 -32.5h-99v13q16 19 37.5 44.5t42 53t35.5 49.5h167z" />
    <glyph glyph-name="ecircumflex" unicode="&#xea;" horiz-adv-x="591" 
d="M303 556q113 0 179 -64.5t66 -183.5v-72h-352q2 -63 37.5 -99t98.5 -36q52 0 95.5 10.5t89.5 32.5v-115q-41 -20 -85 -29.5t-107 -9.5q-82 0 -145 30.5t-99 92t-36 156.5t32.5 159t90.5 96t135 32zM304 450q-44 0 -72 -28t-33 -87h209q-1 49 -26.5 82t-77.5 33zM384 766
q14 -22 36.5 -49.5t46.5 -53.5t42 -44v-13h-99q-26 16 -57.5 37.5t-56.5 48.5q-26 -27 -56 -48.5t-56 -37.5h-99v13q18 19 42 44.5t46.5 53t36.5 49.5h174z" />
    <glyph glyph-name="edieresis" unicode="&#xeb;" horiz-adv-x="591" 
d="M303 556q113 0 179 -64.5t66 -183.5v-72h-352q2 -63 37.5 -99t98.5 -36q52 0 95.5 10.5t89.5 32.5v-115q-41 -20 -85 -29.5t-107 -9.5q-82 0 -145 30.5t-99 92t-36 156.5t32.5 159t90.5 96t135 32zM304 450q-44 0 -72 -28t-33 -87h209q-1 49 -26.5 82t-77.5 33zM128 686
q0 34 20 50t48 16t48.5 -16t20.5 -50q0 -33 -20.5 -49t-48.5 -16t-48 16t-20 49zM325 686q0 34 20 50t49 16q28 0 48.5 -16t20.5 -50q0 -33 -20.5 -49t-48.5 -16q-29 0 -49 16t-20 49z" />
    <glyph glyph-name="igrave" unicode="&#xec;" horiz-adv-x="305" 
d="M227 0h-149v546h149v-546zM129 766q15 -22 35.5 -49.5t42 -53t37.5 -44.5v-13h-99q-19 13 -44.5 32.5t-52 41.5t-49.5 42t-37 34v10h167z" />
    <glyph glyph-name="iacute" unicode="&#xed;" horiz-adv-x="305" 
d="M227 0h-149v546h149v-546zM345 766v-10q-14 -14 -37 -34t-49.5 -42t-52 -41.5t-44.5 -32.5h-99v13q16 19 37.5 44.5t42 53t35.5 49.5h167z" />
    <glyph glyph-name="icircumflex" unicode="&#xee;" horiz-adv-x="305" 
d="M227 0h-149v546h149v-546zM241 766q14 -22 36.5 -49.5t46.5 -53.5t42 -44v-13h-99q-26 16 -57.5 37.5t-56.5 48.5q-26 -27 -56 -48.5t-56 -37.5h-99v13q18 19 42 44.5t46.5 53t36.5 49.5h174z" />
    <glyph glyph-name="idieresis" unicode="&#xef;" horiz-adv-x="305" 
d="M227 0h-149v546h149v-546zM-15 686q0 34 20 50t48 16t48.5 -16t20.5 -50q0 -33 -20.5 -49t-48.5 -16t-48 16t-20 49zM182 686q0 34 20 50t49 16q28 0 48.5 -16t20.5 -50q0 -33 -20.5 -49t-48.5 -16q-29 0 -49 16t-20 49z" />
    <glyph glyph-name="eth" unicode="&#xf0;" horiz-adv-x="619" 
d="M224 765q34 -16 66 -33t60 -36l110 68l49 -75l-83 -51q73 -67 110.5 -153.5t37.5 -204.5q0 -139 -72 -214.5t-194 -75.5q-76 0 -135.5 29t-93.5 85t-34 135t30 134t83 84t122 29q100 0 134 -48l4 2q-16 40 -39 72.5t-55 62.5l-112 -69l-49 76l86 52q-17 11 -35.5 22.5
t-38.5 22.5zM310 376q-61 0 -87 -34.5t-26 -103.5q0 -62 26.5 -100t86.5 -38t86 40t26 120q0 46 -27 81t-85 35z" />
    <glyph glyph-name="ntilde" unicode="&#xf1;" horiz-adv-x="657" 
d="M388 556q88 0 141 -47.5t53 -152.5v-356h-149v319q0 59 -21 88.5t-67 29.5q-68 0 -93 -46.5t-25 -133.5v-257h-149v546h114l20 -70h8q26 42 71.5 61t96.5 19zM126 605q6 78 43.5 114.5t89.5 36.5q27 0 52 -13t50 -25.5t48 -12.5q15 0 29 13t20 39h73q-6 -77 -44 -114
t-89 -37q-26 0 -52 12.5t-50 25.5t-48 13q-15 0 -29 -13t-20 -39h-73z" />
    <glyph glyph-name="ograve" unicode="&#xf2;" horiz-adv-x="619" 
d="M574 274q0 -136 -71.5 -210t-194.5 -74q-76 0 -135.5 33t-93.5 96.5t-34 154.5q0 136 71 209t195 73q77 0 136 -33t93 -96t34 -153zM197 274q0 -81 26.5 -122.5t86.5 -41.5q59 0 85.5 41.5t26.5 122.5t-26.5 121.5t-86.5 40.5q-59 0 -85.5 -40.5t-26.5 -121.5zM286 766
q15 -22 35.5 -49.5t42 -53t37.5 -44.5v-13h-99q-19 13 -44.5 32.5t-52 41.5t-49.5 42t-37 34v10h167z" />
    <glyph glyph-name="oacute" unicode="&#xf3;" horiz-adv-x="619" 
d="M574 274q0 -136 -71.5 -210t-194.5 -74q-76 0 -135.5 33t-93.5 96.5t-34 154.5q0 136 71 209t195 73q77 0 136 -33t93 -96t34 -153zM197 274q0 -81 26.5 -122.5t86.5 -41.5q59 0 85.5 41.5t26.5 122.5t-26.5 121.5t-86.5 40.5q-59 0 -85.5 -40.5t-26.5 -121.5zM502 766
v-10q-14 -14 -37 -34t-49.5 -42t-52 -41.5t-44.5 -32.5h-99v13q16 19 37.5 44.5t42 53t35.5 49.5h167z" />
    <glyph glyph-name="ocircumflex" unicode="&#xf4;" horiz-adv-x="619" 
d="M574 274q0 -136 -71.5 -210t-194.5 -74q-76 0 -135.5 33t-93.5 96.5t-34 154.5q0 136 71 209t195 73q77 0 136 -33t93 -96t34 -153zM197 274q0 -81 26.5 -122.5t86.5 -41.5q59 0 85.5 41.5t26.5 122.5t-26.5 121.5t-86.5 40.5q-59 0 -85.5 -40.5t-26.5 -121.5zM398 766
q14 -22 36.5 -49.5t46.5 -53.5t42 -44v-13h-99q-26 16 -57.5 37.5t-56.5 48.5q-26 -27 -56 -48.5t-56 -37.5h-99v13q18 19 42 44.5t46.5 53t36.5 49.5h174z" />
    <glyph glyph-name="otilde" unicode="&#xf5;" horiz-adv-x="619" 
d="M574 274q0 -136 -71.5 -210t-194.5 -74q-76 0 -135.5 33t-93.5 96.5t-34 154.5q0 136 71 209t195 73q77 0 136 -33t93 -96t34 -153zM197 274q0 -81 26.5 -122.5t86.5 -41.5q59 0 85.5 41.5t26.5 122.5t-26.5 121.5t-86.5 40.5q-59 0 -85.5 -40.5t-26.5 -121.5zM107 605
q6 78 43.5 114.5t89.5 36.5q27 0 52 -13t50 -25.5t48 -12.5q15 0 29 13t20 39h73q-6 -77 -44 -114t-89 -37q-26 0 -52 12.5t-50 25.5t-48 13q-15 0 -29 -13t-20 -39h-73z" />
    <glyph glyph-name="odieresis" unicode="&#xf6;" horiz-adv-x="619" 
d="M574 274q0 -136 -71.5 -210t-194.5 -74q-76 0 -135.5 33t-93.5 96.5t-34 154.5q0 136 71 209t195 73q77 0 136 -33t93 -96t34 -153zM197 274q0 -81 26.5 -122.5t86.5 -41.5q59 0 85.5 41.5t26.5 122.5t-26.5 121.5t-86.5 40.5q-59 0 -85.5 -40.5t-26.5 -121.5zM142 686
q0 34 20 50t48 16t48.5 -16t20.5 -50q0 -33 -20.5 -49t-48.5 -16t-48 16t-20 49zM339 686q0 34 20 50t49 16q28 0 48.5 -16t20.5 -50q0 -33 -20.5 -49t-48.5 -16q-29 0 -49 16t-20 49z" />
    <glyph glyph-name="divide" unicode="&#xf7;" horiz-adv-x="572" 
d="M285 449q-28 0 -48 17.5t-20 56.5q0 41 20 57.5t48 16.5q27 0 47.5 -16.5t20.5 -57.5q0 -39 -20.5 -56.5t-47.5 -17.5zM43 299v107h485v-107h-485zM285 108q-28 0 -48 17.5t-20 56.5q0 41 20 57.5t48 16.5q27 0 47.5 -16.5t20.5 -57.5q0 -39 -20.5 -56.5t-47.5 -17.5z
" />
    <glyph glyph-name="oslash" unicode="&#xf8;" horiz-adv-x="619" 
d="M574 274q0 -136 -71.5 -210t-194.5 -74q-32 0 -60 6t-54 16l-33 -49l-75 51l33 49q-35 37 -54.5 89.5t-19.5 121.5q0 136 71 209t195 73q65 0 121 -25l27 40l74 -53l-28 -41q33 -36 51 -87t18 -116zM197 274q0 -48 9 -81l155 232q-22 11 -52 11q-59 0 -85.5 -40.5
t-26.5 -121.5zM422 274q0 39 -6 69l-151 -226q18 -7 45 -7q59 0 85.5 41.5t26.5 122.5z" />
    <glyph glyph-name="ugrave" unicode="&#xf9;" horiz-adv-x="657" 
d="M579 546v-546h-114l-20 70h-8q-26 -42 -71.5 -61t-96.5 -19q-88 0 -141 47.5t-53 152.5v356h149v-319q0 -59 21 -88.5t67 -29.5q68 0 93 46.5t25 133.5v257h149zM305 766q15 -22 35.5 -49.5t42 -53t37.5 -44.5v-13h-99q-19 13 -44.5 32.5t-52 41.5t-49.5 42t-37 34v10
h167z" />
    <glyph glyph-name="uacute" unicode="&#xfa;" horiz-adv-x="657" 
d="M579 546v-546h-114l-20 70h-8q-26 -42 -71.5 -61t-96.5 -19q-88 0 -141 47.5t-53 152.5v356h149v-319q0 -59 21 -88.5t67 -29.5q68 0 93 46.5t25 133.5v257h149zM521 766v-10q-14 -14 -37 -34t-49.5 -42t-52 -41.5t-44.5 -32.5h-99v13q16 19 37.5 44.5t42 53t35.5 49.5
h167z" />
    <glyph glyph-name="ucircumflex" unicode="&#xfb;" horiz-adv-x="657" 
d="M579 546v-546h-114l-20 70h-8q-26 -42 -71.5 -61t-96.5 -19q-88 0 -141 47.5t-53 152.5v356h149v-319q0 -59 21 -88.5t67 -29.5q68 0 93 46.5t25 133.5v257h149zM417 766q14 -22 36.5 -49.5t46.5 -53.5t42 -44v-13h-99q-26 16 -57.5 37.5t-56.5 48.5q-26 -27 -56 -48.5
t-56 -37.5h-99v13q18 19 42 44.5t46.5 53t36.5 49.5h174z" />
    <glyph glyph-name="udieresis" unicode="&#xfc;" horiz-adv-x="657" 
d="M579 546v-546h-114l-20 70h-8q-26 -42 -71.5 -61t-96.5 -19q-88 0 -141 47.5t-53 152.5v356h149v-319q0 -59 21 -88.5t67 -29.5q68 0 93 46.5t25 133.5v257h149zM161 686q0 34 20 50t48 16t48.5 -16t20.5 -50q0 -33 -20.5 -49t-48.5 -16t-48 16t-20 49zM358 686
q0 34 20 50t49 16q28 0 48.5 -16t20.5 -50q0 -33 -20.5 -49t-48.5 -16q-29 0 -49 16t-20 49z" />
    <glyph glyph-name="yacute" unicode="&#xfd;" horiz-adv-x="569" 
d="M0 546h163l103 -307q8 -23 12 -46t6 -49h3q3 26 8 49t13 46l101 307h160l-231 -616q-32 -85 -91 -127.5t-137 -42.5q-26 0 -44 2.5t-32 5.5v118q10 -2 26 -4t33 -2q47 0 74 28.5t41 68.5l9 27zM477 766v-10q-14 -14 -37 -34t-49.5 -42t-52 -41.5t-44.5 -32.5h-99v13
q16 19 37.5 44.5t42 53t35.5 49.5h167z" />
    <glyph glyph-name="thorn" unicode="&#xfe;" horiz-adv-x="633" 
d="M588 274q0 -140 -57 -212t-149 -72q-59 0 -96 19.5t-59 47.5h-7q3 -15 5 -37.5t2 -38.5v-221h-149v1000h149v-191q0 -24 -2.5 -51.5t-4.5 -42.5h7q21 34 59 57.5t96 23.5q92 0 149 -71.5t57 -210.5zM436 276q0 161 -102 161q-58 0 -82 -36.5t-25 -109.5v-16
q0 -79 23.5 -121.5t85.5 -42.5q51 0 75.5 42.5t24.5 122.5z" />
    <glyph glyph-name="ydieresis" unicode="&#xff;" horiz-adv-x="569" 
d="M0 546h163l103 -307q8 -23 12 -46t6 -49h3q3 26 8 49t13 46l101 307h160l-231 -616q-32 -85 -91 -127.5t-137 -42.5q-26 0 -44 2.5t-32 5.5v118q10 -2 26 -4t33 -2q47 0 74 28.5t41 68.5l9 27zM117 686q0 34 20 50t48 16t48.5 -16t20.5 -50q0 -33 -20.5 -49t-48.5 -16
t-48 16t-20 49zM314 686q0 34 20 50t49 16q28 0 48.5 -16t20.5 -50q0 -33 -20.5 -49t-48.5 -16q-29 0 -49 16t-20 49z" />
    <glyph glyph-name="Amacron" unicode="&#x100;" horiz-adv-x="690" 
d="M527 0l-52 170h-260l-52 -170h-163l252 717h185l253 -717h-163zM439 297l-52 166q-5 17 -13 43t-16 53t-13 47q-5 -20 -13.5 -49.5t-16 -56t-11.5 -37.5l-51 -166h186zM511 877v-103h-331v103h331z" />
    <glyph glyph-name="amacron" unicode="&#x101;" horiz-adv-x="604" 
d="M302 557q110 0 168.5 -47.5t58.5 -145.5v-364h-104l-29 74h-4q-35 -44 -74 -64t-107 -20q-73 0 -121 42t-48 131q0 87 61 128t183 46l95 3v24q0 43 -22.5 63t-62.5 20t-78 -11.5t-76 -28.5l-49 101q43 22 97 35.5t112 13.5zM381 253l-58 -2q-72 -2 -100 -26t-28 -63
q0 -34 20 -48.5t52 -14.5q48 0 81 28.5t33 80.5v45zM468 709v-103h-331v103h331z" />
    <glyph glyph-name="Abreve" unicode="&#x102;" horiz-adv-x="690" 
d="M527 0l-52 170h-260l-52 -170h-163l252 717h185l253 -717h-163zM439 297l-52 166q-5 17 -13 43t-16 53t-13 47q-5 -20 -13.5 -49.5t-16 -56t-11.5 -37.5l-51 -166h186zM540 939q-5 -73 -58 -119t-136 -46q-86 0 -136 45t-54 120h83q3 -28 17.5 -41t38 -16.5t52.5 -3.5
q23 0 47 4.5t41 17.5t20 39h85z" />
    <glyph glyph-name="abreve" unicode="&#x103;" horiz-adv-x="604" 
d="M302 557q110 0 168.5 -47.5t58.5 -145.5v-364h-104l-29 74h-4q-35 -44 -74 -64t-107 -20q-73 0 -121 42t-48 131q0 87 61 128t183 46l95 3v24q0 43 -22.5 63t-62.5 20t-78 -11.5t-76 -28.5l-49 101q43 22 97 35.5t112 13.5zM381 253l-58 -2q-72 -2 -100 -26t-28 -63
q0 -34 20 -48.5t52 -14.5q48 0 81 28.5t33 80.5v45zM497 771q-5 -73 -58 -119t-136 -46q-86 0 -136 45t-54 120h83q3 -28 17.5 -41t38 -16.5t52.5 -3.5q23 0 47 4.5t41 17.5t20 39h85z" />
    <glyph glyph-name="Aogonek" unicode="&#x104;" horiz-adv-x="690" 
d="M527 0l-52 170h-260l-52 -170h-163l252 717h185l253 -717h-163zM439 297l-52 166q-5 17 -13 43t-16 53t-13 47q-5 -20 -13.5 -49.5t-16 -56t-11.5 -37.5l-51 -166h186zM575 -111q0 -20 11 -30t28 -10q16 0 31 3t25 6v-87q-16 -5 -34 -8t-42 -3q-56 0 -89 31t-33 81
q0 44 32 82t78 63l65 -17q-34 -32 -53 -59t-19 -52z" />
    <glyph glyph-name="aogonek" unicode="&#x105;" horiz-adv-x="604" 
d="M302 557q110 0 168.5 -47.5t58.5 -145.5v-364h-104l-29 74h-4q-35 -44 -74 -64t-107 -20q-73 0 -121 42t-48 131q0 87 61 128t183 46l95 3v24q0 43 -22.5 63t-62.5 20t-78 -11.5t-76 -28.5l-49 101q43 22 97 35.5t112 13.5zM381 253l-58 -2q-72 -2 -100 -26t-28 -63
q0 -34 20 -48.5t52 -14.5q48 0 81 28.5t33 80.5v45zM445 -111q0 -20 11 -30t28 -10q16 0 31 3t25 6v-87q-16 -5 -34 -8t-42 -3q-56 0 -89 31t-33 81q0 44 32 82t78 63l65 -17q-34 -32 -53 -59t-19 -52z" />
    <glyph glyph-name="Cacute" unicode="&#x106;" horiz-adv-x="637" 
d="M393 598q-87 0 -133 -65t-46 -178q0 -114 42.5 -176.5t136.5 -62.5q43 0 87 10t95 28v-127q-47 -19 -93 -28t-103 -9q-111 0 -182 45.5t-105 128t-34 192.5q0 108 39 191t113.5 130t182.5 47q53 0 106.5 -13.5t102.5 -36.5l-49 -123q-40 19 -80.5 33t-79.5 14zM569 934
v-10q-14 -14 -37 -34t-49.5 -42t-52 -41.5t-44.5 -32.5h-99v13q16 19 37.5 44.5t42 53t35.5 49.5h167z" />
    <glyph glyph-name="cacute" unicode="&#x107;" horiz-adv-x="514" 
d="M300 -10q-122 0 -188.5 67t-66.5 213q0 100 34 163t94.5 93t139.5 30q56 0 97.5 -11t72.5 -26l-44 -115q-35 14 -65.5 23t-60.5 9q-116 0 -116 -165q0 -82 30.5 -121t85.5 -39q47 0 83 12.5t70 34.5v-127q-34 -22 -71.5 -31.5t-94.5 -9.5zM479 766v-10q-14 -14 -37 -34
t-49.5 -42t-52 -41.5t-44.5 -32.5h-99v13q16 19 37.5 44.5t42 53t35.5 49.5h167z" />
    <glyph glyph-name="Ccircumflex" unicode="&#x108;" horiz-adv-x="637" 
d="M393 598q-87 0 -133 -65t-46 -178q0 -114 42.5 -176.5t136.5 -62.5q43 0 87 10t95 28v-127q-47 -19 -93 -28t-103 -9q-111 0 -182 45.5t-105 128t-34 192.5q0 108 39 191t113.5 130t182.5 47q53 0 106.5 -13.5t102.5 -36.5l-49 -123q-40 19 -80.5 33t-79.5 14zM465 934
q14 -22 36.5 -49.5t46.5 -53.5t42 -44v-13h-99q-26 16 -57.5 37.5t-56.5 48.5q-26 -27 -56 -48.5t-56 -37.5h-99v13q18 19 42 44.5t46.5 53t36.5 49.5h174z" />
    <glyph glyph-name="ccircumflex" unicode="&#x109;" horiz-adv-x="514" 
d="M300 -10q-122 0 -188.5 67t-66.5 213q0 100 34 163t94.5 93t139.5 30q56 0 97.5 -11t72.5 -26l-44 -115q-35 14 -65.5 23t-60.5 9q-116 0 -116 -165q0 -82 30.5 -121t85.5 -39q47 0 83 12.5t70 34.5v-127q-34 -22 -71.5 -31.5t-94.5 -9.5zM375 766q14 -22 36.5 -49.5
t46.5 -53.5t42 -44v-13h-99q-26 16 -57.5 37.5t-56.5 48.5q-26 -27 -56 -48.5t-56 -37.5h-99v13q18 19 42 44.5t46.5 53t36.5 49.5h174z" />
    <glyph glyph-name="Cdot" unicode="&#x10a;" horiz-adv-x="637" 
d="M393 598q-87 0 -133 -65t-46 -178q0 -114 42.5 -176.5t136.5 -62.5q43 0 87 10t95 28v-127q-47 -19 -93 -28t-103 -9q-111 0 -182 45.5t-105 128t-34 192.5q0 108 39 191t113.5 130t182.5 47q53 0 106.5 -13.5t102.5 -36.5l-49 -123q-40 19 -80.5 33t-79.5 14zM379 928
q33 0 57 -15.5t24 -57.5q0 -41 -24 -57t-57 -16q-34 0 -57.5 16t-23.5 57q0 42 23.5 57.5t57.5 15.5z" />
    <glyph glyph-name="cdot" unicode="&#x10b;" horiz-adv-x="514" 
d="M300 -10q-122 0 -188.5 67t-66.5 213q0 100 34 163t94.5 93t139.5 30q56 0 97.5 -11t72.5 -26l-44 -115q-35 14 -65.5 23t-60.5 9q-116 0 -116 -165q0 -82 30.5 -121t85.5 -39q47 0 83 12.5t70 34.5v-127q-34 -22 -71.5 -31.5t-94.5 -9.5zM289 760q33 0 57 -15.5
t24 -57.5q0 -41 -24 -57t-57 -16q-34 0 -57.5 16t-23.5 57q0 42 23.5 57.5t57.5 15.5z" />
    <glyph glyph-name="Ccaron" unicode="&#x10c;" horiz-adv-x="637" 
d="M393 598q-87 0 -133 -65t-46 -178q0 -114 42.5 -176.5t136.5 -62.5q43 0 87 10t95 28v-127q-47 -19 -93 -28t-103 -9q-111 0 -182 45.5t-105 128t-34 192.5q0 108 39 191t113.5 130t182.5 47q53 0 106.5 -13.5t102.5 -36.5l-49 -123q-40 19 -80.5 33t-79.5 14zM292 774
q-14 22 -36.5 49.5t-46.5 53t-42 44.5v13h99q26 -16 56 -37.5t56 -48.5q25 27 56.5 48.5t57.5 37.5h99v-13q-18 -18 -42 -44t-46.5 -53.5t-36.5 -49.5h-174z" />
    <glyph glyph-name="ccaron" unicode="&#x10d;" horiz-adv-x="514" 
d="M300 -10q-122 0 -188.5 67t-66.5 213q0 100 34 163t94.5 93t139.5 30q56 0 97.5 -11t72.5 -26l-44 -115q-35 14 -65.5 23t-60.5 9q-116 0 -116 -165q0 -82 30.5 -121t85.5 -39q47 0 83 12.5t70 34.5v-127q-34 -22 -71.5 -31.5t-94.5 -9.5zM202 606q-14 22 -36.5 49.5
t-46.5 53t-42 44.5v13h99q26 -16 56 -37.5t56 -48.5q25 27 56.5 48.5t57.5 37.5h99v-13q-18 -18 -42 -44t-46.5 -53.5t-36.5 -49.5h-174z" />
    <glyph glyph-name="Dcaron" unicode="&#x10e;" horiz-adv-x="740" 
d="M682 364q0 -181 -103 -272.5t-287 -91.5h-202v714h224q112 0 194.5 -40t128 -118t45.5 -192zM525 360q0 118 -52 174t-151 56h-81v-465h65q219 0 219 235zM285 774q-14 22 -36.5 49.5t-46.5 53t-42 44.5v13h99q26 -16 56 -37.5t56 -48.5q25 27 56.5 48.5t57.5 37.5h99
v-13q-18 -18 -42 -44t-46.5 -53.5t-36.5 -49.5h-174z" />
    <glyph glyph-name="dcaron" unicode="&#x10f;" horiz-adv-x="633" 
d="M251 -10q-91 0 -148.5 71.5t-57.5 210.5q0 140 58 212t152 72q59 0 97 -23t60 -57h5q-3 16 -7 46.5t-4 62.5v175h149v-760h-114l-29 71h-6q-22 -34 -59 -57.5t-96 -23.5zM303 109q61 0 86 36.5t27 109.5v16q0 79 -24.5 121.5t-90.5 42.5q-49 0 -77 -42.5t-28 -122.5
t28 -120.5t79 -40.5zM757 760v-10q-15 -33 -35 -71.5t-46 -78.5h-87v13q8 29 17 72t13 75h138z" />
    <glyph glyph-name="Dcroat" unicode="&#x110;" horiz-adv-x="740" 
d="M314 714q112 0 194.5 -40t128 -118t45.5 -192q0 -181 -103 -272.5t-287 -91.5h-202v291h-67v124h67v299h224zM321 590h-80v-175h116v-124h-116v-166h64q220 0 220 235q0 118 -53.5 174t-150.5 56z" />
    <glyph glyph-name="dcroat" unicode="&#x111;" horiz-adv-x="649" 
d="M251 -10q-91 0 -148.5 68t-57.5 199q0 133 58 201t152 68q59 0 97 -23t60 -57h5l-2.5 18.5t-5.5 45t-3 49.5v25h-154v97h154v79h149v-79h76v-97h-76v-584h-114l-29 71h-6q-22 -34 -59 -57.5t-96 -23.5zM303 109q61 0 86 33t27 100v14q0 72 -24.5 110.5t-90.5 38.5
q-49 0 -77 -38.5t-28 -111.5t28 -109.5t79 -36.5z" />
    <glyph glyph-name="Emacron" unicode="&#x112;" horiz-adv-x="560" 
d="M501 0h-411v714h411v-124h-260v-157h242v-124h-242v-184h260v-125zM467 877v-103h-331v103h331z" />
    <glyph glyph-name="emacron" unicode="&#x113;" horiz-adv-x="591" 
d="M303 556q113 0 179 -64.5t66 -183.5v-72h-352q2 -63 37.5 -99t98.5 -36q52 0 95.5 10.5t89.5 32.5v-115q-41 -20 -85 -29.5t-107 -9.5q-82 0 -145 30.5t-99 92t-36 156.5t32.5 159t90.5 96t135 32zM304 450q-44 0 -72 -28t-33 -87h209q-1 49 -26.5 82t-77.5 33zM462 709
v-103h-331v103h331z" />
    <glyph glyph-name="Ebreve" unicode="&#x114;" horiz-adv-x="560" 
d="M501 0h-411v714h411v-124h-260v-157h242v-124h-242v-184h260v-125zM496 939q-5 -73 -58 -119t-136 -46q-86 0 -136 45t-54 120h83q3 -28 17.5 -41t38 -16.5t52.5 -3.5q23 0 47 4.5t41 17.5t20 39h85z" />
    <glyph glyph-name="ebreve" unicode="&#x115;" horiz-adv-x="591" 
d="M303 556q113 0 179 -64.5t66 -183.5v-72h-352q2 -63 37.5 -99t98.5 -36q52 0 95.5 10.5t89.5 32.5v-115q-41 -20 -85 -29.5t-107 -9.5q-82 0 -145 30.5t-99 92t-36 156.5t32.5 159t90.5 96t135 32zM304 450q-44 0 -72 -28t-33 -87h209q-1 49 -26.5 82t-77.5 33zM491 771
q-5 -73 -58 -119t-136 -46q-86 0 -136 45t-54 120h83q3 -28 17.5 -41t38 -16.5t52.5 -3.5q23 0 47 4.5t41 17.5t20 39h85z" />
    <glyph glyph-name="Edotaccent" unicode="&#x116;" horiz-adv-x="560" 
d="M501 0h-411v714h411v-124h-260v-157h242v-124h-242v-184h260v-125zM303 928q33 0 57 -15.5t24 -57.5q0 -41 -24 -57t-57 -16q-34 0 -57.5 16t-23.5 57q0 42 23.5 57.5t57.5 15.5z" />
    <glyph glyph-name="edotaccent" unicode="&#x117;" horiz-adv-x="591" 
d="M303 556q113 0 179 -64.5t66 -183.5v-72h-352q2 -63 37.5 -99t98.5 -36q52 0 95.5 10.5t89.5 32.5v-115q-41 -20 -85 -29.5t-107 -9.5q-82 0 -145 30.5t-99 92t-36 156.5t32.5 159t90.5 96t135 32zM304 450q-44 0 -72 -28t-33 -87h209q-1 49 -26.5 82t-77.5 33zM298 760
q33 0 57 -15.5t24 -57.5q0 -41 -24 -57t-57 -16q-34 0 -57.5 16t-23.5 57q0 42 23.5 57.5t57.5 15.5z" />
    <glyph glyph-name="Eogonek" unicode="&#x118;" horiz-adv-x="560" 
d="M501 0h-411v714h411v-124h-260v-157h242v-124h-242v-184h260v-125zM406 -111q0 -20 11 -30t28 -10q16 0 31 3t25 6v-87q-16 -5 -34 -8t-42 -3q-56 0 -89 31t-33 81q0 44 32 82t78 63l65 -17q-34 -32 -53 -59t-19 -52z" />
    <glyph glyph-name="eogonek" unicode="&#x119;" horiz-adv-x="591" 
d="M413 -111q0 -20 11 -30t28 -10q16 0 31 3t25 6v-87q-16 -5 -34 -8t-42 -3q-56 0 -89 31t-33 81q0 34 20.5 65t51.5 55q-26 -2 -57 -2q-82 0 -145 30.5t-99 92t-36 156.5t32.5 159t90.5 96t135 32q113 0 179 -64.5t66 -183.5v-72h-352q2 -63 37.5 -99t98.5 -36
q52 0 95.5 10.5t89.5 32.5v-115q-60 -53 -82 -84t-22 -56zM304 450q-44 0 -72 -28t-33 -87h209q-1 49 -26.5 82t-77.5 33z" />
    <glyph glyph-name="Ecaron" unicode="&#x11a;" horiz-adv-x="560" 
d="M501 0h-411v714h411v-124h-260v-157h242v-124h-242v-184h260v-125zM216 774q-14 22 -36.5 49.5t-46.5 53t-42 44.5v13h99q26 -16 56 -37.5t56 -48.5q25 27 56.5 48.5t57.5 37.5h99v-13q-18 -18 -42 -44t-46.5 -53.5t-36.5 -49.5h-174z" />
    <glyph glyph-name="ecaron" unicode="&#x11b;" horiz-adv-x="591" 
d="M303 556q113 0 179 -64.5t66 -183.5v-72h-352q2 -63 37.5 -99t98.5 -36q52 0 95.5 10.5t89.5 32.5v-115q-41 -20 -85 -29.5t-107 -9.5q-82 0 -145 30.5t-99 92t-36 156.5t32.5 159t90.5 96t135 32zM304 450q-44 0 -72 -28t-33 -87h209q-1 49 -26.5 82t-77.5 33zM211 606
q-14 22 -36.5 49.5t-46.5 53t-42 44.5v13h99q26 -16 56 -37.5t56 -48.5q25 27 56.5 48.5t57.5 37.5h99v-13q-18 -18 -42 -44t-46.5 -53.5t-36.5 -49.5h-174z" />
    <glyph glyph-name="Gcircumflex" unicode="&#x11c;" horiz-adv-x="724" 
d="M361 401h283v-370q-56 -19 -117 -30t-137 -11q-160 0 -246 94t-86 274q0 112 43 194t126.5 127t203.5 45q57 0 112 -12t100 -32l-50 -121q-33 17 -75 28t-88 11q-66 0 -114.5 -30t-75 -85t-26.5 -128q0 -70 19 -124t60 -84.5t107 -30.5q32 0 54 3t42 7v149h-135v126z
M488 934q14 -22 36.5 -49.5t46.5 -53.5t42 -44v-13h-99q-26 16 -57.5 37.5t-56.5 48.5q-26 -27 -56 -48.5t-56 -37.5h-99v13q18 19 42 44.5t46.5 53t36.5 49.5h174z" />
    <glyph glyph-name="gcircumflex" unicode="&#x11d;" horiz-adv-x="633" 
d="M255 556q101 0 158 -80h4l12 70h126v-547q0 -117 -69 -178t-204 -61q-58 0 -107.5 7t-96.5 25v119q100 -42 213 -42q115 0 115 124v11q0 16 1 34.5t3 32.5h-4q-28 -43 -67 -62t-88 -19q-97 0 -151.5 74.5t-54.5 207.5q0 134 56 209t154 75zM302 435q-105 0 -105 -165
q0 -163 107 -163q57 0 84.5 32.5t27.5 113.5v18q0 88 -27 126t-87 38zM402 766q14 -22 36.5 -49.5t46.5 -53.5t42 -44v-13h-99q-26 16 -57.5 37.5t-56.5 48.5q-26 -27 -56 -48.5t-56 -37.5h-99v13q18 19 42 44.5t46.5 53t36.5 49.5h174z" />
    <glyph glyph-name="Gbreve" unicode="&#x11e;" horiz-adv-x="724" 
d="M361 401h283v-370q-56 -19 -117 -30t-137 -11q-160 0 -246 94t-86 274q0 112 43 194t126.5 127t203.5 45q57 0 112 -12t100 -32l-50 -121q-33 17 -75 28t-88 11q-66 0 -114.5 -30t-75 -85t-26.5 -128q0 -70 19 -124t60 -84.5t107 -30.5q32 0 54 3t42 7v149h-135v126z
M595 939q-5 -73 -58 -119t-136 -46q-86 0 -136 45t-54 120h83q3 -28 17.5 -41t38 -16.5t52.5 -3.5q23 0 47 4.5t41 17.5t20 39h85z" />
    <glyph glyph-name="gbreve" unicode="&#x11f;" horiz-adv-x="633" 
d="M255 556q101 0 158 -80h4l12 70h126v-547q0 -117 -69 -178t-204 -61q-58 0 -107.5 7t-96.5 25v119q100 -42 213 -42q115 0 115 124v11q0 16 1 34.5t3 32.5h-4q-28 -43 -67 -62t-88 -19q-97 0 -151.5 74.5t-54.5 207.5q0 134 56 209t154 75zM302 435q-105 0 -105 -165
q0 -163 107 -163q57 0 84.5 32.5t27.5 113.5v18q0 88 -27 126t-87 38zM509 771q-5 -73 -58 -119t-136 -46q-86 0 -136 45t-54 120h83q3 -28 17.5 -41t38 -16.5t52.5 -3.5q23 0 47 4.5t41 17.5t20 39h85z" />
    <glyph glyph-name="Gdot" unicode="&#x120;" horiz-adv-x="724" 
d="M361 401h283v-370q-56 -19 -117 -30t-137 -11q-160 0 -246 94t-86 274q0 112 43 194t126.5 127t203.5 45q57 0 112 -12t100 -32l-50 -121q-33 17 -75 28t-88 11q-66 0 -114.5 -30t-75 -85t-26.5 -128q0 -70 19 -124t60 -84.5t107 -30.5q32 0 54 3t42 7v149h-135v126z
M402 928q33 0 57 -15.5t24 -57.5q0 -41 -24 -57t-57 -16q-34 0 -57.5 16t-23.5 57q0 42 23.5 57.5t57.5 15.5z" />
    <glyph glyph-name="gdot" unicode="&#x121;" horiz-adv-x="633" 
d="M255 556q101 0 158 -80h4l12 70h126v-547q0 -117 -69 -178t-204 -61q-58 0 -107.5 7t-96.5 25v119q100 -42 213 -42q115 0 115 124v11q0 16 1 34.5t3 32.5h-4q-28 -43 -67 -62t-88 -19q-97 0 -151.5 74.5t-54.5 207.5q0 134 56 209t154 75zM302 435q-105 0 -105 -165
q0 -163 107 -163q57 0 84.5 32.5t27.5 113.5v18q0 88 -27 126t-87 38zM316 760q33 0 57 -15.5t24 -57.5q0 -41 -24 -57t-57 -16q-34 0 -57.5 16t-23.5 57q0 42 23.5 57.5t57.5 15.5z" />
    <glyph glyph-name="uni0122" unicode="&#x122;" horiz-adv-x="724" 
d="M361 401h283v-370q-56 -19 -117 -30t-137 -11q-160 0 -246 94t-86 274q0 112 43 194t126.5 127t203.5 45q57 0 112 -12t100 -32l-50 -121q-33 17 -75 28t-88 11q-66 0 -114.5 -30t-75 -85t-26.5 -128q0 -70 19 -124t60 -84.5t107 -30.5q32 0 54 3t42 7v149h-135v126z
M474 -61v-10q-15 -33 -35 -71.5t-46 -78.5h-87v13q8 29 17 72t13 75h138z" />
    <glyph glyph-name="uni0123" unicode="&#x123;" horiz-adv-x="633" 
d="M255 556q101 0 158 -80h4l12 70h126v-547q0 -117 -69 -178t-204 -61q-58 0 -107.5 7t-96.5 25v119q100 -42 213 -42q115 0 115 124v11q0 16 1 34.5t3 32.5h-4q-28 -43 -67 -62t-88 -19q-97 0 -151.5 74.5t-54.5 207.5q0 134 56 209t154 75zM302 435q-105 0 -105 -165
q0 -163 107 -163q57 0 84.5 32.5t27.5 113.5v18q0 88 -27 126t-87 38zM392 766v-13q-8 -29 -17 -72t-13 -75h-138v10q15 33 35 71.5t46 78.5h87z" />
    <glyph glyph-name="Hcircumflex" unicode="&#x124;" horiz-adv-x="765" 
d="M675 0h-151v308h-283v-308h-151v714h151v-280h283v280h151v-714zM471 934q14 -22 36.5 -49.5t46.5 -53.5t42 -44v-13h-99q-26 16 -57.5 37.5t-56.5 48.5q-26 -27 -56 -48.5t-56 -37.5h-99v13q18 19 42 44.5t46.5 53t36.5 49.5h174z" />
    <glyph glyph-name="hcircumflex" unicode="&#x125;" horiz-adv-x="657" 
d="M227 760v-155q0 -41 -2.5 -77.5t-4.5 -51.5h8q26 42 67 61t91 19q88 0 142 -47.5t54 -152.5v-356h-149v319q0 118 -88 118q-67 0 -92.5 -46.5t-25.5 -133.5v-257h-149v760h149zM243 980q14 -22 36.5 -49.5t46.5 -53.5t42 -44v-13h-99q-26 16 -57.5 37.5t-56.5 48.5
q-26 -27 -56 -48.5t-56 -37.5h-99v13q18 19 42 44.5t46.5 53t36.5 49.5h174z" />
    <glyph glyph-name="Hbar" unicode="&#x126;" horiz-adv-x="765" 
d="M90 0v522h-90v97h90v95h151v-95h283v95h151v-95h90v-97h-90v-522h-151v308h-283v-308h-151zM241 434h283v88h-283v-88z" />
    <glyph glyph-name="hbar" unicode="&#x127;" horiz-adv-x="657" 
d="M227 760v-79h154v-97h-154v-9q0 -41 -2.5 -77.5t-4.5 -51.5h9q26 42 66.5 61t91.5 19q89 0 142 -47.5t53 -152.5v-326h-149v289q0 118 -88 118q-67 0 -92.5 -46.5t-25.5 -133.5v-227h-149v584h-76v97h76v79h149z" />
    <glyph glyph-name="Itilde" unicode="&#x128;" horiz-adv-x="389" 
d="M357 0h-325v86l87 40v462l-87 40v86h325v-86l-87 -40v-462l87 -40v-86zM-8 773q6 78 43.5 114.5t89.5 36.5q27 0 52 -13t50 -25.5t48 -12.5q15 0 29 13t20 39h73q-6 -77 -44 -114t-89 -37q-26 0 -52 12.5t-50 25.5t-48 13q-15 0 -29 -13t-20 -39h-73z" />
    <glyph glyph-name="itilde" unicode="&#x129;" horiz-adv-x="305" 
d="M227 0h-149v546h149v-546zM-50 605q6 78 43.5 114.5t89.5 36.5q27 0 52 -13t50 -25.5t48 -12.5q15 0 29 13t20 39h73q-6 -77 -44 -114t-89 -37q-26 0 -52 12.5t-50 25.5t-48 13q-15 0 -29 -13t-20 -39h-73z" />
    <glyph glyph-name="Imacron" unicode="&#x12a;" horiz-adv-x="389" 
d="M357 0h-325v86l87 40v462l-87 40v86h325v-86l-87 -40v-462l87 -40v-86zM361 877v-103h-331v103h331z" />
    <glyph glyph-name="imacron" unicode="&#x12b;" horiz-adv-x="305" 
d="M227 0h-149v546h149v-546zM319 709v-103h-331v103h331z" />
    <glyph glyph-name="Ibreve" unicode="&#x12c;" horiz-adv-x="389" 
d="M357 0h-325v86l87 40v462l-87 40v86h325v-86l-87 -40v-462l87 -40v-86zM390 939q-5 -73 -58 -119t-136 -46q-86 0 -136 45t-54 120h83q3 -28 17.5 -41t38 -16.5t52.5 -3.5q23 0 47 4.5t41 17.5t20 39h85z" />
    <glyph glyph-name="ibreve" unicode="&#x12d;" horiz-adv-x="305" 
d="M227 0h-149v546h149v-546zM348 771q-5 -73 -58 -119t-136 -46q-86 0 -136 45t-54 120h83q3 -28 17.5 -41t38 -16.5t52.5 -3.5q23 0 47 4.5t41 17.5t20 39h85z" />
    <glyph glyph-name="Iogonek" unicode="&#x12e;" horiz-adv-x="389" 
d="M357 0h-325v86l87 40v462l-87 40v86h325v-86l-87 -40v-462l87 -40v-86zM256 -111q0 -20 11 -30t28 -10q16 0 31 3t25 6v-87q-16 -5 -34 -8t-42 -3q-56 0 -89 31t-33 81q0 44 32 82t78 63l65 -17q-34 -32 -53 -59t-19 -52z" />
    <glyph glyph-name="iogonek" unicode="&#x12f;" horiz-adv-x="305" 
d="M153 760q33 0 57 -15.5t24 -57.5q0 -41 -24 -57t-57 -16q-34 0 -57.5 16t-23.5 57q0 42 23.5 57.5t57.5 15.5zM227 546v-546h-149v546h149zM148 -111q0 -20 11 -30t28 -10q16 0 31 3t25 6v-87q-16 -5 -34 -8t-42 -3q-56 0 -89 31t-33 81q0 44 32 82t78 63l65 -17
q-34 -32 -53 -59t-19 -52z" />
    <glyph glyph-name="Idotaccent" unicode="&#x130;" horiz-adv-x="389" 
d="M357 0h-325v86l87 40v462l-87 40v86h325v-86l-87 -40v-462l87 -40v-86zM197 928q33 0 57 -15.5t24 -57.5q0 -41 -24 -57t-57 -16q-34 0 -57.5 16t-23.5 57q0 42 23.5 57.5t57.5 15.5z" />
    <glyph glyph-name="IJ" unicode="&#x132;" horiz-adv-x="720" 
d="M357 0h-325v86l87 40v462l-87 40v86h325v-86l-87 -40v-462l87 -40v-86zM404 -210q-29 0 -51 3t-38 8v126q16 -4 33.5 -7t37.5 -3q26 0 47.5 10t33.5 37.5t12 80.5v669h151v-668q0 -92 -28.5 -148.5t-79.5 -82t-118 -25.5z" />
    <glyph glyph-name="ij" unicode="&#x133;" horiz-adv-x="610" 
d="M153 760q33 0 57 -15.5t24 -57.5q0 -41 -24 -57t-57 -16q-34 0 -57.5 16t-23.5 57q0 42 23.5 57.5t57.5 15.5zM227 546v-546h-149v546h149zM377 687q0 42 23.5 57.5t57.5 15.5q33 0 57 -15.5t24 -57.5q0 -41 -24 -57t-57 -16q-34 0 -57.5 16t-23.5 57zM339 -240
q-26 0 -53 3.5t-45 8.5v117q18 -5 34 -7t36 -2q30 0 51 17t21 66v583h149v-605q0 -50 -19 -91t-61.5 -65.5t-112.5 -24.5z" />
    <glyph glyph-name="Jcircumflex" unicode="&#x134;" horiz-adv-x="331" 
d="M15 -210q-29 0 -51 3t-38 8v126q16 -4 33.5 -7t37.5 -3q26 0 47.5 10t33.5 37.5t12 80.5v669h151v-668q0 -92 -28.5 -148.5t-79.5 -82t-118 -25.5zM254 934q14 -22 36.5 -49.5t46.5 -53.5t42 -44v-13h-99q-26 16 -57.5 37.5t-56.5 48.5q-26 -27 -56 -48.5t-56 -37.5h-99
v13q18 19 42 44.5t46.5 53t36.5 49.5h174z" />
    <glyph glyph-name="jcircumflex" unicode="&#x135;" horiz-adv-x="305" 
d="M34 -240q-26 0 -53 3.5t-45 8.5v117q18 -5 34 -7t36 -2q30 0 51 17t21 66v583h149v-605q0 -50 -19 -91t-61.5 -65.5t-112.5 -24.5zM241 766q14 -22 36.5 -49.5t46.5 -53.5t42 -44v-13h-99q-26 16 -57.5 37.5t-56.5 48.5q-26 -27 -56 -48.5t-56 -37.5h-99v13
q18 19 42 44.5t46.5 53t36.5 49.5h174z" />
    <glyph glyph-name="uni0136" unicode="&#x136;" horiz-adv-x="664" 
d="M664 0h-172l-187 301l-64 -46v-255h-151v714h151v-327l30 42l30 42l193 243h168l-249 -316zM432 -61v-10q-15 -33 -35 -71.5t-46 -78.5h-87v13q8 29 17 72t13 75h138z" />
    <glyph glyph-name="uni0137" unicode="&#x137;" horiz-adv-x="620" 
d="M227 760v-340q0 -31 -2.5 -61.5t-5.5 -61.5h2q15 21 31 42t34 41l153 166h168l-217 -237l230 -309h-172l-157 221l-64 -51v-170h-149v760h149zM394 -61v-10q-15 -33 -35 -71.5t-46 -78.5h-87v13q8 29 17 72t13 75h138z" />
    <glyph glyph-name="kgreenlandic" unicode="&#x138;" horiz-adv-x="620" 
d="M607 546l-215 -250l228 -296h-170l-153 208l-70 -44v-164h-149v546h149v-143q-1 -30 -1 -60t-2 -59h2q17 21 34 41.5t35 41.5l153 179h159z" />
    <glyph glyph-name="Lacute" unicode="&#x139;" horiz-adv-x="565" 
d="M90 0v714h151v-589h290v-125h-441zM356 934v-10q-14 -14 -37 -34t-49.5 -42t-52 -41.5t-44.5 -32.5h-99v13q16 19 37.5 44.5t42 53t35.5 49.5h167z" />
    <glyph glyph-name="lacute" unicode="&#x13a;" horiz-adv-x="305" 
d="M227 0h-149v760h149v-760zM345 980v-10q-14 -14 -37 -34t-49.5 -42t-52 -41.5t-44.5 -32.5h-99v13q16 19 37.5 44.5t42 53t35.5 49.5h167z" />
    <glyph glyph-name="uni013B" unicode="&#x13b;" horiz-adv-x="565" 
d="M90 0v714h151v-589h290v-125h-441zM392 -61v-10q-15 -33 -35 -71.5t-46 -78.5h-87v13q8 29 17 72t13 75h138z" />
    <glyph glyph-name="uni013C" unicode="&#x13c;" horiz-adv-x="305" 
d="M227 0h-149v760h149v-760zM237 -61v-10q-15 -33 -35 -71.5t-46 -78.5h-87v13q8 29 17 72t13 75h138z" />
    <glyph glyph-name="Lcaron" unicode="&#x13d;" horiz-adv-x="565" 
d="M90 0v714h151v-589h290v-125h-441zM559 714v-10q-15 -33 -35 -71.5t-46 -78.5h-87v13q8 29 17 72t13 75h138z" />
    <glyph glyph-name="lcaron" unicode="&#x13e;" horiz-adv-x="305" 
d="M227 0h-149v760h149v-760zM422 760v-10q-15 -33 -35 -71.5t-46 -78.5h-87v13q8 29 17 72t13 75h138z" />
    <glyph glyph-name="Ldot" unicode="&#x13f;" horiz-adv-x="565" 
d="M90 0v714h151v-589h290v-125h-441zM439 465q33 0 57 -15.5t24 -57.5q0 -41 -24 -57t-57 -16q-34 0 -57.5 16t-23.5 57q0 42 23.5 57.5t57.5 15.5z" />
    <glyph glyph-name="ldot" unicode="&#x140;" horiz-adv-x="362" 
d="M227 0h-149v760h149v-760zM333 451q33 0 57 -15.5t24 -57.5q0 -41 -24 -57t-57 -16q-34 0 -57.5 16t-23.5 57q0 42 23.5 57.5t57.5 15.5z" />
    <glyph glyph-name="Lslash" unicode="&#x141;" horiz-adv-x="565" 
d="M90 0v240l-34 -20l-55 96l89 54v344h151v-252l70 43l57 -96l-127 -77v-207h290v-125h-441z" />
    <glyph glyph-name="lslash" unicode="&#x142;" horiz-adv-x="305" 
d="M78 0v233l-35 -21l-55 96l90 55v397h149v-306l34 21l57 -96l-91 -55v-324h-149z" />
    <glyph glyph-name="Nacute" unicode="&#x143;" horiz-adv-x="813" 
d="M723 0h-192l-311 540h-4q2 -51 4.5 -102t4.5 -102v-336h-135v714h191l310 -535h3l-4 98t-3 99v338h136v-714zM599 934v-10q-14 -14 -37 -34t-49.5 -42t-52 -41.5t-44.5 -32.5h-99v13q16 19 37.5 44.5t42 53t35.5 49.5h167z" />
    <glyph glyph-name="nacute" unicode="&#x144;" horiz-adv-x="657" 
d="M388 556q88 0 141 -47.5t53 -152.5v-356h-149v319q0 59 -21 88.5t-67 29.5q-68 0 -93 -46.5t-25 -133.5v-257h-149v546h114l20 -70h8q26 42 71.5 61t96.5 19zM521 766v-10q-14 -14 -37 -34t-49.5 -42t-52 -41.5t-44.5 -32.5h-99v13q16 19 37.5 44.5t42 53t35.5 49.5h167z
" />
    <glyph glyph-name="uni0145" unicode="&#x145;" horiz-adv-x="813" 
d="M723 0h-192l-311 540h-4q2 -51 4.5 -102t4.5 -102v-336h-135v714h191l310 -535h3l-4 98t-3 99v338h136v-714zM491 -61v-10q-15 -33 -35 -71.5t-46 -78.5h-87v13q8 29 17 72t13 75h138z" />
    <glyph glyph-name="uni0146" unicode="&#x146;" horiz-adv-x="657" 
d="M388 556q88 0 141 -47.5t53 -152.5v-356h-149v319q0 59 -21 88.5t-67 29.5q-68 0 -93 -46.5t-25 -133.5v-257h-149v546h114l20 -70h8q26 42 71.5 61t96.5 19zM413 -61v-10q-15 -33 -35 -71.5t-46 -78.5h-87v13q8 29 17 72t13 75h138z" />
    <glyph glyph-name="Ncaron" unicode="&#x147;" horiz-adv-x="813" 
d="M723 0h-192l-311 540h-4q2 -51 4.5 -102t4.5 -102v-336h-135v714h191l310 -535h3l-4 98t-3 99v338h136v-714zM322 774q-14 22 -36.5 49.5t-46.5 53t-42 44.5v13h99q26 -16 56 -37.5t56 -48.5q25 27 56.5 48.5t57.5 37.5h99v-13q-18 -18 -42 -44t-46.5 -53.5t-36.5 -49.5
h-174z" />
    <glyph glyph-name="ncaron" unicode="&#x148;" horiz-adv-x="657" 
d="M388 556q88 0 141 -47.5t53 -152.5v-356h-149v319q0 59 -21 88.5t-67 29.5q-68 0 -93 -46.5t-25 -133.5v-257h-149v546h114l20 -70h8q26 42 71.5 61t96.5 19zM244 606q-14 22 -36.5 49.5t-46.5 53t-42 44.5v13h99q26 -16 56 -37.5t56 -48.5q25 27 56.5 48.5t57.5 37.5h99
v-13q-18 -18 -42 -44t-46.5 -53.5t-36.5 -49.5h-174z" />
    <glyph glyph-name="napostrophe" unicode="&#x149;" horiz-adv-x="770" 
d="M501 556q88 0 141 -47.5t53 -152.5v-356h-149v319q0 59 -21 88.5t-67 29.5q-68 0 -93 -46.5t-25 -133.5v-257h-149v546h114l20 -70h8q26 42 71.5 61t96.5 19zM188 714l7 -11q-13 -53 -37 -116t-49 -118h-107q14 59 28 126t21 119h137z" />
    <glyph glyph-name="Eng" unicode="&#x14a;" horiz-adv-x="813" 
d="M496 -210q-32 0 -56 3t-40 8v118q18 -4 38 -7t43 -3q55 0 81.5 21.5t28.5 71.5l-371 538h-4l1.5 -21t3 -53.5t3 -67.5t1.5 -62v-336h-135v714h191l310 -440h3l-1 21l-2.5 52.5t-2.5 65t-1 58.5v243h136v-714q0 -109 -63 -159.5t-164 -50.5z" />
    <glyph glyph-name="eng" unicode="&#x14b;" horiz-adv-x="657" 
d="M405 -240q-23 0 -48 3.5t-42 8.5v117q15 -5 28 -7t30 -2q25 0 42.5 17t17.5 66v367q0 107 -88 107q-68 0 -93 -46.5t-25 -133.5v-257h-149v546h114l20 -70h9q26 42 71.5 61t95.5 19q88 0 141 -47.5t53 -152.5v-415q0 -50 -17.5 -91t-56.5 -65.5t-103 -24.5z" />
    <glyph glyph-name="Omacron" unicode="&#x14c;" horiz-adv-x="796" 
d="M738 358q0 -111 -36.5 -193.5t-112 -128.5t-191.5 -46t-191.5 46t-112 129t-36.5 194t36.5 193t112 127.5t192.5 45.5q116 0 191 -45.5t111.5 -128t36.5 -193.5zM217 358q0 -112 43 -176.5t138 -64.5q97 0 139 64.5t42 176.5t-42 176.5t-138 64.5t-139 -64.5t-43 -176.5z
M564 877v-103h-331v103h331z" />
    <glyph glyph-name="omacron" unicode="&#x14d;" horiz-adv-x="619" 
d="M574 274q0 -136 -71.5 -210t-194.5 -74q-76 0 -135.5 33t-93.5 96.5t-34 154.5q0 136 71 209t195 73q77 0 136 -33t93 -96t34 -153zM197 274q0 -81 26.5 -122.5t86.5 -41.5q59 0 85.5 41.5t26.5 122.5t-26.5 121.5t-86.5 40.5q-59 0 -85.5 -40.5t-26.5 -121.5zM476 709
v-103h-331v103h331z" />
    <glyph glyph-name="Obreve" unicode="&#x14e;" horiz-adv-x="796" 
d="M738 358q0 -111 -36.5 -193.5t-112 -128.5t-191.5 -46t-191.5 46t-112 129t-36.5 194t36.5 193t112 127.5t192.5 45.5q116 0 191 -45.5t111.5 -128t36.5 -193.5zM217 358q0 -112 43 -176.5t138 -64.5q97 0 139 64.5t42 176.5t-42 176.5t-138 64.5t-139 -64.5t-43 -176.5z
M593 939q-5 -73 -58 -119t-136 -46q-86 0 -136 45t-54 120h83q3 -28 17.5 -41t38 -16.5t52.5 -3.5q23 0 47 4.5t41 17.5t20 39h85z" />
    <glyph glyph-name="obreve" unicode="&#x14f;" horiz-adv-x="619" 
d="M574 274q0 -136 -71.5 -210t-194.5 -74q-76 0 -135.5 33t-93.5 96.5t-34 154.5q0 136 71 209t195 73q77 0 136 -33t93 -96t34 -153zM197 274q0 -81 26.5 -122.5t86.5 -41.5q59 0 85.5 41.5t26.5 122.5t-26.5 121.5t-86.5 40.5q-59 0 -85.5 -40.5t-26.5 -121.5zM505 771
q-5 -73 -58 -119t-136 -46q-86 0 -136 45t-54 120h83q3 -28 17.5 -41t38 -16.5t52.5 -3.5q23 0 47 4.5t41 17.5t20 39h85z" />
    <glyph glyph-name="Ohungarumlaut" unicode="&#x150;" horiz-adv-x="796" 
d="M738 358q0 -111 -36.5 -193.5t-112 -128.5t-191.5 -46t-191.5 46t-112 129t-36.5 194t36.5 193t112 127.5t192.5 45.5q116 0 191 -45.5t111.5 -128t36.5 -193.5zM217 358q0 -112 43 -176.5t138 -64.5q97 0 139 64.5t42 176.5t-42 176.5t-138 64.5t-139 -64.5t-43 -176.5z
M691 934v-10q-8 -13 -27 -33t-44 -42t-49.5 -41.5t-42.5 -33.5h-79v13q14 19 32 45t35 53t28 49h147zM497 934v-10q-8 -13 -27 -33t-44 -42t-49.5 -41.5t-42.5 -33.5h-79v13q14 19 31.5 45t34.5 53t29 49h147z" />
    <glyph glyph-name="ohungarumlaut" unicode="&#x151;" horiz-adv-x="619" 
d="M574 274q0 -136 -71.5 -210t-194.5 -74q-76 0 -135.5 33t-93.5 96.5t-34 154.5q0 136 71 209t195 73q77 0 136 -33t93 -96t34 -153zM197 274q0 -81 26.5 -122.5t86.5 -41.5q59 0 85.5 41.5t26.5 122.5t-26.5 121.5t-86.5 40.5q-59 0 -85.5 -40.5t-26.5 -121.5zM603 766
v-10q-8 -13 -27 -33t-44 -42t-49.5 -41.5t-42.5 -33.5h-79v13q14 19 32 45t35 53t28 49h147zM409 766v-10q-8 -13 -27 -33t-44 -42t-49.5 -41.5t-42.5 -33.5h-79v13q14 19 31.5 45t34.5 53t29 49h147z" />
    <glyph glyph-name="OE" unicode="&#x152;" horiz-adv-x="973" 
d="M379 725q26 0 57.5 -3t53.5 -8h424v-124h-275v-157h257v-124h-257v-184h275v-125h-426q-22 -4 -53 -7t-57 -3q-110 0 -180.5 46t-105 129t-34.5 194t34.5 193t105.5 127.5t181 45.5zM379 599q-85 0 -125 -64.5t-40 -176.5t39.5 -176.5t124.5 -64.5q29 0 60 5t50 14v443
q-18 10 -49 15t-60 5z" />
    <glyph glyph-name="oe" unicode="&#x153;" horiz-adv-x="978" 
d="M683 556q116 0 184 -64.5t68 -183.5v-72h-364q3 -64 40 -99.5t101 -35.5q55 0 100 10.5t92 32.5v-115q-42 -20 -87.5 -29.5t-110.5 -9.5q-62 0 -115 18.5t-90 57.5q-35 -38 -84 -57t-107 -19q-78 0 -137.5 33t-93.5 96.5t-34 154.5q0 136 69.5 209t194.5 73q55 0 104 -19
t83 -57q70 76 187 76zM686 450q-46 0 -76 -28t-35 -87h220q-1 49 -27.5 82t-81.5 33zM309 436q-59 0 -85.5 -40.5t-26.5 -121.5t26.5 -122.5t86.5 -41.5q59 0 85.5 41.5t26.5 122.5t-26.5 121.5t-86.5 40.5z" />
    <glyph glyph-name="Racute" unicode="&#x154;" horiz-adv-x="660" 
d="M298 714q146 0 215.5 -53t69.5 -161q0 -49 -18.5 -85.5t-49 -62t-65.5 -41.5l210 -311h-168l-170 274h-81v-274h-151v714h208zM287 590h-46v-193h49q75 0 107.5 25t32.5 74q0 51 -35 72.5t-108 21.5zM530 934v-10q-14 -14 -37 -34t-49.5 -42t-52 -41.5t-44.5 -32.5h-99
v13q16 19 37.5 44.5t42 53t35.5 49.5h167z" />
    <glyph glyph-name="racute" unicode="&#x155;" horiz-adv-x="454" 
d="M383 556q11 0 26 -1t24 -3l-11 -140q-8 2 -21 3.5t-23 1.5q-38 0 -73 -13.5t-56.5 -43.5t-21.5 -82v-278h-149v546h113l22 -92h7q24 42 66 72t97 30zM446 766v-10q-14 -14 -37 -34t-49.5 -42t-52 -41.5t-44.5 -32.5h-99v13q16 19 37.5 44.5t42 53t35.5 49.5h167z" />
    <glyph glyph-name="uni0156" unicode="&#x156;" horiz-adv-x="660" 
d="M298 714q146 0 215.5 -53t69.5 -161q0 -49 -18.5 -85.5t-49 -62t-65.5 -41.5l210 -311h-168l-170 274h-81v-274h-151v714h208zM287 590h-46v-193h49q75 0 107.5 25t32.5 74q0 51 -35 72.5t-108 21.5zM442 -61v-10q-15 -33 -35 -71.5t-46 -78.5h-87v13q8 29 17 72t13 75
h138z" />
    <glyph glyph-name="uni0157" unicode="&#x157;" horiz-adv-x="454" 
d="M383 556q11 0 26 -1t24 -3l-11 -140q-8 2 -21 3.5t-23 1.5q-38 0 -73 -13.5t-56.5 -43.5t-21.5 -82v-278h-149v546h113l22 -92h7q24 42 66 72t97 30zM240 -61v-10q-15 -33 -35 -71.5t-46 -78.5h-87v13q8 29 17 72t13 75h138z" />
    <glyph glyph-name="Rcaron" unicode="&#x158;" horiz-adv-x="660" 
d="M298 714q146 0 215.5 -53t69.5 -161q0 -49 -18.5 -85.5t-49 -62t-65.5 -41.5l210 -311h-168l-170 274h-81v-274h-151v714h208zM287 590h-46v-193h49q75 0 107.5 25t32.5 74q0 51 -35 72.5t-108 21.5zM253 774q-14 22 -36.5 49.5t-46.5 53t-42 44.5v13h99q26 -16 56 -37.5
t56 -48.5q25 27 56.5 48.5t57.5 37.5h99v-13q-18 -18 -42 -44t-46.5 -53.5t-36.5 -49.5h-174z" />
    <glyph glyph-name="rcaron" unicode="&#x159;" horiz-adv-x="454" 
d="M383 556q11 0 26 -1t24 -3l-11 -140q-8 2 -21 3.5t-23 1.5q-38 0 -73 -13.5t-56.5 -43.5t-21.5 -82v-278h-149v546h113l22 -92h7q24 42 66 72t97 30zM169 606q-14 22 -36.5 49.5t-46.5 53t-42 44.5v13h99q26 -16 56 -37.5t56 -48.5q25 27 56.5 48.5t57.5 37.5h99v-13
q-18 -18 -42 -44t-46.5 -53.5t-36.5 -49.5h-174z" />
    <glyph glyph-name="Sacute" unicode="&#x15a;" horiz-adv-x="551" 
d="M511 198q0 -95 -68.5 -151.5t-194.5 -56.5q-113 0 -202 43v141q51 -22 105.5 -40.5t108.5 -18.5q56 0 79.5 21.5t23.5 54.5q0 27 -18.5 46t-49.5 35.5t-71 35.5q-25 12 -54 28.5t-55.5 41t-43.5 59.5t-17 84q0 96 65 149.5t177 53.5q56 0 106 -13t106 -37l-49 -118
q-49 20 -88 31t-80 11q-43 0 -66 -20t-23 -52q0 -38 34 -60t101 -54q55 -26 93.5 -54t59.5 -66t21 -94zM476 934v-10q-14 -14 -37 -34t-49.5 -42t-52 -41.5t-44.5 -32.5h-99v13q16 19 37.5 44.5t42 53t35.5 49.5h167z" />
    <glyph glyph-name="sacute" unicode="&#x15b;" horiz-adv-x="497" 
d="M459 162q0 -83 -58.5 -127.5t-174.5 -44.5q-57 0 -98 7.5t-82 24.5v123q44 -20 95 -33t90 -13q43 0 62 13t19 34q0 14 -7.5 25t-32.5 25t-78 36q-52 22 -84.5 43.5t-48.5 52t-16 76.5q0 76 59 114t157 38q51 0 97 -10t95 -33l-45 -107q-40 17 -76 28.5t-73 11.5
q-66 0 -66 -36q0 -13 8.5 -23.5t33 -22.5t72.5 -32q47 -19 81 -39.5t52.5 -51.5t18.5 -79zM441 766v-10q-14 -14 -37 -34t-49.5 -42t-52 -41.5t-44.5 -32.5h-99v13q16 19 37.5 44.5t42 53t35.5 49.5h167z" />
    <glyph glyph-name="Scircumflex" unicode="&#x15c;" horiz-adv-x="551" 
d="M511 198q0 -95 -68.5 -151.5t-194.5 -56.5q-113 0 -202 43v141q51 -22 105.5 -40.5t108.5 -18.5q56 0 79.5 21.5t23.5 54.5q0 27 -18.5 46t-49.5 35.5t-71 35.5q-25 12 -54 28.5t-55.5 41t-43.5 59.5t-17 84q0 96 65 149.5t177 53.5q56 0 106 -13t106 -37l-49 -118
q-49 20 -88 31t-80 11q-43 0 -66 -20t-23 -52q0 -38 34 -60t101 -54q55 -26 93.5 -54t59.5 -66t21 -94zM372 934q14 -22 36.5 -49.5t46.5 -53.5t42 -44v-13h-99q-26 16 -57.5 37.5t-56.5 48.5q-26 -27 -56 -48.5t-56 -37.5h-99v13q18 19 42 44.5t46.5 53t36.5 49.5h174z" />
    <glyph glyph-name="scircumflex" unicode="&#x15d;" horiz-adv-x="497" 
d="M459 162q0 -83 -58.5 -127.5t-174.5 -44.5q-57 0 -98 7.5t-82 24.5v123q44 -20 95 -33t90 -13q43 0 62 13t19 34q0 14 -7.5 25t-32.5 25t-78 36q-52 22 -84.5 43.5t-48.5 52t-16 76.5q0 76 59 114t157 38q51 0 97 -10t95 -33l-45 -107q-40 17 -76 28.5t-73 11.5
q-66 0 -66 -36q0 -13 8.5 -23.5t33 -22.5t72.5 -32q47 -19 81 -39.5t52.5 -51.5t18.5 -79zM337 766q14 -22 36.5 -49.5t46.5 -53.5t42 -44v-13h-99q-26 16 -57.5 37.5t-56.5 48.5q-26 -27 -56 -48.5t-56 -37.5h-99v13q18 19 42 44.5t46.5 53t36.5 49.5h174z" />
    <glyph glyph-name="Scedilla" unicode="&#x15e;" horiz-adv-x="551" 
d="M511 198q0 -95 -68.5 -151.5t-194.5 -56.5q-113 0 -202 43v141q51 -22 105.5 -40.5t108.5 -18.5q56 0 79.5 21.5t23.5 54.5q0 27 -18.5 46t-49.5 35.5t-71 35.5q-25 12 -54 28.5t-55.5 41t-43.5 59.5t-17 84q0 96 65 149.5t177 53.5q56 0 106 -13t106 -37l-49 -118
q-49 20 -88 31t-80 11q-43 0 -66 -20t-23 -52q0 -38 34 -60t101 -54q55 -26 93.5 -54t59.5 -66t21 -94zM384 -122q0 -56 -33 -87t-118 -31q-22 0 -39.5 3t-31.5 7v82q14 -4 34.5 -7t35.5 -3q14 0 24.5 6.5t10.5 23.5q0 18 -18 32t-63 21l38 75h94l-13 -30q30 -10 54.5 -32.5
t24.5 -59.5z" />
    <glyph glyph-name="scedilla" unicode="&#x15f;" horiz-adv-x="497" 
d="M459 162q0 -83 -58.5 -127.5t-174.5 -44.5q-57 0 -98 7.5t-82 24.5v123q44 -20 95 -33t90 -13q43 0 62 13t19 34q0 14 -7.5 25t-32.5 25t-78 36q-52 22 -84.5 43.5t-48.5 52t-16 76.5q0 76 59 114t157 38q51 0 97 -10t95 -33l-45 -107q-40 17 -76 28.5t-73 11.5
q-66 0 -66 -36q0 -13 8.5 -23.5t33 -22.5t72.5 -32q47 -19 81 -39.5t52.5 -51.5t18.5 -79zM365 -122q0 -56 -33 -87t-118 -31q-22 0 -39.5 3t-31.5 7v82q14 -4 34.5 -7t35.5 -3q14 0 24.5 6.5t10.5 23.5q0 18 -18 32t-63 21l38 75h94l-13 -30q30 -10 54.5 -32.5t24.5 -59.5z
" />
    <glyph glyph-name="Scaron" unicode="&#x160;" horiz-adv-x="551" 
d="M511 198q0 -95 -68.5 -151.5t-194.5 -56.5q-113 0 -202 43v141q51 -22 105.5 -40.5t108.5 -18.5q56 0 79.5 21.5t23.5 54.5q0 27 -18.5 46t-49.5 35.5t-71 35.5q-25 12 -54 28.5t-55.5 41t-43.5 59.5t-17 84q0 96 65 149.5t177 53.5q56 0 106 -13t106 -37l-49 -118
q-49 20 -88 31t-80 11q-43 0 -66 -20t-23 -52q0 -38 34 -60t101 -54q55 -26 93.5 -54t59.5 -66t21 -94zM199 774q-14 22 -36.5 49.5t-46.5 53t-42 44.5v13h99q26 -16 56 -37.5t56 -48.5q25 27 56.5 48.5t57.5 37.5h99v-13q-18 -18 -42 -44t-46.5 -53.5t-36.5 -49.5h-174z
" />
    <glyph glyph-name="scaron" unicode="&#x161;" horiz-adv-x="497" 
d="M459 162q0 -83 -58.5 -127.5t-174.5 -44.5q-57 0 -98 7.5t-82 24.5v123q44 -20 95 -33t90 -13q43 0 62 13t19 34q0 14 -7.5 25t-32.5 25t-78 36q-52 22 -84.5 43.5t-48.5 52t-16 76.5q0 76 59 114t157 38q51 0 97 -10t95 -33l-45 -107q-40 17 -76 28.5t-73 11.5
q-66 0 -66 -36q0 -13 8.5 -23.5t33 -22.5t72.5 -32q47 -19 81 -39.5t52.5 -51.5t18.5 -79zM164 606q-14 22 -36.5 49.5t-46.5 53t-42 44.5v13h99q26 -16 56 -37.5t56 -48.5q25 27 56.5 48.5t57.5 37.5h99v-13q-18 -18 -42 -44t-46.5 -53.5t-36.5 -49.5h-174z" />
    <glyph glyph-name="uni021A" unicode="&#x21a;" horiz-adv-x="579" 
d="M365 0h-151v588h-194v126h539v-126h-194v-588zM374 -61v-10q-15 -33 -35 -71.5t-46 -78.5h-87v13q8 29 17 72t13 75h138z" />
    <glyph glyph-name="uni021B" unicode="&#x21b;" horiz-adv-x="434" 
d="M308 109q25 0 48 4.5t46 12.5v-111q-24 -11 -59.5 -18t-77.5 -7q-49 0 -87.5 16t-61 55t-22.5 110v263h-71v63l82 50l43 115h95v-116h153v-112h-153v-263q0 -31 18 -46.5t47 -15.5zM325 -61v-10q-15 -33 -35 -71.5t-46 -78.5h-87v13q8 29 17 72t13 75h138z" />
    <glyph glyph-name="Tcaron" unicode="&#x164;" horiz-adv-x="579" 
d="M365 0h-151v588h-194v126h539v-126h-194v-588zM205 774q-14 22 -36.5 49.5t-46.5 53t-42 44.5v13h99q26 -16 56 -37.5t56 -48.5q25 27 56.5 48.5t57.5 37.5h99v-13q-18 -18 -42 -44t-46.5 -53.5t-36.5 -49.5h-174z" />
    <glyph glyph-name="tcaron" unicode="&#x165;" horiz-adv-x="434" 
d="M308 109q25 0 48 4.5t46 12.5v-111q-24 -11 -59.5 -18t-77.5 -7q-49 0 -87.5 16t-61 55t-22.5 110v263h-71v63l82 50l43 115h95v-116h153v-112h-153v-263q0 -31 18 -46.5t47 -15.5zM570 760v-10q-15 -33 -35 -71.5t-46 -78.5h-87v13q8 29 17 72t13 75h138z" />
    <glyph glyph-name="Tbar" unicode="&#x166;" horiz-adv-x="579" 
d="M214 0v291h-121v124h121v173h-194v126h539v-126h-194v-173h121v-124h-121v-291h-151z" />
    <glyph glyph-name="tbar" unicode="&#x167;" horiz-adv-x="434" 
d="M32 243v97h62v94h-71v63l82 50l43 115h95v-116h153v-112h-153v-94h136v-97h-136v-72q0 -31 18 -46.5t47 -15.5q25 0 48 4.5t46 12.5v-111q-24 -11 -59.5 -18t-77.5 -7q-49 0 -87.5 16t-61 55t-22.5 110v72h-62z" />
    <glyph glyph-name="Utilde" unicode="&#x168;" horiz-adv-x="756" 
d="M671 714v-462q0 -74 -32.5 -133.5t-98.5 -94t-165 -34.5q-142 0 -216 72.5t-74 191.5v460h151v-437q0 -89 36 -124.5t107 -35.5q74 0 107.5 39t33.5 122v436h151zM175 773q6 78 43.5 114.5t89.5 36.5q27 0 52 -13t50 -25.5t48 -12.5q15 0 29 13t20 39h73q-6 -77 -44 -114
t-89 -37q-26 0 -52 12.5t-50 25.5t-48 13q-15 0 -29 -13t-20 -39h-73z" />
    <glyph glyph-name="utilde" unicode="&#x169;" horiz-adv-x="657" 
d="M579 546v-546h-114l-20 70h-8q-26 -42 -71.5 -61t-96.5 -19q-88 0 -141 47.5t-53 152.5v356h149v-319q0 -59 21 -88.5t67 -29.5q68 0 93 46.5t25 133.5v257h149zM126 605q6 78 43.5 114.5t89.5 36.5q27 0 52 -13t50 -25.5t48 -12.5q15 0 29 13t20 39h73q-6 -77 -44 -114
t-89 -37q-26 0 -52 12.5t-50 25.5t-48 13q-15 0 -29 -13t-20 -39h-73z" />
    <glyph glyph-name="Umacron" unicode="&#x16a;" horiz-adv-x="756" 
d="M671 714v-462q0 -74 -32.5 -133.5t-98.5 -94t-165 -34.5q-142 0 -216 72.5t-74 191.5v460h151v-437q0 -89 36 -124.5t107 -35.5q74 0 107.5 39t33.5 122v436h151zM544 877v-103h-331v103h331z" />
    <glyph glyph-name="umacron" unicode="&#x16b;" horiz-adv-x="657" 
d="M579 546v-546h-114l-20 70h-8q-26 -42 -71.5 -61t-96.5 -19q-88 0 -141 47.5t-53 152.5v356h149v-319q0 -59 21 -88.5t67 -29.5q68 0 93 46.5t25 133.5v257h149zM495 709v-103h-331v103h331z" />
    <glyph glyph-name="Ubreve" unicode="&#x16c;" horiz-adv-x="756" 
d="M671 714v-462q0 -74 -32.5 -133.5t-98.5 -94t-165 -34.5q-142 0 -216 72.5t-74 191.5v460h151v-437q0 -89 36 -124.5t107 -35.5q74 0 107.5 39t33.5 122v436h151zM573 939q-5 -73 -58 -119t-136 -46q-86 0 -136 45t-54 120h83q3 -28 17.5 -41t38 -16.5t52.5 -3.5
q23 0 47 4.5t41 17.5t20 39h85z" />
    <glyph glyph-name="ubreve" unicode="&#x16d;" horiz-adv-x="657" 
d="M579 546v-546h-114l-20 70h-8q-26 -42 -71.5 -61t-96.5 -19q-88 0 -141 47.5t-53 152.5v356h149v-319q0 -59 21 -88.5t67 -29.5q68 0 93 46.5t25 133.5v257h149zM524 771q-5 -73 -58 -119t-136 -46q-86 0 -136 45t-54 120h83q3 -28 17.5 -41t38 -16.5t52.5 -3.5
q23 0 47 4.5t41 17.5t20 39h85z" />
    <glyph glyph-name="Uring" unicode="&#x16e;" horiz-adv-x="756" 
d="M671 714v-462q0 -74 -32.5 -133.5t-98.5 -94t-165 -34.5q-142 0 -216 72.5t-74 191.5v460h151v-437q0 -89 36 -124.5t107 -35.5q74 0 107.5 39t33.5 122v436h151zM379 773q-54 0 -87.5 31t-33.5 85t33.5 85t87.5 31q52 0 88 -31t36 -84q0 -55 -35.5 -86t-88.5 -31z
M379 842q20 0 33.5 12.5t13.5 34.5t-13.5 34.5t-33.5 12.5t-33.5 -12.5t-13.5 -34.5t12 -34.5t35 -12.5z" />
    <glyph glyph-name="uring" unicode="&#x16f;" horiz-adv-x="657" 
d="M579 546v-546h-114l-20 70h-8q-26 -42 -71.5 -61t-96.5 -19q-88 0 -141 47.5t-53 152.5v356h149v-319q0 -59 21 -88.5t67 -29.5q68 0 93 46.5t25 133.5v257h149zM330 605q-54 0 -87.5 31t-33.5 85t33.5 85t87.5 31q52 0 88 -31t36 -84q0 -55 -35.5 -86t-88.5 -31z
M330 674q20 0 33.5 12.5t13.5 34.5t-13.5 34.5t-33.5 12.5t-33.5 -12.5t-13.5 -34.5t12 -34.5t35 -12.5z" />
    <glyph glyph-name="Uhungarumlaut" unicode="&#x170;" horiz-adv-x="756" 
d="M671 714v-462q0 -74 -32.5 -133.5t-98.5 -94t-165 -34.5q-142 0 -216 72.5t-74 191.5v460h151v-437q0 -89 36 -124.5t107 -35.5q74 0 107.5 39t33.5 122v436h151zM671 934v-10q-8 -13 -27 -33t-44 -42t-49.5 -41.5t-42.5 -33.5h-79v13q14 19 32 45t35 53t28 49h147z
M477 934v-10q-8 -13 -27 -33t-44 -42t-49.5 -41.5t-42.5 -33.5h-79v13q14 19 31.5 45t34.5 53t29 49h147z" />
    <glyph glyph-name="uhungarumlaut" unicode="&#x171;" horiz-adv-x="657" 
d="M579 546v-546h-114l-20 70h-8q-26 -42 -71.5 -61t-96.5 -19q-88 0 -141 47.5t-53 152.5v356h149v-319q0 -59 21 -88.5t67 -29.5q68 0 93 46.5t25 133.5v257h149zM622 766v-10q-8 -13 -27 -33t-44 -42t-49.5 -41.5t-42.5 -33.5h-79v13q14 19 32 45t35 53t28 49h147z
M428 766v-10q-8 -13 -27 -33t-44 -42t-49.5 -41.5t-42.5 -33.5h-79v13q14 19 31.5 45t34.5 53t29 49h147z" />
    <glyph glyph-name="Uogonek" unicode="&#x172;" horiz-adv-x="756" 
d="M485 -100q0 -26 12 -38.5t29 -12.5q16 0 30 3t24 6v-87q-16 -5 -34 -8t-42 -3q-56 0 -89 32t-33 87q0 31 13 60.5t35 53.5q-26 -3 -55 -3q-142 0 -216 72.5t-74 191.5v460h151v-437q0 -89 36 -124.5t107 -35.5q74 0 107.5 39t33.5 122v436h151v-462q0 -64 -24 -117.5
t-73 -88.5q-47 -45 -68 -80.5t-21 -65.5z" />
    <glyph glyph-name="uogonek" unicode="&#x173;" horiz-adv-x="657" 
d="M579 546v-546h-114l-20 70h-8q-26 -42 -71.5 -61t-96.5 -19q-88 0 -141 47.5t-53 152.5v356h149v-319q0 -59 21 -88.5t67 -29.5q68 0 93 46.5t25 133.5v257h149zM475 -111q0 -20 11 -30t28 -10q16 0 31 3t25 6v-87q-16 -5 -34 -8t-42 -3q-56 0 -89 31t-33 81q0 44 32 82
t78 63l65 -17q-34 -32 -53 -59t-19 -52z" />
    <glyph glyph-name="Wcircumflex" unicode="&#x174;" horiz-adv-x="967" 
d="M967 714l-182 -714h-172l-97 375q-3 11 -7.5 33t-10 48t-10 49t-5.5 37q-1 -14 -5.5 -37t-9.5 -48.5t-10 -48t-8 -34.5l-96 -374h-172l-182 714h149l91 -390q6 -23 13 -58t13 -70t9 -59q3 25 9 59.5t12.5 67t11.5 50.5l104 400h143l104 -400q5 -18 11.5 -50.5t12.5 -67.5
t9 -59q3 25 9 59.5t13.5 69t12.5 58.5l91 390h149zM572 934q14 -22 36.5 -49.5t46.5 -53.5t42 -44v-13h-99q-26 16 -57.5 37.5t-56.5 48.5q-26 -27 -56 -48.5t-56 -37.5h-99v13q18 19 42 44.5t46.5 53t36.5 49.5h174z" />
    <glyph glyph-name="wcircumflex" unicode="&#x175;" horiz-adv-x="856" 
d="M527 0l-42 191q-4 17 -11.5 50.5t-16.5 72t-17 71t-11 47.5h-4q-3 -15 -10.5 -47.5t-16.5 -71t-17 -72.5t-12 -52l-44 -189h-160l-155 546h148l63 -242q7 -26 12.5 -60.5t10 -67t7.5 -51.5h4q1 14 4 37.5t7.5 48.5t8 45t5.5 28l67 262h164l64 -262q3 -14 9 -45t10 -63
t5 -51h4q2 17 7 49.5t11.5 68t13.5 61.5l65 242h146l-157 -546h-162zM516 766q14 -22 36.5 -49.5t46.5 -53.5t42 -44v-13h-99q-26 16 -57.5 37.5t-56.5 48.5q-26 -27 -56 -48.5t-56 -37.5h-99v13q18 19 42 44.5t46.5 53t36.5 49.5h174z" />
    <glyph glyph-name="Ycircumflex" unicode="&#x176;" horiz-adv-x="624" 
d="M312 420l149 294h163l-237 -436v-278h-150v273l-237 441h164zM400 934q14 -22 36.5 -49.5t46.5 -53.5t42 -44v-13h-99q-26 16 -57.5 37.5t-56.5 48.5q-26 -27 -56 -48.5t-56 -37.5h-99v13q18 19 42 44.5t46.5 53t36.5 49.5h174z" />
    <glyph glyph-name="ycircumflex" unicode="&#x177;" horiz-adv-x="569" 
d="M0 546h163l103 -307q8 -23 12 -46t6 -49h3q3 26 8 49t13 46l101 307h160l-231 -616q-32 -85 -91 -127.5t-137 -42.5q-26 0 -44 2.5t-32 5.5v118q10 -2 26 -4t33 -2q47 0 74 28.5t41 68.5l9 27zM373 766q14 -22 36.5 -49.5t46.5 -53.5t42 -44v-13h-99q-26 16 -57.5 37.5
t-56.5 48.5q-26 -27 -56 -48.5t-56 -37.5h-99v13q18 19 42 44.5t46.5 53t36.5 49.5h174z" />
    <glyph glyph-name="Ydieresis" unicode="&#x178;" horiz-adv-x="624" 
d="M312 420l149 294h163l-237 -436v-278h-150v273l-237 441h164zM144 854q0 34 20 50t48 16t48.5 -16t20.5 -50q0 -33 -20.5 -49t-48.5 -16t-48 16t-20 49zM341 854q0 34 20 50t49 16q28 0 48.5 -16t20.5 -50q0 -33 -20.5 -49t-48.5 -16q-29 0 -49 16t-20 49z" />
    <glyph glyph-name="Zacute" unicode="&#x179;" horiz-adv-x="579" 
d="M555 0h-531v98l342 491h-333v125h513v-98l-342 -491h351v-125zM487 934v-10q-14 -14 -37 -34t-49.5 -42t-52 -41.5t-44.5 -32.5h-99v13q16 19 37.5 44.5t42 53t35.5 49.5h167z" />
    <glyph glyph-name="zacute" unicode="&#x17a;" horiz-adv-x="488" 
d="M458 0h-431v88l253 344h-238v114h407v-97l-246 -335h255v-114zM436 766v-10q-14 -14 -37 -34t-49.5 -42t-52 -41.5t-44.5 -32.5h-99v13q16 19 37.5 44.5t42 53t35.5 49.5h167z" />
    <glyph glyph-name="Zdotaccent" unicode="&#x17b;" horiz-adv-x="579" 
d="M555 0h-531v98l342 491h-333v125h513v-98l-342 -491h351v-125zM297 928q33 0 57 -15.5t24 -57.5q0 -41 -24 -57t-57 -16q-34 0 -57.5 16t-23.5 57q0 42 23.5 57.5t57.5 15.5z" />
    <glyph glyph-name="zdotaccent" unicode="&#x17c;" horiz-adv-x="488" 
d="M458 0h-431v88l253 344h-238v114h407v-97l-246 -335h255v-114zM246 760q33 0 57 -15.5t24 -57.5q0 -41 -24 -57t-57 -16q-34 0 -57.5 16t-23.5 57q0 42 23.5 57.5t57.5 15.5z" />
    <glyph glyph-name="Zcaron" unicode="&#x17d;" horiz-adv-x="579" 
d="M555 0h-531v98l342 491h-333v125h513v-98l-342 -491h351v-125zM210 774q-14 22 -36.5 49.5t-46.5 53t-42 44.5v13h99q26 -16 56 -37.5t56 -48.5q25 27 56.5 48.5t57.5 37.5h99v-13q-18 -18 -42 -44t-46.5 -53.5t-36.5 -49.5h-174z" />
    <glyph glyph-name="zcaron" unicode="&#x17e;" horiz-adv-x="488" 
d="M458 0h-431v88l253 344h-238v114h407v-97l-246 -335h255v-114zM159 606q-14 22 -36.5 49.5t-46.5 53t-42 44.5v13h99q26 -16 56 -37.5t56 -48.5q25 27 56.5 48.5t57.5 37.5h99v-13q-18 -18 -42 -44t-46.5 -53.5t-36.5 -49.5h-174z" />
    <glyph glyph-name="longs" unicode="&#x17f;" horiz-adv-x="383" 
d="M289 647q-35 0 -48.5 -19t-13.5 -48v-580h-149v586q0 70 23.5 108.5t67 54.5t101.5 16q48 0 81 -7t55 -16l-35 -109q-17 5 -37 9.5t-45 4.5z" />
    <glyph glyph-name="florin" unicode="&#x192;" horiz-adv-x="572" 
d="M395 724q45 0 76 -7t52 -16l-35 -109q-15 5 -31.5 9.5t-39.5 4.5q-29 0 -41 -19t-12 -48v-34h111v-112h-111v-452q0 -50 -18 -91t-57 -65.5t-103 -24.5q-23 0 -48.5 3.5t-41.5 8.5v117q15 -5 28.5 -7t29.5 -2q25 0 43 17t18 66v430h-82v72l82 40v40q0 69 22 108t62.5 55
t95.5 16z" />
    <glyph glyph-name="Aringacute" unicode="&#x1fa;" horiz-adv-x="690" 
d="M285 856v8q21 19 45 45.5t40 48.5h167v-6q-11 -12 -39 -30t-60 -36t-54 -30h-99zM0 0l244 642q-21 28 -21 71q0 54 33.5 85t87.5 31q52 0 88 -31t36 -84q0 -22 -6 -40t-17 -32l245 -642h-162l-52 161h-261l-53 -161h-162zM344 667q47 0 47 46q0 22 -13.5 34.5t-33.5 12.5
q-22 0 -34.5 -12.5t-12.5 -34.5q0 -21 12.5 -33.5t34.5 -12.5zM248 288h196l-50 141q-6 16 -16 44.5l-20 57t-13 44.5q-3 -11 -10 -32.5t-14.5 -45t-14 -42.5t-9.5 -26z" />
    <glyph glyph-name="aringacute" unicode="&#x1fb;" horiz-adv-x="604" 
d="M482 958v-6q-10 -12 -38 -30t-60 -36t-55 -30h-99v8q21 19 45 45.5t40 48.5h167zM306 817q52 0 88 -31t36 -84q0 -55 -36 -86t-88 -31q-54 0 -87.5 31t-33.5 85t33.5 85t87.5 31zM306 748q-20 0 -33.5 -12.5t-13.5 -34.5t12 -34.5t35 -12.5q20 0 33.5 12.5t13.5 34.5
t-13.5 34.5t-33.5 12.5zM302 557q110 0 168.5 -47.5t58.5 -145.5v-364h-104l-29 74h-4q-35 -44 -74 -64t-107 -20q-73 0 -121 42t-48 131q0 87 61 128t183 46l95 3v24q0 43 -22.5 63t-62.5 20t-78 -11.5t-76 -28.5l-49 101q43 22 97 35.5t112 13.5zM381 253l-58 -2
q-72 -2 -100 -26t-28 -63q0 -34 20 -48.5t52 -14.5q48 0 81 28.5t33 80.5v45z" />
    <glyph glyph-name="AEacute" unicode="&#x1fc;" horiz-adv-x="952" 
d="M893 0h-426v170h-240l-73 -170h-154l320 714h573v-124h-275v-157h257v-124h-257v-184h275v-125zM282 297h185v288h-62zM698 934v-10q-14 -14 -37 -34t-49.5 -42t-52 -41.5t-44.5 -32.5h-99v13q16 19 37.5 44.5t42 53t35.5 49.5h167z" />
    <glyph glyph-name="aeacute" unicode="&#x1fd;" horiz-adv-x="917" 
d="M641 556q69 0 121.5 -29t82 -84t29.5 -135v-72h-353q2 -63 37.5 -99t98.5 -36q96 0 186 43v-115q-41 -20 -85 -29.5t-109 -9.5q-67 0 -122 25t-90 76q-29 -35 -58.5 -57.5t-68 -33t-94.5 -10.5q-47 0 -86.5 18.5t-63.5 57t-24 97.5q0 87 59 128t177 46l93 3v41
q0 34 -21.5 50t-59.5 16q-39 0 -75.5 -10.5t-73.5 -27.5l-48 99q43 22 96 35.5t110 13.5q110 0 167 -64q32 31 74 47t101 16zM638 450q-50 0 -80 -28t-34 -87h210q-1 49 -25.5 82t-70.5 33zM371 253l-55 -2q-68 -2 -94.5 -26t-26.5 -63q0 -34 18.5 -48.5t49.5 -14.5
q46 0 77 28.5t31 80.5v45zM658 766v-10q-14 -14 -37 -34t-49.5 -42t-52 -41.5t-44.5 -32.5h-99v13q16 19 37.5 44.5t42 53t35.5 49.5h167z" />
    <glyph glyph-name="Oslashacute" unicode="&#x1fe;" horiz-adv-x="796" 
d="M738 358q0 -111 -36.5 -193.5t-112 -128.5t-191.5 -46q-95 0 -164 32l-44 -66l-79 53l44 66q-49 49 -73 121t-24 163q0 111 36.5 193t112 127.5t192.5 45.5q49 0 91 -8.5t77 -25.5l41 61l78 -51l-43 -64q48 -48 71.5 -119.5t23.5 -159.5zM217 358q0 -45 6.5 -83t20.5 -67
l247 369q-39 22 -92 22q-96 0 -139 -64.5t-43 -176.5zM579 358q0 89 -25 145l-244 -367q18 -9 40 -14t48 -5q97 0 139 64.5t42 176.5zM594 934v-10q-14 -14 -37 -34t-49.5 -42t-52 -41.5t-44.5 -32.5h-99v13q16 19 37.5 44.5t42 53t35.5 49.5h167z" />
    <glyph glyph-name="oslashacute" unicode="&#x1ff;" horiz-adv-x="619" 
d="M574 274q0 -136 -71.5 -210t-194.5 -74q-32 0 -60 6t-54 16l-33 -49l-75 51l33 49q-35 37 -54.5 89.5t-19.5 121.5q0 136 71 209t195 73q65 0 121 -25l27 40l74 -53l-28 -41q33 -36 51 -87t18 -116zM197 274q0 -48 9 -81l155 232q-22 11 -52 11q-59 0 -85.5 -40.5
t-26.5 -121.5zM422 274q0 39 -6 69l-151 -226q18 -7 45 -7q59 0 85.5 41.5t26.5 122.5zM503 766v-10q-14 -14 -37 -34t-49.5 -42t-52 -41.5t-44.5 -32.5h-99v13q16 19 37.5 44.5t42 53t35.5 49.5h167z" />
    <glyph glyph-name="uni0218" unicode="&#x218;" horiz-adv-x="551" 
d="M511 198q0 -95 -68.5 -151.5t-194.5 -56.5q-113 0 -202 43v141q51 -22 105.5 -40.5t108.5 -18.5q56 0 79.5 21.5t23.5 54.5q0 27 -18.5 46t-49.5 35.5t-71 35.5q-25 12 -54 28.5t-55.5 41t-43.5 59.5t-17 84q0 96 65 149.5t177 53.5q56 0 106 -13t106 -37l-49 -118
q-49 20 -88 31t-80 11q-43 0 -66 -20t-23 -52q0 -38 34 -60t101 -54q55 -26 93.5 -54t59.5 -66t21 -94zM352 -61v-10q-15 -33 -35 -71.5t-46 -78.5h-87v13q8 29 17 72t13 75h138z" />
    <glyph glyph-name="uni0219" unicode="&#x219;" horiz-adv-x="497" 
d="M459 162q0 -83 -58.5 -127.5t-174.5 -44.5q-57 0 -98 7.5t-82 24.5v123q44 -20 95 -33t90 -13q43 0 62 13t19 34q0 14 -7.5 25t-32.5 25t-78 36q-52 22 -84.5 43.5t-48.5 52t-16 76.5q0 76 59 114t157 38q51 0 97 -10t95 -33l-45 -107q-40 17 -76 28.5t-73 11.5
q-66 0 -66 -36q0 -13 8.5 -23.5t33 -22.5t72.5 -32q47 -19 81 -39.5t52.5 -51.5t18.5 -79zM333 -61v-10q-15 -33 -35 -71.5t-46 -78.5h-87v13q8 29 17 72t13 75h138z" />
    <glyph glyph-name="circumflex" unicode="&#x2c6;" horiz-adv-x="504" 
d="M339 766q14 -22 36.5 -49.5t46.5 -53.5t42 -44v-13h-99q-26 16 -57.5 37.5t-56.5 48.5q-26 -27 -56 -48.5t-56 -37.5h-99v13q18 19 42 44.5t46.5 53t36.5 49.5h174z" />
    <glyph glyph-name="caron" unicode="&#x2c7;" horiz-adv-x="504" 
d="M165 606q-14 22 -36.5 49.5t-46.5 53t-42 44.5v13h99q26 -16 56 -37.5t56 -48.5q25 27 56.5 48.5t57.5 37.5h99v-13q-18 -18 -42 -44t-46.5 -53.5t-36.5 -49.5h-174z" />
    <glyph glyph-name="macron" unicode="&#x2c9;" horiz-adv-x="411" 
d="M371 709v-103h-331v103h331z" />
    <glyph glyph-name="breve" unicode="&#x2d8;" horiz-adv-x="464" 
d="M424 771q-5 -73 -58 -119t-136 -46q-86 0 -136 45t-54 120h83q3 -28 17.5 -41t38 -16.5t52.5 -3.5q23 0 47 4.5t41 17.5t20 39h85z" />
    <glyph glyph-name="dotaccent" unicode="&#x2d9;" horiz-adv-x="242" 
d="M121 760q33 0 57 -15.5t24 -57.5q0 -41 -24 -57t-57 -16q-34 0 -57.5 16t-23.5 57q0 42 23.5 57.5t57.5 15.5z" />
    <glyph glyph-name="ring" unicode="&#x2da;" horiz-adv-x="325" 
d="M161 605q-54 0 -87.5 31t-33.5 85t33.5 85t87.5 31q52 0 88 -31t36 -84q0 -55 -35.5 -86t-88.5 -31zM161 674q20 0 33.5 12.5t13.5 34.5t-13.5 34.5t-33.5 12.5t-33.5 -12.5t-13.5 -34.5t12 -34.5t35 -12.5z" />
    <glyph glyph-name="ogonek" unicode="&#x2db;" horiz-adv-x="278" 
d="M143 -111q0 -20 11 -30t28 -10q16 0 31 3t25 6v-87q-16 -5 -34 -8t-42 -3q-56 0 -89 31t-33 81q0 44 32 82t78 63l65 -17q-34 -32 -53 -59t-19 -52z" />
    <glyph glyph-name="tilde" unicode="&#x2dc;" horiz-adv-x="485" 
d="M40 605q6 78 43.5 114.5t89.5 36.5q27 0 52 -13t50 -25.5t48 -12.5q15 0 29 13t20 39h73q-6 -77 -44 -114t-89 -37q-26 0 -52 12.5t-50 25.5t-48 13q-15 0 -29 -13t-20 -39h-73z" />
    <glyph glyph-name="hungarumlaut" unicode="&#x2dd;" horiz-adv-x="516" 
d="M476 766v-10q-8 -13 -27 -33t-44 -42t-49.5 -41.5t-42.5 -33.5h-79v13q14 19 32 45t35 53t28 49h147zM282 766v-10q-8 -13 -27 -33t-44 -42t-49.5 -41.5t-42.5 -33.5h-79v13q14 19 31.5 45t34.5 53t29 49h147z" />
    <glyph glyph-name="tonos" unicode="&#x384;" horiz-adv-x="577" 
d="M235 606v15q7 23 15 54.5t15 63t10 57.5h138v-12q-17 -39 -40 -85t-51 -93h-87z" />
    <glyph glyph-name="dieresistonos" unicode="&#x385;" horiz-adv-x="577" 
d="M404 838v-10q-15 -33 -39 -72t-52 -78h-67v13q8 29 17 72t13 75h128zM162 752q28 0 46 -16t18 -50q0 -33 -18 -49t-46 -16t-45.5 16t-17.5 49q0 34 17.5 50t45.5 16zM430 752q28 0 46 -16t18 -50q0 -33 -18 -49t-46 -16q-29 0 -46.5 16t-17.5 49q0 34 17.5 50t46.5 16z
" />
    <glyph glyph-name="Alphatonos" unicode="&#x386;" horiz-adv-x="710" 
d="M547 0l-52 170h-260l-52 -170h-163l252 717h185l253 -717h-163zM459 297l-52 166q-5 17 -13 43t-16 53t-13 47q-5 -20 -13.5 -49.5t-16 -56t-11.5 -37.5l-51 -166h186zM10 559v15q7 23 15 54.5t15 63t10 57.5h138v-12q-17 -39 -40 -85t-51 -93h-87z" />
    <glyph glyph-name="anoteleia" unicode="&#x387;" horiz-adv-x="285" 
d="M57 472q0 46 25 64.5t61 18.5q35 0 60 -18.5t25 -64.5q0 -44 -25 -63.5t-60 -19.5q-36 0 -61 19.5t-25 63.5z" />
    <glyph glyph-name="Epsilontonos" unicode="&#x388;" horiz-adv-x="675" 
d="M616 0h-411v714h411v-124h-260v-157h242v-124h-242v-184h260v-125zM0 559v15q7 23 15 54.5t15 63t10 57.5h138v-12q-17 -39 -40 -85t-51 -93h-87z" />
    <glyph glyph-name="Etatonos" unicode="&#x389;" horiz-adv-x="880" 
d="M790 0h-151v308h-283v-308h-151v714h151v-280h283v280h151v-714zM0 559v15q7 23 15 54.5t15 63t10 57.5h138v-12q-17 -39 -40 -85t-51 -93h-87z" />
    <glyph glyph-name="Iotatonos" unicode="&#x38a;" horiz-adv-x="553" 
d="M521 0h-325v86l87 40v462l-87 40v86h325v-86l-87 -40v-462l87 -40v-86zM0 559v15q7 23 15 54.5t15 63t10 57.5h138v-12q-17 -39 -40 -85t-51 -93h-87z" />
    <glyph glyph-name="Omicrontonos" unicode="&#x38c;" horiz-adv-x="857" 
d="M799 358q0 -111 -36.5 -193.5t-112 -128.5t-191.5 -46t-191.5 46t-112 129t-36.5 194t36.5 193t112 127.5t192.5 45.5q116 0 191 -45.5t111.5 -128t36.5 -193.5zM278 358q0 -112 43 -176.5t138 -64.5q97 0 139 64.5t42 176.5t-42 176.5t-138 64.5t-139 -64.5t-43 -176.5z
M0 559v15q7 23 15 54.5t15 63t10 57.5h138v-12q-17 -39 -40 -85t-51 -93h-87z" />
    <glyph glyph-name="Upsilontonos" unicode="&#x38e;" horiz-adv-x="812" 
d="M500 420l149 294h163l-237 -436v-278h-150v273l-237 441h164zM0 559v15q7 23 15 54.5t15 63t10 57.5h138v-12q-17 -39 -40 -85t-51 -93h-87z" />
    <glyph glyph-name="Omegatonos" unicode="&#x38f;" horiz-adv-x="865" 
d="M472 599q-85 0 -134.5 -52.5t-49.5 -152.5q0 -86 28 -152t102 -106v-136h-312v127h181q-70 43 -112.5 121t-42.5 178q0 90 41.5 157.5t117.5 104.5t181 37t181 -37t117.5 -104.5t41.5 -158.5q0 -101 -42.5 -178t-114.5 -120h183v-127h-314v136q75 39 103.5 106.5
t28.5 152.5q0 100 -49.5 152t-134.5 52zM0 559v15q7 23 15 54.5t15 63t10 57.5h138v-12q-17 -39 -40 -85t-51 -93h-87z" />
    <glyph glyph-name="iotadieresistonos" unicode="&#x390;" horiz-adv-x="407" 
d="M227 546v-375q0 -31 18 -46.5t47 -15.5q25 0 48 4.5t46 12.5v-111q-22 -11 -55.5 -18t-72.5 -7q-51 0 -91.5 16t-64.5 55t-24 110v375h149zM276 838v-10q-15 -33 -39 -72t-52 -78h-67v13q8 29 17 72t13 75h128zM34 752q28 0 46 -16t18 -50q0 -33 -18 -49t-46 -16
t-45.5 16t-17.5 49q0 34 17.5 50t45.5 16zM302 752q28 0 46 -16t18 -50q0 -33 -18 -49t-46 -16q-29 0 -46.5 16t-17.5 49q0 34 17.5 50t46.5 16z" />
    <glyph glyph-name="Alpha" unicode="&#x391;" horiz-adv-x="690" 
d="M527 0l-52 170h-260l-52 -170h-163l252 717h185l253 -717h-163zM439 297l-52 166q-5 17 -13 43t-16 53t-13 47q-5 -20 -13.5 -49.5t-16 -56t-11.5 -37.5l-51 -166h186z" />
    <glyph glyph-name="Beta" unicode="&#x392;" horiz-adv-x="672" 
d="M90 714h222q142 0 215.5 -40t73.5 -141q0 -61 -28.5 -103t-81.5 -51v-5q35 -8 64.5 -25.5t46.5 -51.5t17 -90q0 -97 -70.5 -152t-191.5 -55h-267v714zM241 431h88q66 0 91.5 20.5t25.5 61.5t-30 59t-95 18h-80v-159zM241 311v-186h99q68 0 95 26.5t27 70.5
q0 40 -27.5 64.5t-99.5 24.5h-94z" />
    <glyph glyph-name="Gamma" unicode="&#x393;" horiz-adv-x="561" 
d="M541 714v-125h-300v-589h-151v714h451z" />
    <glyph glyph-name="uni0394" unicode="&#x394;" horiz-adv-x="658" 
d="M415 717l215 -631v-86h-602v87l216 630h171zM476 126l-123 375q-3 7 -8.5 27t-10 39.5t-5.5 25.5q-1 -6 -5.5 -25.5t-10 -39.5t-8.5 -28l-123 -374h294z" />
    <glyph glyph-name="Epsilon" unicode="&#x395;" horiz-adv-x="560" 
d="M501 0h-411v714h411v-124h-260v-157h242v-124h-242v-184h260v-125z" />
    <glyph glyph-name="Zeta" unicode="&#x396;" horiz-adv-x="579" 
d="M555 0h-531v98l342 491h-333v125h513v-98l-342 -491h351v-125z" />
    <glyph glyph-name="Eta" unicode="&#x397;" horiz-adv-x="765" 
d="M675 0h-151v308h-283v-308h-151v714h151v-280h283v280h151v-714z" />
    <glyph glyph-name="Theta" unicode="&#x398;" horiz-adv-x="796" 
d="M738 358q0 -111 -36.5 -193.5t-112 -128.5t-191.5 -46t-191.5 46t-112 129t-36.5 194t36.5 193t112 127.5t192.5 45.5q116 0 191 -45.5t111.5 -128t36.5 -193.5zM217 358q0 -112 43 -176.5t138 -64.5q97 0 139 64.5t42 176.5t-42 176.5t-138 64.5t-139 -64.5t-43 -176.5z
M525 425v-124h-254v124h254z" />
    <glyph glyph-name="Iota" unicode="&#x399;" horiz-adv-x="389" 
d="M357 0h-325v86l87 40v462l-87 40v86h325v-86l-87 -40v-462l87 -40v-86z" />
    <glyph glyph-name="Kappa" unicode="&#x39a;" horiz-adv-x="664" 
d="M664 0h-172l-187 301l-64 -46v-255h-151v714h151v-327l30 42l30 42l193 243h168l-249 -316z" />
    <glyph glyph-name="Lambda" unicode="&#x39b;" horiz-adv-x="650" 
d="M407 714l243 -714h-153l-133 429q-4 14 -12 44.5t-16 62.5t-11 51q-3 -21 -10.5 -53t-15 -62t-11.5 -44l-135 -428h-153l242 714h165z" />
    <glyph glyph-name="Mu" unicode="&#x39c;" horiz-adv-x="943" 
d="M392 0l-172 560h-4l3 -60t4 -86t2 -82v-332h-135v714h206l169 -546h3l179 546h206v-714h-141v338q0 34 1.5 78t3 83.5t2.5 59.5h-4l-184 -559h-139z" />
    <glyph glyph-name="Nu" unicode="&#x39d;" horiz-adv-x="813" 
d="M723 0h-192l-311 540h-4q2 -51 4.5 -102t4.5 -102v-336h-135v714h191l310 -535h3l-4 98t-3 99v338h136v-714z" />
    <glyph glyph-name="Xi" unicode="&#x39e;" horiz-adv-x="571" 
d="M60 590v124h451v-124h-451zM100 309v124h371v-124h-371zM40 0v125h491v-125h-491z" />
    <glyph glyph-name="Omicron" unicode="&#x39f;" horiz-adv-x="796" 
d="M738 358q0 -111 -36.5 -193.5t-112 -128.5t-191.5 -46t-191.5 46t-112 129t-36.5 194t36.5 193t112 127.5t192.5 45.5q116 0 191 -45.5t111.5 -128t36.5 -193.5zM217 358q0 -112 43 -176.5t138 -64.5q97 0 139 64.5t42 176.5t-42 176.5t-138 64.5t-139 -64.5t-43 -176.5z
" />
    <glyph glyph-name="Pi" unicode="&#x3a0;" horiz-adv-x="745" 
d="M90 0v714h565v-714h-151v588h-263v-588h-151z" />
    <glyph glyph-name="Rho" unicode="&#x3a1;" horiz-adv-x="628" 
d="M318 714q138 0 201.5 -59.5t63.5 -163.5q0 -63 -26 -117t-86.5 -87t-164.5 -33h-65v-254h-151v714h228zM310 590h-69v-212h50q64 0 101.5 25.5t37.5 82.5q0 104 -120 104z" />
    <glyph glyph-name="Sigma" unicode="&#x3a3;" horiz-adv-x="593" 
d="M38 0v119l230 255l-224 224v116h486v-124h-215q-28 0 -55 1t-55 4l222 -220l-233 -256q69 6 138 6h227v-125h-521z" />
    <glyph glyph-name="Tau" unicode="&#x3a4;" horiz-adv-x="579" 
d="M365 0h-151v588h-194v126h539v-126h-194v-588z" />
    <glyph glyph-name="Upsilon" unicode="&#x3a5;" horiz-adv-x="624" 
d="M312 420l149 294h163l-237 -436v-278h-150v273l-237 441h164z" />
    <glyph glyph-name="Phi" unicode="&#x3a6;" horiz-adv-x="860" 
d="M498 724v-88q116 -3 186 -40.5t100.5 -96.5t30.5 -129q0 -45 -15.5 -92t-52 -86.5t-97.5 -64.5t-152 -27v-110h-136v110q-92 2 -153.5 27t-97.5 65t-51 86.5t-15 91.5q0 70 30.5 129t100 96.5t186.5 40.5v88h136zM362 518q-98 -4 -136.5 -45t-38.5 -102
q0 -67 41.5 -108.5t133.5 -45.5v301zM498 518v-301q92 4 133.5 45.5t41.5 108.5q0 61 -38.5 102t-136.5 45z" />
    <glyph glyph-name="Chi" unicode="&#x3a7;" horiz-adv-x="667" 
d="M667 0h-173l-166 270l-166 -270h-162l237 368l-222 346h167l154 -257l151 257h163l-224 -354z" />
    <glyph glyph-name="Psi" unicode="&#x3a8;" horiz-adv-x="876" 
d="M823 714v-234q0 -88 -29.5 -147.5t-99 -89.5t-188.5 -30v-213h-136v213q-122 0 -191 30.5t-97.5 89.5t-28.5 145v236h142v-234q0 -58 19 -89.5t57.5 -43.5t98.5 -12v379h136v-379q54 0 93 11.5t60.5 42.5t21.5 89v236h142z" />
    <glyph glyph-name="uni03A9" unicode="&#x3a9;" horiz-adv-x="786" 
d="M393 599q-85 0 -134.5 -52.5t-49.5 -152.5q0 -86 28 -152t102 -106v-136h-312v127h181q-70 43 -112.5 121t-42.5 178q0 90 41.5 157.5t117.5 104.5t181 37t181 -37t117.5 -104.5t41.5 -158.5q0 -101 -42.5 -178t-114.5 -120h183v-127h-314v136q75 39 103.5 106.5
t28.5 152.5q0 100 -49.5 152t-134.5 52z" />
    <glyph glyph-name="Iotadieresis" unicode="&#x3aa;" horiz-adv-x="389" 
d="M357 0h-325v86l87 40v462l-87 40v86h325v-86l-87 -40v-462l87 -40v-86zM27 854q0 34 20 50t48 16t48.5 -16t20.5 -50q0 -33 -20.5 -49t-48.5 -16t-48 16t-20 49zM224 854q0 34 20 50t49 16q28 0 48.5 -16t20.5 -50q0 -33 -20.5 -49t-48.5 -16q-29 0 -49 16t-20 49z" />
    <glyph glyph-name="Upsilondieresis" unicode="&#x3ab;" horiz-adv-x="624" 
d="M312 420l149 294h163l-237 -436v-278h-150v273l-237 441h164zM144 854q0 34 20 50t48 16t48.5 -16t20.5 -50q0 -33 -20.5 -49t-48.5 -16t-48 16t-20 49zM341 854q0 34 20 50t49 16q28 0 48.5 -16t20.5 -50q0 -33 -20.5 -49t-48.5 -16q-29 0 -49 16t-20 49z" />
    <glyph glyph-name="alphatonos" unicode="&#x3ac;" horiz-adv-x="647" 
d="M259 -10q-96 0 -155 71.5t-59 209.5q0 139 60.5 211.5t164.5 72.5q58 0 95 -20.5t62 -61.5h7q4 17 12.5 37.5t20.5 35.5h123q-11 -32 -23 -93t-12 -128v-152q0 -34 12.5 -46t28.5 -12q7 0 16 1.5t13 3.5v-117q-7 -5 -29 -9t-38 -4q-50 0 -81 18t-48 64h-10
q-23 -34 -61 -58t-99 -24zM304 109q62 0 86 37.5t26 119.5v6q0 80 -24.5 122t-89.5 42q-53 0 -79 -42.5t-26 -123.5q0 -161 107 -161zM265 606v15q7 23 15 54.5t15 63t10 57.5h138v-12q-17 -39 -40 -85t-51 -93h-87z" />
    <glyph glyph-name="epsilontonos" unicode="&#x3ad;" horiz-adv-x="555" 
d="M410 336v-103h-82q-77 0 -110 -17t-33 -50q0 -27 30 -44t101 -17q61 0 113.5 13t87.5 29v-119q-37 -17 -91 -27.5t-121 -10.5q-141 0 -204 44t-63 117q0 60 36.5 90t96.5 41v5q-53 12 -78.5 44.5t-25.5 81.5q0 52 32 83.5t86 45.5t120 14q57 0 114 -11t99 -30l-46 -108
q-36 15 -74.5 27t-88.5 12q-109 0 -109 -51q0 -32 32.5 -45.5t102.5 -13.5h75zM259 606v15q7 23 15 54.5t15 63t10 57.5h138v-12q-17 -39 -40 -85t-51 -93h-87z" />
    <glyph glyph-name="etatonos" unicode="&#x3ae;" horiz-adv-x="657" 
d="M388 556q88 0 141 -47.5t53 -152.5v-596h-149v559q0 59 -21 88.5t-67 29.5q-68 0 -93 -46.5t-25 -133.5v-257h-149v546h114l20 -70h8q26 42 71.5 61t96.5 19zM285 606v15q7 23 15 54.5t15 63t10 57.5h138v-12q-17 -39 -40 -85t-51 -93h-87z" />
    <glyph glyph-name="iotatonos" unicode="&#x3af;" horiz-adv-x="407" 
d="M227 546v-375q0 -31 18 -46.5t47 -15.5q25 0 48 4.5t46 12.5v-111q-22 -11 -55.5 -18t-72.5 -7q-51 0 -91.5 16t-64.5 55t-24 110v375h149zM106 606v15q7 23 15 54.5t15 63t10 57.5h138v-12q-17 -39 -40 -85t-51 -93h-87z" />
    <glyph glyph-name="upsilondieresistonos" unicode="&#x3b0;" horiz-adv-x="645" 
d="M321 -9q-98 0 -152.5 34.5t-76.5 92.5t-22 131v297h149v-302q0 -71 25.5 -102.5t81.5 -31.5q58 0 87.5 43t29.5 147q0 64 -9.5 122t-25.5 124h150q16 -65 25 -122.5t9 -127.5q0 -158 -69 -231.5t-202 -73.5zM431 838v-10q-15 -33 -39 -72t-52 -78h-67v13q8 29 17 72
t13 75h128zM189 752q28 0 46 -16t18 -50q0 -33 -18 -49t-46 -16t-45.5 16t-17.5 49q0 34 17.5 50t45.5 16zM457 752q28 0 46 -16t18 -50q0 -33 -18 -49t-46 -16q-29 0 -46.5 16t-17.5 49q0 34 17.5 50t46.5 16z" />
    <glyph glyph-name="alpha" unicode="&#x3b1;" horiz-adv-x="647" 
d="M259 -10q-96 0 -155 71.5t-59 209.5q0 139 60.5 211.5t164.5 72.5q58 0 95 -20.5t62 -61.5h7q4 17 12.5 37.5t20.5 35.5h123q-11 -32 -23 -93t-12 -128v-152q0 -34 12.5 -46t28.5 -12q7 0 16 1.5t13 3.5v-117q-7 -5 -29 -9t-38 -4q-50 0 -81 18t-48 64h-10
q-23 -34 -61 -58t-99 -24zM304 109q62 0 86 37.5t26 119.5v6q0 80 -24.5 122t-89.5 42q-53 0 -79 -42.5t-26 -123.5q0 -161 107 -161z" />
    <glyph glyph-name="beta" unicode="&#x3b2;" horiz-adv-x="660" 
d="M339 765q71 0 127 -21.5t88 -64t32 -106.5q0 -72 -37.5 -114.5t-105.5 -53.5v-3q85 -10 133.5 -55t48.5 -136q0 -105 -65 -163t-174 -58q-97 0 -159 31v-261h-149v775q0 81 34.5 131.5t93.5 74.5t133 24zM335 649q-29 0 -54 -11t-39.5 -38.5t-14.5 -78.5v-378
q25 -16 59 -25t62 -9q62 0 92.5 30.5t30.5 84.5q0 62 -37.5 86t-89.5 24h-35v118h26q53 0 77.5 28.5t24.5 74.5q0 47 -28 70.5t-74 23.5z" />
    <glyph glyph-name="gamma" unicode="&#x3b3;" horiz-adv-x="568" 
d="M568 546l-202 -537q-16 -41 -26.5 -85.5t-16 -87t-5.5 -76.5h-158q0 28 6.5 70t17.5 88.5t25 87.5l-208 540h155l80 -241q9 -27 19.5 -63t18.5 -70t11 -51h3q2 15 8.5 44.5t16 65t20.5 67.5l80 248h155z" />
    <glyph glyph-name="delta" unicode="&#x3b4;" horiz-adv-x="619" 
d="M343 765q68 0 120 -14.5t105 -39.5l-59 -105q-45 22 -87 35.5t-85 13.5q-40 0 -56 -14.5t-16 -34.5q0 -26 33.5 -52t101.5 -60q90 -46 132 -106t42 -138q0 -134 -73 -197t-194 -63q-76 0 -135 26t-93 76t-34 122q0 69 25.5 115.5t69 74.5t97.5 44q-46 29 -81 70.5
t-35 96.5q0 73 60.5 111.5t161.5 38.5zM324 387q-27 -7 -56.5 -26.5t-49.5 -54t-20 -86.5q0 -47 29 -78.5t81 -31.5q54 0 84 33.5t30 96.5q0 52 -27 87.5t-71 59.5z" />
    <glyph glyph-name="epsilon" unicode="&#x3b5;" horiz-adv-x="555" 
d="M410 336v-103h-82q-77 0 -110 -17t-33 -50q0 -27 30 -44t101 -17q61 0 113.5 13t87.5 29v-119q-37 -17 -91 -27.5t-121 -10.5q-141 0 -204 44t-63 117q0 60 36.5 90t96.5 41v5q-53 12 -78.5 44.5t-25.5 81.5q0 52 32 83.5t86 45.5t120 14q57 0 114 -11t99 -30l-46 -108
q-36 15 -74.5 27t-88.5 12q-109 0 -109 -51q0 -32 32.5 -45.5t102.5 -13.5h75z" />
    <glyph glyph-name="zeta" unicode="&#x3b6;" horiz-adv-x="498" 
d="M493 -18q0 -44 -21 -88t-46 -79h-150q28 38 50 78.5t22 65.5q0 13 -15.5 24t-72.5 21q-100 18 -157.5 71.5t-57.5 152.5q0 85 38.5 160.5t101.5 142.5t138 128q-12 -3 -33 -5t-41.5 -2.5t-33.5 -0.5h-142v109h417v-89q-99 -82 -157.5 -148t-87.5 -119.5t-38 -95t-9 -73.5
q0 -49 17 -72.5t47.5 -34t72.5 -19.5q89 -18 123.5 -50t34.5 -77z" />
    <glyph glyph-name="eta" unicode="&#x3b7;" horiz-adv-x="657" 
d="M388 556q88 0 141 -47.5t53 -152.5v-596h-149v559q0 59 -21 88.5t-67 29.5q-68 0 -93 -46.5t-25 -133.5v-257h-149v546h114l20 -70h8q26 42 71.5 61t96.5 19z" />
    <glyph glyph-name="theta" unicode="&#x3b8;" horiz-adv-x="618" 
d="M573 378q0 -122 -26.5 -208.5t-84.5 -133t-154 -46.5q-134 0 -198.5 103t-64.5 285q0 122 26 208.5t84 132.5t153 46q134 0 199.5 -101.5t65.5 -285.5zM309 657q-56 0 -81.5 -55.5t-29.5 -165.5h222q-4 110 -30 165.5t-81 55.5zM308 98q57 0 83.5 56.5t28.5 170.5h-223
q1 -113 27 -170t84 -57z" />
    <glyph glyph-name="iota" unicode="&#x3b9;" horiz-adv-x="407" 
d="M227 546v-375q0 -31 18 -46.5t47 -15.5q25 0 48 4.5t46 12.5v-111q-22 -11 -55.5 -18t-72.5 -7q-51 0 -91.5 16t-64.5 55t-24 110v375h149z" />
    <glyph glyph-name="kappa" unicode="&#x3ba;" horiz-adv-x="620" 
d="M607 546l-215 -250l228 -296h-170l-153 208l-70 -44v-164h-149v546h149v-143q-1 -30 -1 -60t-2 -59h2q17 21 34 41.5t35 41.5l153 179h159z" />
    <glyph glyph-name="lambda" unicode="&#x3bb;" horiz-adv-x="615" 
d="M4 0l231 516l-17 45q-21 52 -45 66t-64 14q-13 0 -26.5 -2t-23.5 -4v123q13 3 38 5.5t43 2.5q64 0 104.5 -20.5t66.5 -60t46 -94.5l137 -377q22 -62 41.5 -80.5t40.5 -18.5q14 0 34 5v-115q-12 -6 -39.5 -10.5t-46.5 -4.5q-61 0 -92.5 30.5t-49.5 80.5l-47 133
q-11 32 -21 62.5t-15 52.5h-3q-8 -26 -17.5 -57t-19.5 -55l-101 -237h-154z" />
    <glyph glyph-name="uni03BC" unicode="&#x3bc;" horiz-adv-x="660" 
d="M582 546v-546h-113l-21 73h-7q-20 -41 -49.5 -62t-72.5 -21q-61 0 -94 44h-3q2 -10 3 -31.5t1.5 -45t0.5 -41.5v-156h-149v786h149v-319q0 -118 89 -118q67 0 92 46.5t25 133.5v257h149z" />
    <glyph glyph-name="nu" unicode="&#x3bd;" horiz-adv-x="595" 
d="M3 546h153l106 -303q8 -23 18 -57t16 -54h4q57 75 81.5 173.5t24.5 240.5h150q0 -108 -18.5 -200.5t-65 -177t-130.5 -168.5h-134z" />
    <glyph glyph-name="xi" unicode="&#x3be;" horiz-adv-x="498" 
d="M45 214q0 66 38.5 111.5t99.5 69.5v5q-51 12 -79 43t-28 81q0 53 34 84.5t107 48.5l-17 -1t-41 -2t-45 -2t-30 -1h-11v109h393v-103h-37q-54 0 -100.5 -13.5t-75.5 -41.5t-29 -69q0 -42 28 -64t107 -22h81v-103h-82q-85 0 -122.5 -30t-37.5 -90q0 -43 17 -64.5
t47.5 -31.5t72.5 -19q89 -18 123.5 -50t34.5 -77q0 -44 -21 -88t-46 -79h-150q28 38 50 78.5t22 65.5q0 13 -15.5 24t-72.5 21q-100 18 -157.5 69t-57.5 141z" />
    <glyph glyph-name="omicron" unicode="&#x3bf;" horiz-adv-x="619" 
d="M574 274q0 -136 -71.5 -210t-194.5 -74q-76 0 -135.5 33t-93.5 96.5t-34 154.5q0 136 71 209t195 73q77 0 136 -33t93 -96t34 -153zM197 274q0 -81 26.5 -122.5t86.5 -41.5q59 0 85.5 41.5t26.5 122.5t-26.5 121.5t-86.5 40.5q-59 0 -85.5 -40.5t-26.5 -121.5z" />
    <glyph glyph-name="pi" unicode="&#x3c0;" horiz-adv-x="739" 
d="M635 107q17 0 33 4.5t30 12.5v-107q-17 -11 -47 -19t-61 -8q-69 0 -109.5 38t-40.5 122v282h-165v-432h-149v432h-114v64l87 50h605v-114h-115v-276q0 -25 13.5 -37t32.5 -12z" />
    <glyph glyph-name="rho" unicode="&#x3c1;" horiz-adv-x="618" 
d="M573 273q0 -136 -61 -209.5t-165 -73.5q-38 0 -74 11t-63 27h-9l2 -20.5t4 -51t2 -59.5v-137h-150v514q0 134 68 208t192 74q73 0 130.5 -33.5t90.5 -96.5t33 -153zM316 436q-54 0 -80.5 -36t-26.5 -119v-129q21 -21 49.5 -31.5t57.5 -10.5q56 0 80 38t24 125t-24 125
t-80 38z" />
    <glyph glyph-name="sigma1" unicode="&#x3c2;" horiz-adv-x="498" 
d="M318 556q91 0 174 -39l-43 -113q-37 14 -70.5 23t-64.5 9q-62 0 -89.5 -48t-27.5 -143q0 -45 17 -68.5t48.5 -35t72.5 -20.5q89 -19 123.5 -52t34.5 -80q0 -45 -21 -91.5t-46 -82.5h-150q28 41 50 83.5t22 68.5q0 13 -15.5 25t-72.5 23q-100 19 -157.5 75t-57.5 151
q0 120 34 188.5t95.5 97.5t143.5 29z" />
    <glyph glyph-name="sigma" unicode="&#x3c3;" horiz-adv-x="653" 
d="M582 232q0 -68 -31 -123t-91 -87t-148 -32q-80 0 -140 31.5t-93.5 93t-33.5 151.5q0 100 37 162t106.5 90.5t164.5 28.5h280v-109h-139q36 -38 62 -88t26 -118zM198 266q0 -70 27 -113t89 -43q61 0 88 40t27 105q0 60 -16 103t-46 80h-24q-76 0 -110.5 -37.5
t-34.5 -134.5z" />
    <glyph glyph-name="tau" unicode="&#x3c4;" horiz-adv-x="538" 
d="M500 546v-112h-194v-263q0 -31 18 -46.5t47 -15.5q25 0 48 4.5t46 12.5v-111q-23 -11 -56 -18t-72 -7q-51 0 -92 16t-64.5 55t-23.5 110v263h-137v62l86 50h394z" />
    <glyph glyph-name="upsilon" unicode="&#x3c5;" horiz-adv-x="645" 
d="M321 -9q-98 0 -152.5 34.5t-76.5 92.5t-22 131v297h149v-302q0 -71 25.5 -102.5t81.5 -31.5q58 0 87.5 43t29.5 147q0 64 -9.5 122t-25.5 124h150q16 -65 25 -122.5t9 -127.5q0 -158 -69 -231.5t-202 -73.5z" />
    <glyph glyph-name="phi" unicode="&#x3c6;" horiz-adv-x="792" 
d="M157 557l108 -70q-38 -52 -59 -103t-21 -117q0 -77 38.5 -113t93.5 -47v252q0 96 55 145.5t140 49.5q109 0 172 -71t63 -194q0 -93 -41 -156t-107.5 -97t-143.5 -42v-234h-138v234q-78 8 -139.5 39t-97 89t-35.5 148q0 86 31 156t81 131zM514 446q-28 0 -43.5 -19.5
t-15.5 -66.5v-253q68 6 108.5 56t40.5 125q0 43 -8.5 79t-28 57.5t-53.5 21.5z" />
    <glyph glyph-name="chi" unicode="&#x3c7;" horiz-adv-x="592" 
d="M117 553q47 0 76 -14.5t48 -45.5t35 -80l36 -108l136 241h150l-222 -372l95 -232q14 -33 32 -45t46 -12q11 0 22 1t27 5v-116q-21 -7 -42.5 -11t-52.5 -4q-66 0 -103.5 36t-60.5 107l-51 159l-153 -302h-159l245 432l-65 172q-14 38 -32.5 51t-41.5 13q-10 0 -25 -2
t-31 -7v119q21 6 43 10.5t48 4.5z" />
    <glyph glyph-name="psi" unicode="&#x3c8;" horiz-adv-x="837" 
d="M492 759v-653q80 8 117.5 45t37.5 131q0 66 -11 130t-28 134h138q38 -137 38 -265q0 -103 -39 -165t-105 -91t-148 -34v-231h-138v231q-83 3 -147 31t-100.5 88.5t-36.5 160.5v275h142v-279q0 -85 31 -120.5t111 -41.5v654h138z" />
    <glyph glyph-name="omega" unicode="&#x3c9;" horiz-adv-x="863" 
d="M755 546q29 -72 42 -136.5t13 -144.5q0 -81 -24.5 -143t-73.5 -97t-122 -35q-64 0 -100.5 28t-55.5 75h-5q-19 -47 -55.5 -75t-100.5 -28q-73 0 -122 35t-73.5 97t-24.5 143q0 80 13.5 144.5t41.5 136.5h143q-31 -66 -46 -134t-15 -142q0 -73 22.5 -118.5t72.5 -45.5
q45 0 61.5 32t16.5 90v144h137v-144q0 -58 16.5 -90t61.5 -32q50 0 72.5 45.5t22.5 116.5q0 74 -14.5 143t-46.5 135h143z" />
    <glyph glyph-name="iotadieresis" unicode="&#x3ca;" horiz-adv-x="407" 
d="M227 546v-375q0 -31 18 -46.5t47 -15.5q25 0 48 4.5t46 12.5v-111q-22 -11 -55.5 -18t-72.5 -7q-51 0 -91.5 16t-64.5 55t-24 110v375h149zM-7 686q0 34 20 50t48 16t48.5 -16t20.5 -50q0 -33 -20.5 -49t-48.5 -16t-48 16t-20 49zM190 686q0 34 20 50t49 16
q28 0 48.5 -16t20.5 -50q0 -33 -20.5 -49t-48.5 -16q-29 0 -49 16t-20 49z" />
    <glyph glyph-name="upsilondieresis" unicode="&#x3cb;" horiz-adv-x="645" 
d="M321 -9q-98 0 -152.5 34.5t-76.5 92.5t-22 131v297h149v-302q0 -71 25.5 -102.5t81.5 -31.5q58 0 87.5 43t29.5 147q0 64 -9.5 122t-25.5 124h150q16 -65 25 -122.5t9 -127.5q0 -158 -69 -231.5t-202 -73.5zM148 686q0 34 20 50t48 16t48.5 -16t20.5 -50q0 -33 -20.5 -49
t-48.5 -16t-48 16t-20 49zM345 686q0 34 20 50t49 16q28 0 48.5 -16t20.5 -50q0 -33 -20.5 -49t-48.5 -16q-29 0 -49 16t-20 49z" />
    <glyph glyph-name="omicrontonos" unicode="&#x3cc;" horiz-adv-x="619" 
d="M574 274q0 -136 -71.5 -210t-194.5 -74q-76 0 -135.5 33t-93.5 96.5t-34 154.5q0 136 71 209t195 73q77 0 136 -33t93 -96t34 -153zM197 274q0 -81 26.5 -122.5t86.5 -41.5q59 0 85.5 41.5t26.5 122.5t-26.5 121.5t-86.5 40.5q-59 0 -85.5 -40.5t-26.5 -121.5zM255 606
v15q7 23 15 54.5t15 63t10 57.5h138v-12q-17 -39 -40 -85t-51 -93h-87z" />
    <glyph glyph-name="upsilontonos" unicode="&#x3cd;" horiz-adv-x="645" 
d="M321 -9q-98 0 -152.5 34.5t-76.5 92.5t-22 131v297h149v-302q0 -71 25.5 -102.5t81.5 -31.5q58 0 87.5 43t29.5 147q0 64 -9.5 122t-25.5 124h150q16 -65 25 -122.5t9 -127.5q0 -158 -69 -231.5t-202 -73.5zM261 606v15q7 23 15 54.5t15 63t10 57.5h138v-12
q-17 -39 -40 -85t-51 -93h-87z" />
    <glyph glyph-name="omegatonos" unicode="&#x3ce;" horiz-adv-x="863" 
d="M755 546q29 -72 42 -136.5t13 -144.5q0 -81 -24.5 -143t-73.5 -97t-122 -35q-64 0 -100.5 28t-55.5 75h-5q-19 -47 -55.5 -75t-100.5 -28q-73 0 -122 35t-73.5 97t-24.5 143q0 80 13.5 144.5t41.5 136.5h143q-31 -66 -46 -134t-15 -142q0 -73 22.5 -118.5t72.5 -45.5
q45 0 61.5 32t16.5 90v144h137v-144q0 -58 16.5 -90t61.5 -32q50 0 72.5 45.5t22.5 116.5q0 74 -14.5 143t-46.5 135h143zM381 606v15q7 23 15 54.5t15 63t10 57.5h138v-12q-17 -39 -40 -85t-51 -93h-87z" />
    <glyph glyph-name="afii10023" unicode="&#x401;" horiz-adv-x="560" 
d="M501 0h-411v714h411v-124h-260v-157h242v-124h-242v-184h260v-125zM133 854q0 34 20 50t48 16t48.5 -16t20.5 -50q0 -33 -20.5 -49t-48.5 -16t-48 16t-20 49zM330 854q0 34 20 50t49 16q28 0 48.5 -16t20.5 -50q0 -33 -20.5 -49t-48.5 -16q-29 0 -49 16t-20 49z" />
    <glyph glyph-name="afii10051" unicode="&#x402;" horiz-adv-x="805" 
d="M553 -9q-25 0 -51 4.5t-48 14.5v125q22 -10 44 -15.5t40 -5.5q16 0 30.5 4.5t23.5 20t9 50.5v62q0 43 -20.5 60.5t-66.5 17.5h-164v-329h-151v588h-179v126h544v-126h-214v-133h170q112 0 172 -50.5t60 -142.5v-63q0 -101 -50.5 -154.5t-148.5 -53.5z" />
    <glyph glyph-name="afii10052" unicode="&#x403;" horiz-adv-x="561" 
d="M541 714v-125h-300v-589h-151v714h451zM518 934v-10q-14 -14 -37 -34t-49.5 -42t-52 -41.5t-44.5 -32.5h-99v13q16 19 37.5 44.5t42 53t35.5 49.5h167z" />
    <glyph glyph-name="afii10053" unicode="&#x404;" horiz-adv-x="677" 
d="M411 598q-81 0 -134.5 -45.5t-58.5 -130.5h309v-124h-310q6 -87 55.5 -134.5t140.5 -47.5q48 0 96.5 10t105.5 28v-127q-51 -19 -100 -28t-111 -9q-119 0 -195.5 45.5t-113.5 128t-37 192.5q0 108 41.5 191t122 130t196.5 47q64 0 118 -13.5t106 -36.5l-54 -123
q-44 19 -84.5 33t-92.5 14z" />
    <glyph glyph-name="afii10054" unicode="&#x405;" horiz-adv-x="551" 
d="M511 198q0 -95 -68.5 -151.5t-194.5 -56.5q-113 0 -202 43v141q51 -22 105.5 -40.5t108.5 -18.5q56 0 79.5 21.5t23.5 54.5q0 27 -18.5 46t-49.5 35.5t-71 35.5q-25 12 -54 28.5t-55.5 41t-43.5 59.5t-17 84q0 96 65 149.5t177 53.5q56 0 106 -13t106 -37l-49 -118
q-49 20 -88 31t-80 11q-43 0 -66 -20t-23 -52q0 -38 34 -60t101 -54q55 -26 93.5 -54t59.5 -66t21 -94z" />
    <glyph glyph-name="afii10055" unicode="&#x406;" horiz-adv-x="389" 
d="M357 0h-325v86l87 40v462l-87 40v86h325v-86l-87 -40v-462l87 -40v-86z" />
    <glyph glyph-name="afii10056" unicode="&#x407;" horiz-adv-x="389" 
d="M357 0h-325v86l87 40v462l-87 40v86h325v-86l-87 -40v-462l87 -40v-86zM27 854q0 34 20 50t48 16t48.5 -16t20.5 -50q0 -33 -20.5 -49t-48.5 -16t-48 16t-20 49zM224 854q0 34 20 50t49 16q28 0 48.5 -16t20.5 -50q0 -33 -20.5 -49t-48.5 -16q-29 0 -49 16t-20 49z" />
    <glyph glyph-name="afii10057" unicode="&#x408;" horiz-adv-x="331" 
d="M15 -210q-29 0 -51 3t-38 8v126q16 -4 33.5 -7t37.5 -3q26 0 47.5 10t33.5 37.5t12 80.5v669h151v-668q0 -92 -28.5 -148.5t-79.5 -82t-118 -25.5z" />
    <glyph glyph-name="afii10058" unicode="&#x409;" horiz-adv-x="999" 
d="M80 -10q-39 0 -72 11v124q13 -5 25.5 -7.5t27.5 -2.5q29 0 44.5 30.5t31.5 114.5q6 32 17 100t24.5 159.5t25.5 194.5h418v-274h56q95 0 156 -28t90.5 -77t29.5 -112q0 -106 -68 -164.5t-216 -58.5h-199v588h-142q-6 -46 -12.5 -100t-14 -109.5t-15.5 -105t-16 -87.5
q-13 -62 -34.5 -106t-59 -67t-97.5 -23zM622 124h46q62 0 97.5 22t35.5 77q0 57 -38.5 75t-105.5 18h-35v-192z" />
    <glyph glyph-name="afii10059" unicode="&#x40a;" horiz-adv-x="1002" 
d="M90 0v714h151v-280h233v280h151v-274h56q95 0 156 -28t90.5 -77t29.5 -112q0 -106 -68 -164.5t-216 -58.5h-199v308h-233v-308h-151zM625 124h46q61 0 97 22t36 77q0 57 -38.5 75t-105.5 18h-35v-192z" />
    <glyph glyph-name="afii10060" unicode="&#x40b;" horiz-adv-x="805" 
d="M564 714v-126h-214v-133h188q101 0 157.5 -50.5t56.5 -142.5v-262h-151v251q0 43 -17 60.5t-56 17.5h-178v-329h-151v588h-179v126h544z" />
    <glyph glyph-name="afii10061" unicode="&#x40c;" horiz-adv-x="672" 
d="M672 0h-172l-259 362v-362h-151v714h151v-346l256 346h161l-260 -343zM557 934v-10q-14 -14 -37 -34t-49.5 -42t-52 -41.5t-44.5 -32.5h-99v13q16 19 37.5 44.5t42 53t35.5 49.5h167z" />
    <glyph glyph-name="afii10062" unicode="&#x40e;" horiz-adv-x="663" 
d="M663 714l-221 -505q-30 -69 -64 -118t-85.5 -75t-135.5 -26q-26 0 -57 4t-57 11v130q24 -10 52.5 -14t54.5 -4q50 0 72 24.5t35 59.5l-247 513h160l133 -309q7 -15 19 -42.5t18 -46.5h5q6 18 17.5 47t20.5 51l124 300h156zM579 949q-5 -52 -29 -91.5t-75 -61.5t-137 -22
q-88 0 -137.5 21t-70.5 60.5t-25 93.5h133q4 -55 27.5 -73t75.5 -18q43 0 70.5 19.5t32.5 71.5h135z" />
    <glyph glyph-name="afii10145" unicode="&#x40f;" horiz-adv-x="745" 
d="M655 0h-209v-208h-146v208h-210v714h151v-588h263v588h151v-714z" />
    <glyph glyph-name="afii10017" unicode="&#x410;" horiz-adv-x="690" 
d="M527 0l-52 170h-260l-52 -170h-163l252 717h185l253 -717h-163zM439 297l-52 166q-5 17 -13 43t-16 53t-13 47q-5 -20 -13.5 -49.5t-16 -56t-11.5 -37.5l-51 -166h186z" />
    <glyph glyph-name="afii10018" unicode="&#x411;" horiz-adv-x="638" 
d="M90 0v714h451v-125h-300v-149h60q101 0 165.5 -28t95.5 -77t31 -112q0 -106 -70.5 -164.5t-224.5 -58.5h-208zM241 124h51q69 0 108.5 22t39.5 77q0 57 -43 75t-117 18h-39v-192z" />
    <glyph glyph-name="afii10019" unicode="&#x412;" horiz-adv-x="672" 
d="M90 714h222q142 0 215.5 -40t73.5 -141q0 -61 -28.5 -103t-81.5 -51v-5q35 -8 64.5 -25.5t46.5 -51.5t17 -90q0 -97 -70.5 -152t-191.5 -55h-267v714zM241 431h88q66 0 91.5 20.5t25.5 61.5t-30 59t-95 18h-80v-159zM241 311v-186h99q68 0 95 26.5t27 70.5
q0 40 -27.5 64.5t-99.5 24.5h-94z" />
    <glyph glyph-name="afii10020" unicode="&#x413;" horiz-adv-x="561" 
d="M541 714v-125h-300v-589h-151v714h451z" />
    <glyph glyph-name="afii10021" unicode="&#x414;" horiz-adv-x="764" 
d="M649 714v-588h95v-334h-146v208h-447v-208h-146v334h55q38 74 71 160t59 191t43 237h416zM498 588h-145q-9 -70 -28.5 -150t-46.5 -160.5t-59 -151.5h279v462z" />
    <glyph glyph-name="afii10022" unicode="&#x415;" horiz-adv-x="560" 
d="M501 0h-411v714h411v-124h-260v-157h242v-124h-242v-184h260v-125z" />
    <glyph glyph-name="afii10024" unicode="&#x416;" horiz-adv-x="943" 
d="M254 371l-240 343h156l231 -346v346h141v-346l231 346h156l-240 -343l254 -371h-162l-239 362v-362h-141v362l-239 -362h-162z" />
    <glyph glyph-name="afii10025" unicode="&#x417;" horiz-adv-x="648" 
d="M583 547q0 -72 -51 -116t-130 -55v-3q98 -10 150.5 -54.5t52.5 -115.5q0 -94 -76.5 -153.5t-224.5 -59.5q-81 0 -143.5 10t-108.5 29v127q31 -15 70 -25.5t79 -16t74 -5.5q95 0 137.5 27.5t42.5 77.5q0 51 -62 74.5t-167 23.5h-67v118h60q85 0 132 11t66 32t19 50
q0 37 -33 58.5t-97 21.5q-56 0 -104 -16t-90 -42l-66 101q55 36 122 57t159 21q121 0 188.5 -50t67.5 -127z" />
    <glyph glyph-name="afii10026" unicode="&#x418;" horiz-adv-x="823" 
d="M90 714h136v-345q0 -25 -1 -56t-2 -60.5t-2 -51t-2 -29.5h3l330 542h181v-714h-135v343q0 27 1 59.5t2.5 62.5t3 52.5t2.5 29.5h-4l-331 -547h-182v714z" />
    <glyph glyph-name="afii10027" unicode="&#x419;" horiz-adv-x="823" 
d="M90 714h136v-345q0 -25 -1 -56t-2 -60.5t-2 -51t-2 -29.5h3l330 542h181v-714h-135v343q0 27 1 59.5t2.5 62.5t3 52.5t2.5 29.5h-4l-331 -547h-182v714zM665 949q-5 -52 -29 -91.5t-75 -61.5t-137 -22q-88 0 -137.5 21t-70.5 60.5t-25 93.5h133q4 -55 27.5 -73t75.5 -18
q43 0 70.5 19.5t32.5 71.5h135z" />
    <glyph glyph-name="afii10028" unicode="&#x41a;" horiz-adv-x="672" 
d="M672 0h-172l-259 362v-362h-151v714h151v-346l256 346h161l-260 -343z" />
    <glyph glyph-name="afii10029" unicode="&#x41b;" horiz-adv-x="745" 
d="M655 0h-151v588h-175q-6 -46 -12.5 -100t-14 -109.5t-15.5 -105t-16 -87.5q-13 -62 -34.5 -106t-59 -67t-97.5 -23q-39 0 -72 11v124q13 -5 25.5 -7.5t27.5 -2.5q29 0 44.5 30.5t31.5 114.5q6 32 17 100t24.5 159.5t25.5 194.5h451v-714z" />
    <glyph glyph-name="afii10030" unicode="&#x41c;" horiz-adv-x="943" 
d="M392 0l-172 560h-4l3 -60t4 -86t2 -82v-332h-135v714h206l169 -546h3l179 546h206v-714h-141v338q0 34 1.5 78t3 83.5t2.5 59.5h-4l-184 -559h-139z" />
    <glyph glyph-name="afii10031" unicode="&#x41d;" horiz-adv-x="765" 
d="M675 0h-151v308h-283v-308h-151v714h151v-280h283v280h151v-714z" />
    <glyph glyph-name="afii10032" unicode="&#x41e;" horiz-adv-x="796" 
d="M738 358q0 -111 -36.5 -193.5t-112 -128.5t-191.5 -46t-191.5 46t-112 129t-36.5 194t36.5 193t112 127.5t192.5 45.5q116 0 191 -45.5t111.5 -128t36.5 -193.5zM217 358q0 -112 43 -176.5t138 -64.5q97 0 139 64.5t42 176.5t-42 176.5t-138 64.5t-139 -64.5t-43 -176.5z
" />
    <glyph glyph-name="afii10033" unicode="&#x41f;" horiz-adv-x="745" 
d="M90 0v714h565v-714h-151v588h-263v-588h-151z" />
    <glyph glyph-name="afii10034" unicode="&#x420;" horiz-adv-x="628" 
d="M318 714q138 0 201.5 -59.5t63.5 -163.5q0 -63 -26 -117t-86.5 -87t-164.5 -33h-65v-254h-151v714h228zM310 590h-69v-212h50q64 0 101.5 25.5t37.5 82.5q0 104 -120 104z" />
    <glyph glyph-name="afii10035" unicode="&#x421;" horiz-adv-x="637" 
d="M393 598q-87 0 -133 -65t-46 -178q0 -114 42.5 -176.5t136.5 -62.5q43 0 87 10t95 28v-127q-47 -19 -93 -28t-103 -9q-111 0 -182 45.5t-105 128t-34 192.5q0 108 39 191t113.5 130t182.5 47q53 0 106.5 -13.5t102.5 -36.5l-49 -123q-40 19 -80.5 33t-79.5 14z" />
    <glyph glyph-name="afii10036" unicode="&#x422;" horiz-adv-x="579" 
d="M365 0h-151v588h-194v126h539v-126h-194v-588z" />
    <glyph glyph-name="afii10037" unicode="&#x423;" horiz-adv-x="663" 
d="M663 714l-221 -505q-30 -69 -64 -118t-85.5 -75t-135.5 -26q-26 0 -57 4t-57 11v130q24 -10 52.5 -14t54.5 -4q50 0 72 24.5t35 59.5l-247 513h160l133 -309q7 -15 19 -42.5t18 -46.5h5q6 18 17.5 47t20.5 51l124 300h156z" />
    <glyph glyph-name="afii10038" unicode="&#x424;" horiz-adv-x="860" 
d="M498 724v-88q116 -3 186 -40.5t100.5 -96.5t30.5 -129q0 -45 -15.5 -92t-52 -86.5t-97.5 -64.5t-152 -27v-110h-136v110q-92 2 -153.5 27t-97.5 65t-51 86.5t-15 91.5q0 70 30.5 129t100 96.5t186.5 40.5v88h136zM362 518q-98 -4 -136.5 -45t-38.5 -102
q0 -67 41.5 -108.5t133.5 -45.5v301zM498 518v-301q92 4 133.5 45.5t41.5 108.5q0 61 -38.5 102t-136.5 45z" />
    <glyph glyph-name="afii10039" unicode="&#x425;" horiz-adv-x="667" 
d="M667 0h-173l-166 270l-166 -270h-162l237 368l-222 346h167l154 -257l151 257h163l-224 -354z" />
    <glyph glyph-name="afii10040" unicode="&#x426;" horiz-adv-x="781" 
d="M761 120v-328h-146v208h-525v714h151v-588h263v588h151v-594h106z" />
    <glyph glyph-name="afii10041" unicode="&#x427;" horiz-adv-x="728" 
d="M638 0h-151v276q-63 -22 -115.5 -33t-105.5 -11q-100 0 -156.5 48.5t-56.5 138.5v295h151v-252q0 -52 24 -78t81 -26q42 0 84 9t94 27v320h151v-714z" />
    <glyph glyph-name="afii10042" unicode="&#x428;" horiz-adv-x="1078" 
d="M988 0h-898v714h151v-588h222v588h152v-588h222v588h151v-714z" />
    <glyph glyph-name="afii10043" unicode="&#x429;" horiz-adv-x="1114" 
d="M1094 120v-328h-146v208h-858v714h151v-588h222v588h152v-588h222v588h151v-594h106z" />
    <glyph glyph-name="afii10044" unicode="&#x42a;" horiz-adv-x="727" 
d="M179 0v588h-179v126h330v-274h60q100 0 165 -28t96 -77t31 -112q0 -106 -70.5 -164.5t-224.5 -58.5h-208zM330 124h51q69 0 108.5 22t39.5 77q0 57 -43 75t-117 18h-39v-192z" />
    <glyph glyph-name="afii10045" unicode="&#x42b;" horiz-adv-x="906" 
d="M90 0v714h151v-274h49q99 0 162.5 -28t94.5 -77t31 -112q0 -106 -70 -164.5t-223 -58.5h-195zM665 0v714h151v-714h-151zM241 124h40q67 0 105.5 22t38.5 77q0 57 -39.5 75t-111.5 18h-33v-192z" />
    <glyph glyph-name="afii10046" unicode="&#x42c;" horiz-adv-x="638" 
d="M90 0v714h151v-274h60q101 0 165.5 -28t95.5 -77t31 -112q0 -106 -70.5 -164.5t-224.5 -58.5h-208zM241 124h51q69 0 108.5 22t39.5 77q0 57 -43 75t-117 18h-39v-192z" />
    <glyph glyph-name="afii10047" unicode="&#x42d;" horiz-adv-x="663" 
d="M270 598q-48 0 -95 -13.5t-92 -32.5l-48 122q53 23 112 36.5t126 13.5q157 0 244.5 -96.5t87.5 -271.5q0 -110 -37 -192.5t-113.5 -128t-195.5 -45.5q-61 0 -110.5 9t-100.5 28v127q57 -18 105.5 -28t96.5 -10q92 0 142 45.5t54 136.5h-310v124h309q-3 83 -50 129.5
t-125 46.5z" />
    <glyph glyph-name="afii10048" unicode="&#x42e;" horiz-adv-x="1070" 
d="M1012 358q0 -111 -34.5 -193.5t-105 -128.5t-178.5 -46q-100 0 -167.5 39.5t-104 111t-44.5 167.5h-137v-308h-151v714h151v-280h140q16 134 93 212.5t221 78.5q108 0 178.5 -45.5t104.5 -128t34 -193.5zM533 358q0 -112 39 -176.5t122 -64.5q86 0 124 64.5t38 176.5
t-38 176.5t-122 64.5q-85 0 -124 -64.5t-39 -176.5z" />
    <glyph glyph-name="afii10049" unicode="&#x42f;" horiz-adv-x="665" 
d="M330 274l-167 -274h-168l203 314q-29 12 -58 35.5t-48 63t-19 97.5q0 99 71 151.5t199 52.5h232v-714h-151v274h-94zM424 590h-75q-59 0 -91 -21t-32 -70q0 -47 31 -74.5t96 -27.5h71v193z" />
    <glyph glyph-name="afii10065" unicode="&#x430;" horiz-adv-x="604" 
d="M302 557q110 0 168.5 -47.5t58.5 -145.5v-364h-104l-29 74h-4q-35 -44 -74 -64t-107 -20q-73 0 -121 42t-48 131q0 87 61 128t183 46l95 3v24q0 43 -22.5 63t-62.5 20t-78 -11.5t-76 -28.5l-49 101q43 22 97 35.5t112 13.5zM381 253l-58 -2q-72 -2 -100 -26t-28 -63
q0 -34 20 -48.5t52 -14.5q48 0 81 28.5t33 80.5v45z" />
    <glyph glyph-name="afii10066" unicode="&#x431;" horiz-adv-x="622" 
d="M45 327q0 181 68.5 281t226.5 128q52 9 107 15.5t113 13.5l17 -130q-34 -4 -74.5 -9t-80.5 -9.5t-70 -9.5q-50 -8 -83 -24.5t-51 -52.5t-21 -104h7q12 18 33.5 37.5t53 32.5t73.5 13q98 0 155.5 -60.5t57.5 -178.5q0 -93 -34 -155.5t-94 -93.5t-139 -31q-121 0 -193 87
t-72 250zM319 111q47 0 76.5 32t29.5 114q0 65 -21.5 103.5t-74.5 38.5q-32 0 -59.5 -15.5t-46.5 -35.5t-26 -33q0 -51 11 -98t37.5 -76.5t73.5 -29.5z" />
    <glyph glyph-name="afii10067" unicode="&#x432;" horiz-adv-x="629" 
d="M562 403q0 -44 -27.5 -75t-81.5 -40v-4q57 -7 91.5 -39.5t34.5 -81.5q0 -47 -24.5 -84t-77.5 -58t-139 -21h-260v546h260q64 0 114.5 -13.5t80 -45t29.5 -84.5zM411 391q0 50 -79 50h-105v-108h88q47 0 71.5 13.5t24.5 44.5zM425 171q0 32 -25.5 46.5t-74.5 14.5h-98
v-129h101q42 0 69.5 15.5t27.5 52.5z" />
    <glyph glyph-name="afii10068" unicode="&#x433;" horiz-adv-x="478" 
d="M455 546v-112h-228v-434h-149v546h377z" />
    <glyph glyph-name="afii10069" unicode="&#x434;" horiz-adv-x="664" 
d="M569 546v-437h80v-305h-134v196h-367v-196h-134v305h46q36 55 61 125.5t40 150t22 161.5h386zM420 434h-112q-12 -91 -33 -172.5t-59 -152.5h204v325z" />
    <glyph glyph-name="afii10070" unicode="&#x435;" horiz-adv-x="591" 
d="M303 556q113 0 179 -64.5t66 -183.5v-72h-352q2 -63 37.5 -99t98.5 -36q52 0 95.5 10.5t89.5 32.5v-115q-41 -20 -85 -29.5t-107 -9.5q-82 0 -145 30.5t-99 92t-36 156.5t32.5 159t90.5 96t135 32zM304 450q-44 0 -72 -28t-33 -87h209q-1 49 -26.5 82t-77.5 33z" />
    <glyph glyph-name="afii10072" unicode="&#x436;" horiz-adv-x="873" 
d="M854 546l-201 -262l220 -284h-159l-208 277v-277h-139v277l-208 -277h-159l220 284l-201 262h154l194 -265v265h139v-265l194 265h154z" />
    <glyph glyph-name="afii10073" unicode="&#x437;" horiz-adv-x="555" 
d="M277 556q59 0 110.5 -15.5t83 -47.5t31.5 -82q0 -49 -30 -78t-79 -42v-5q35 -8 63 -22.5t44.5 -39t16.5 -65.5q0 -45 -28.5 -83.5t-88.5 -62t-152 -23.5q-136 0 -210 34v123q34 -16 83.5 -29t105.5 -13q61 0 103 14t42 49q0 65 -155 65h-58v103h55q74 0 114.5 12t40.5 45
q0 26 -26 39.5t-85 13.5q-39 0 -85.5 -9t-86.5 -26l-44 104q47 18 102.5 29.5t132.5 11.5z" />
    <glyph glyph-name="afii10074" unicode="&#x438;" horiz-adv-x="720" 
d="M222 546v-216q0 -17 -1.5 -42t-3 -51t-3.5 -46.5t-3 -27.5l252 383h179v-546h-144v218q0 26 2 59t4.5 61.5t3.5 43.5l-251 -382h-179v546h144z" />
    <glyph glyph-name="afii10075" unicode="&#x439;" horiz-adv-x="720" 
d="M222 546v-216q0 -17 -1.5 -42t-3 -51t-3.5 -46.5t-3 -27.5l252 383h179v-546h-144v218q0 26 2 59t4.5 61.5t3.5 43.5l-251 -382h-179v546h144zM601 781q-5 -52 -29 -91.5t-75 -61.5t-137 -22q-88 0 -137.5 21t-70.5 60.5t-25 93.5h133q4 -55 27.5 -73t75.5 -18
q43 0 70.5 19.5t32.5 71.5h135z" />
    <glyph glyph-name="afii10076" unicode="&#x43a;" horiz-adv-x="619" 
d="M436 546h164l-216 -262l235 -284h-169l-223 277v-277h-149v546h149v-265z" />
    <glyph glyph-name="afii10077" unicode="&#x43b;" horiz-adv-x="645" 
d="M567 0h-149v434h-137q-13 -160 -34.5 -257.5t-60 -142t-101.5 -44.5q-52 0 -85 16v119q23 -10 48 -10q18 0 33 18t28.5 65t24.5 131.5t20 216.5h413v-546z" />
    <glyph glyph-name="afii10078" unicode="&#x43c;" horiz-adv-x="844" 
d="M766 546v-546h-139v268q0 40 1.5 78t4.5 70h-3l-151 -416h-112l-153 417h-4q4 -33 5.5 -70.5t1.5 -82.5v-264h-139v546h211l136 -370l138 370h203z" />
    <glyph glyph-name="afii10079" unicode="&#x43d;" horiz-adv-x="662" 
d="M227 546v-210h208v210h149v-546h-149v225h-208v-225h-149v546h149z" />
    <glyph glyph-name="afii10080" unicode="&#x43e;" horiz-adv-x="619" 
d="M574 274q0 -136 -71.5 -210t-194.5 -74q-76 0 -135.5 33t-93.5 96.5t-34 154.5q0 136 71 209t195 73q77 0 136 -33t93 -96t34 -153zM197 274q0 -81 26.5 -122.5t86.5 -41.5q59 0 85.5 41.5t26.5 122.5t-26.5 121.5t-86.5 40.5q-59 0 -85.5 -40.5t-26.5 -121.5z" />
    <glyph glyph-name="afii10081" unicode="&#x43f;" horiz-adv-x="652" 
d="M574 546v-546h-149v434h-198v-434h-149v546h496z" />
    <glyph glyph-name="afii10082" unicode="&#x440;" horiz-adv-x="633" 
d="M382 556q92 0 149 -71.5t57 -210.5q0 -140 -59 -212t-151 -72q-59 0 -94 21.5t-57 48.5h-8q8 -42 8 -80v-220h-149v786h121l21 -71h7q22 33 59 57t96 24zM334 437q-58 0 -82 -36.5t-25 -109.5v-16q0 -79 23.5 -121.5t85.5 -42.5q51 0 75.5 42.5t24.5 122.5
q0 161 -102 161z" />
    <glyph glyph-name="afii10083" unicode="&#x441;" horiz-adv-x="514" 
d="M300 -10q-122 0 -188.5 67t-66.5 213q0 100 34 163t94.5 93t139.5 30q56 0 97.5 -11t72.5 -26l-44 -115q-35 14 -65.5 23t-60.5 9q-116 0 -116 -165q0 -82 30.5 -121t85.5 -39q47 0 83 12.5t70 34.5v-127q-34 -22 -71.5 -31.5t-94.5 -9.5z" />
    <glyph glyph-name="afii10084" unicode="&#x442;" horiz-adv-x="553" 
d="M530 434h-179v-434h-149v434h-179v112h507v-112z" />
    <glyph glyph-name="afii10085" unicode="&#x443;" horiz-adv-x="569" 
d="M0 546h163l103 -307q8 -23 12 -46t6 -49h3q3 26 8 49t13 46l101 307h160l-231 -616q-32 -85 -91 -127.5t-137 -42.5q-26 0 -44 2.5t-32 5.5v118q10 -2 26 -4t33 -2q47 0 74 28.5t41 68.5l9 27z" />
    <glyph glyph-name="afii10086" unicode="&#x444;" horiz-adv-x="814" 
d="M477 760v-211q142 -12 217 -86.5t75 -189.5t-73 -190t-219 -87v-236h-138v236q-141 13 -217.5 88t-76.5 189q0 117 71.5 191.5t222.5 84.5v211h138zM339 437q-65 -9 -103 -54t-38 -110q0 -67 37 -111.5t104 -52.5v328zM477 435v-326q67 8 103 52.5t36 111.5
q0 65 -37 109.5t-102 52.5z" />
    <glyph glyph-name="afii10087" unicode="&#x445;" horiz-adv-x="578" 
d="M190 279l-176 267h169l106 -174l107 174h169l-178 -267l186 -279h-169l-115 187l-115 -187h-169z" />
    <glyph glyph-name="afii10088" unicode="&#x446;" horiz-adv-x="688" 
d="M674 -196h-134v196h-462v546h149v-434h218v434h149v-437h80v-305z" />
    <glyph glyph-name="afii10089" unicode="&#x447;" horiz-adv-x="656" 
d="M209 546v-200q0 -71 66 -71q43 0 80 9.5t74 25.5v236h149v-546h-149v217q-35 -19 -80 -34.5t-102 -15.5q-85 0 -136 43.5t-51 132.5v203h149z" />
    <glyph glyph-name="afii10090" unicode="&#x448;" horiz-adv-x="969" 
d="M891 546v-546h-813v546h149v-434h183v434h149v-434h183v434h149z" />
    <glyph glyph-name="afii10091" unicode="&#x449;" horiz-adv-x="985" 
d="M891 546v-437h80v-305h-134v196h-759v546h149v-434h183v434h149v-434h183v434h149z" />
    <glyph glyph-name="afii10092" unicode="&#x44a;" horiz-adv-x="710" 
d="M323 546v-211h105q126 0 186.5 -40t60.5 -121q0 -80 -56 -127t-185 -47h-260v434h-174v112h323zM425 232h-102v-129h104q43 0 71 15.5t28 53.5q0 60 -101 60z" />
    <glyph glyph-name="afii10093" unicode="&#x44b;" horiz-adv-x="850" 
d="M78 0v546h149v-211h72q125 0 185 -40t60 -121q0 -80 -56 -127t-184 -47h-226zM623 0v546h149v-546h-149zM227 103h69q44 0 71.5 15.5t27.5 53.5q0 60 -101 60h-67v-129z" />
    <glyph glyph-name="afii10094" unicode="&#x44c;" horiz-adv-x="614" 
d="M227 335h105q126 0 186.5 -40t60.5 -121q0 -80 -56 -127t-185 -47h-260v546h149v-211zM430 172q0 60 -101 60h-102v-129h104q43 0 71 15.5t28 53.5z" />
    <glyph glyph-name="afii10095" unicode="&#x44d;" horiz-adv-x="512" 
d="M204 -10q-52 0 -92.5 8t-75.5 26v116q36 -16 76 -27.5t84 -11.5q51 0 81.5 29t35.5 96h-206v99h206q-7 121 -105 121q-35 0 -67.5 -9.5t-59.5 -21.5l-42 102q31 14 77 26.5t98 12.5q72 0 129 -25t90.5 -85t33.5 -167q0 -148 -69 -218.5t-194 -70.5z" />
    <glyph glyph-name="afii10096" unicode="&#x44e;" horiz-adv-x="877" 
d="M832 274q0 -136 -69 -210t-187 -74q-101 0 -169 57.5t-82 177.5h-98v-225h-149v546h149v-210h100q15 106 82 163t170 57q73 0 130.5 -33t90 -96t32.5 -153zM475 274q0 -81 24 -122.5t79 -41.5q54 0 78 41.5t24 122.5t-24 121.5t-79 40.5q-54 0 -78 -40.5t-24 -121.5z" />
    <glyph glyph-name="afii10097" unicode="&#x44f;" horiz-adv-x="593" 
d="M161 0h-161l147 216q-42 17 -74.5 55.5t-32.5 105.5q0 82 62 125.5t159 43.5h254v-546h-149v203h-82zM186 376q0 -34 27 -53.5t70 -19.5h83v138h-102q-40 0 -59 -19.5t-19 -45.5z" />
    <glyph glyph-name="afii10071" unicode="&#x451;" horiz-adv-x="591" 
d="M303 556q113 0 179 -64.5t66 -183.5v-72h-352q2 -63 37.5 -99t98.5 -36q52 0 95.5 10.5t89.5 32.5v-115q-41 -20 -85 -29.5t-107 -9.5q-82 0 -145 30.5t-99 92t-36 156.5t32.5 159t90.5 96t135 32zM304 450q-44 0 -72 -28t-33 -87h209q-1 49 -26.5 82t-77.5 33zM128 686
q0 34 20 50t48 16t48.5 -16t20.5 -50q0 -33 -20.5 -49t-48.5 -16t-48 16t-20 49zM325 686q0 34 20 50t49 16q28 0 48.5 -16t20.5 -50q0 -33 -20.5 -49t-48.5 -16q-29 0 -49 16t-20 49z" />
    <glyph glyph-name="afii10099" unicode="&#x452;" horiz-adv-x="657" 
d="M405 -240q-23 0 -48 3.5t-42 8.5v117q15 -5 28 -7t30 -2q25 0 42.5 17t17.5 66v337q0 53 -23 80t-65 27q-67 0 -92.5 -46.5t-25.5 -133.5v-227h-149v584h-76v97h76v79h149v-79h154v-97h-154v-9q0 -41 -2.5 -77.5t-4.5 -51.5h9q26 42 66.5 61t91.5 19q89 0 142 -47.5
t53 -152.5v-385q0 -50 -17.5 -91t-56.5 -65.5t-103 -24.5z" />
    <glyph glyph-name="afii10100" unicode="&#x453;" horiz-adv-x="478" 
d="M455 546v-112h-228v-434h-149v546h377zM466 766v-10q-14 -14 -37 -34t-49.5 -42t-52 -41.5t-44.5 -32.5h-99v13q16 19 37.5 44.5t42 53t35.5 49.5h167z" />
    <glyph glyph-name="afii10101" unicode="&#x454;" horiz-adv-x="524" 
d="M319 -10q-126 0 -200 66t-74 214q0 109 34 171.5t95.5 88.5t143.5 26q91 0 174 -36l-43 -106q-37 14 -70.5 23t-64.5 9q-100 0 -115 -121h206v-99h-206q13 -125 111 -125q48 0 87 11t79 28v-114q-35 -18 -72.5 -27t-84.5 -9z" />
    <glyph glyph-name="afii10102" unicode="&#x455;" horiz-adv-x="497" 
d="M459 162q0 -83 -58.5 -127.5t-174.5 -44.5q-57 0 -98 7.5t-82 24.5v123q44 -20 95 -33t90 -13q43 0 62 13t19 34q0 14 -7.5 25t-32.5 25t-78 36q-52 22 -84.5 43.5t-48.5 52t-16 76.5q0 76 59 114t157 38q51 0 97 -10t95 -33l-45 -107q-40 17 -76 28.5t-73 11.5
q-66 0 -66 -36q0 -13 8.5 -23.5t33 -22.5t72.5 -32q47 -19 81 -39.5t52.5 -51.5t18.5 -79z" />
    <glyph glyph-name="afii10103" unicode="&#x456;" horiz-adv-x="305" 
d="M153 760q33 0 57 -15.5t24 -57.5q0 -41 -24 -57t-57 -16q-34 0 -57.5 16t-23.5 57q0 42 23.5 57.5t57.5 15.5zM227 546v-546h-149v546h149z" />
    <glyph glyph-name="afii10104" unicode="&#x457;" horiz-adv-x="305" 
d="M227 0h-149v546h149v-546zM-15 686q0 34 20 50t48 16t48.5 -16t20.5 -50q0 -33 -20.5 -49t-48.5 -16t-48 16t-20 49zM182 686q0 34 20 50t49 16q28 0 48.5 -16t20.5 -50q0 -33 -20.5 -49t-48.5 -16q-29 0 -49 16t-20 49z" />
    <glyph glyph-name="afii10105" unicode="&#x458;" horiz-adv-x="305" 
d="M72 687q0 42 23.5 57.5t57.5 15.5q33 0 57 -15.5t24 -57.5q0 -41 -24 -57t-57 -16q-34 0 -57.5 16t-23.5 57zM34 -240q-26 0 -53 3.5t-45 8.5v117q18 -5 34 -7t36 -2q30 0 51 17t21 66v583h149v-605q0 -50 -19 -91t-61.5 -65.5t-112.5 -24.5z" />
    <glyph glyph-name="afii10106" unicode="&#x459;" horiz-adv-x="888" 
d="M546 546v-211h69q121 0 179.5 -40t58.5 -121q0 -80 -54.5 -127t-180.5 -47h-221v434h-116q-13 -160 -34.5 -257.5t-60 -142t-101.5 -44.5q-52 0 -85 16v119q23 -10 48 -10q18 0 33 18t28.5 65t24.5 131.5t20 216.5h392zM609 232h-63v-129h65q41 0 67 15.5t26 53.5
q0 60 -95 60z" />
    <glyph glyph-name="afii10107" unicode="&#x45a;" horiz-adv-x="888" 
d="M546 546v-211h69q121 0 179.5 -40t58.5 -121q0 -80 -54.5 -127t-180.5 -47h-221v225h-170v-225h-149v546h149v-210h170v210h149zM609 232h-63v-129h65q41 0 67 15.5t26 53.5q0 60 -95 60z" />
    <glyph glyph-name="afii10108" unicode="&#x45b;" horiz-adv-x="657" 
d="M227 760v-79h154v-97h-154v-9q0 -41 -2.5 -77.5t-4.5 -51.5h9q26 42 66.5 61t91.5 19q89 0 142 -47.5t53 -152.5v-326h-149v289q0 118 -88 118q-67 0 -92.5 -46.5t-25.5 -133.5v-227h-149v584h-76v97h76v79h149z" />
    <glyph glyph-name="afii10109" unicode="&#x45c;" horiz-adv-x="619" 
d="M436 546h164l-216 -262l235 -284h-169l-223 277v-277h-149v546h149v-265zM521 766v-10q-14 -14 -37 -34t-49.5 -42t-52 -41.5t-44.5 -32.5h-99v13q16 19 37.5 44.5t42 53t35.5 49.5h167z" />
    <glyph glyph-name="afii10110" unicode="&#x45e;" horiz-adv-x="569" 
d="M0 546h163l103 -307q8 -23 12 -46t6 -49h3q3 26 8 49t13 46l101 307h160l-231 -616q-32 -85 -91 -127.5t-137 -42.5q-26 0 -44 2.5t-32 5.5v118q10 -2 26 -4t33 -2q47 0 74 28.5t41 68.5l9 27zM526 781q-5 -52 -29 -91.5t-75 -61.5t-137 -22q-88 0 -137.5 21t-70.5 60.5
t-25 93.5h133q4 -55 27.5 -73t75.5 -18q43 0 70.5 19.5t32.5 71.5h135z" />
    <glyph glyph-name="afii10193" unicode="&#x45f;" horiz-adv-x="672" 
d="M269 0h-191v546h149v-434h218v434h149v-546h-191v-196h-134v196z" />
    <glyph glyph-name="afii10050" unicode="&#x490;" horiz-adv-x="581" 
d="M561 865v-276h-320v-589h-151v714h340v151h131z" />
    <glyph glyph-name="afii10098" unicode="&#x491;" horiz-adv-x="512" 
d="M476 695v-261h-249v-434h-149v546h264v149h134z" />
    <glyph glyph-name="Wgrave" unicode="&#x1e80;" horiz-adv-x="967" 
d="M967 714l-182 -714h-172l-97 375q-3 11 -7.5 33t-10 48t-10 49t-5.5 37q-1 -14 -5.5 -37t-9.5 -48.5t-10 -48t-8 -34.5l-96 -374h-172l-182 714h149l91 -390q6 -23 13 -58t13 -70t9 -59q3 25 9 59.5t12.5 67t11.5 50.5l104 400h143l104 -400q5 -18 11.5 -50.5t12.5 -67.5
t9 -59q3 25 9 59.5t13.5 69t12.5 58.5l91 390h149zM460 934q15 -22 35.5 -49.5t42 -53t37.5 -44.5v-13h-99q-19 13 -44.5 32.5t-52 41.5t-49.5 42t-37 34v10h167z" />
    <glyph glyph-name="wgrave" unicode="&#x1e81;" horiz-adv-x="856" 
d="M527 0l-42 191q-4 17 -11.5 50.5t-16.5 72t-17 71t-11 47.5h-4q-3 -15 -10.5 -47.5t-16.5 -71t-17 -72.5t-12 -52l-44 -189h-160l-155 546h148l63 -242q7 -26 12.5 -60.5t10 -67t7.5 -51.5h4q1 14 4 37.5t7.5 48.5t8 45t5.5 28l67 262h164l64 -262q3 -14 9 -45t10 -63
t5 -51h4q2 17 7 49.5t11.5 68t13.5 61.5l65 242h146l-157 -546h-162zM404 766q15 -22 35.5 -49.5t42 -53t37.5 -44.5v-13h-99q-19 13 -44.5 32.5t-52 41.5t-49.5 42t-37 34v10h167z" />
    <glyph glyph-name="Wacute" unicode="&#x1e82;" horiz-adv-x="967" 
d="M967 714l-182 -714h-172l-97 375q-3 11 -7.5 33t-10 48t-10 49t-5.5 37q-1 -14 -5.5 -37t-9.5 -48.5t-10 -48t-8 -34.5l-96 -374h-172l-182 714h149l91 -390q6 -23 13 -58t13 -70t9 -59q3 25 9 59.5t12.5 67t11.5 50.5l104 400h143l104 -400q5 -18 11.5 -50.5t12.5 -67.5
t9 -59q3 25 9 59.5t13.5 69t12.5 58.5l91 390h149zM676 934v-10q-14 -14 -37 -34t-49.5 -42t-52 -41.5t-44.5 -32.5h-99v13q16 19 37.5 44.5t42 53t35.5 49.5h167z" />
    <glyph glyph-name="wacute" unicode="&#x1e83;" horiz-adv-x="856" 
d="M527 0l-42 191q-4 17 -11.5 50.5t-16.5 72t-17 71t-11 47.5h-4q-3 -15 -10.5 -47.5t-16.5 -71t-17 -72.5t-12 -52l-44 -189h-160l-155 546h148l63 -242q7 -26 12.5 -60.5t10 -67t7.5 -51.5h4q1 14 4 37.5t7.5 48.5t8 45t5.5 28l67 262h164l64 -262q3 -14 9 -45t10 -63
t5 -51h4q2 17 7 49.5t11.5 68t13.5 61.5l65 242h146l-157 -546h-162zM620 766v-10q-14 -14 -37 -34t-49.5 -42t-52 -41.5t-44.5 -32.5h-99v13q16 19 37.5 44.5t42 53t35.5 49.5h167z" />
    <glyph glyph-name="Wdieresis" unicode="&#x1e84;" horiz-adv-x="967" 
d="M967 714l-182 -714h-172l-97 375q-3 11 -7.5 33t-10 48t-10 49t-5.5 37q-1 -14 -5.5 -37t-9.5 -48.5t-10 -48t-8 -34.5l-96 -374h-172l-182 714h149l91 -390q6 -23 13 -58t13 -70t9 -59q3 25 9 59.5t12.5 67t11.5 50.5l104 400h143l104 -400q5 -18 11.5 -50.5t12.5 -67.5
t9 -59q3 25 9 59.5t13.5 69t12.5 58.5l91 390h149zM316 854q0 34 20 50t48 16t48.5 -16t20.5 -50q0 -33 -20.5 -49t-48.5 -16t-48 16t-20 49zM513 854q0 34 20 50t49 16q28 0 48.5 -16t20.5 -50q0 -33 -20.5 -49t-48.5 -16q-29 0 -49 16t-20 49z" />
    <glyph glyph-name="wdieresis" unicode="&#x1e85;" horiz-adv-x="856" 
d="M527 0l-42 191q-4 17 -11.5 50.5t-16.5 72t-17 71t-11 47.5h-4q-3 -15 -10.5 -47.5t-16.5 -71t-17 -72.5t-12 -52l-44 -189h-160l-155 546h148l63 -242q7 -26 12.5 -60.5t10 -67t7.5 -51.5h4q1 14 4 37.5t7.5 48.5t8 45t5.5 28l67 262h164l64 -262q3 -14 9 -45t10 -63
t5 -51h4q2 17 7 49.5t11.5 68t13.5 61.5l65 242h146l-157 -546h-162zM260 686q0 34 20 50t48 16t48.5 -16t20.5 -50q0 -33 -20.5 -49t-48.5 -16t-48 16t-20 49zM457 686q0 34 20 50t49 16q28 0 48.5 -16t20.5 -50q0 -33 -20.5 -49t-48.5 -16q-29 0 -49 16t-20 49z" />
    <glyph glyph-name="Ygrave" unicode="&#x1ef2;" horiz-adv-x="624" 
d="M312 420l149 294h163l-237 -436v-278h-150v273l-237 441h164zM288 934q15 -22 35.5 -49.5t42 -53t37.5 -44.5v-13h-99q-19 13 -44.5 32.5t-52 41.5t-49.5 42t-37 34v10h167z" />
    <glyph glyph-name="ygrave" unicode="&#x1ef3;" horiz-adv-x="569" 
d="M0 546h163l103 -307q8 -23 12 -46t6 -49h3q3 26 8 49t13 46l101 307h160l-231 -616q-32 -85 -91 -127.5t-137 -42.5q-26 0 -44 2.5t-32 5.5v118q10 -2 26 -4t33 -2q47 0 74 28.5t41 68.5l9 27zM261 766q15 -22 35.5 -49.5t42 -53t37.5 -44.5v-13h-99q-19 13 -44.5 32.5
t-52 41.5t-49.5 42t-37 34v10h167z" />
    <glyph glyph-name="endash" unicode="&#x2013;" horiz-adv-x="500" 
d="M40 213v112h420v-112h-420z" />
    <glyph glyph-name="emdash" unicode="&#x2014;" horiz-adv-x="1000" 
d="M40 213v112h920v-112h-920z" />
    <glyph glyph-name="afii00208" unicode="&#x2015;" horiz-adv-x="1000" 
d="M40 213v112h920v-112h-920z" />
    <glyph glyph-name="underscoredbl" unicode="&#x2017;" horiz-adv-x="411" 
d="M413 -90h-415v68h415v-68zM413 -226h-415v68h415v-68z" />
    <glyph glyph-name="quoteleft" unicode="&#x2018;" horiz-adv-x="217" 
d="M19 469l-7 11q14 53 37.5 116t48.5 118h107q-14 -59 -27.5 -126t-21.5 -119h-137z" />
    <glyph glyph-name="quoteright" unicode="&#x2019;" horiz-adv-x="217" 
d="M198 714l7 -11q-13 -53 -37 -116t-49 -118h-107q14 59 28 126t21 119h137z" />
    <glyph glyph-name="quotesinglbase" unicode="&#x201a;" horiz-adv-x="285" 
d="M217 116l7 -11q-13 -53 -37 -116t-49 -118h-107q14 59 28 126t21 119h137z" />
    <glyph glyph-name="quotereversed" unicode="&#x201b;" horiz-adv-x="217" 
d="M156 714q8 -52 21.5 -119t27.5 -126h-107q-25 55 -48.5 118t-37.5 116l7 11h137z" />
    <glyph glyph-name="quotedblleft" unicode="&#x201c;" horiz-adv-x="445" 
d="M433 714q-14 -59 -27.5 -126t-21.5 -119h-137l-7 11q14 53 37.5 116t48.5 118h107zM205 714q-14 -59 -27.5 -126t-21.5 -119h-137l-7 11q14 53 37.5 116t48.5 118h107z" />
    <glyph glyph-name="quotedblright" unicode="&#x201d;" horiz-adv-x="445" 
d="M426 714l7 -11q-13 -53 -37 -116t-49 -118h-107q14 59 28 126t21 119h137zM198 714l7 -11q-13 -53 -37 -116t-49 -118h-107q14 59 28 126t21 119h137z" />
    <glyph glyph-name="quotedblbase" unicode="&#x201e;" horiz-adv-x="513" 
d="M445 116l7 -11q-13 -53 -37 -116t-49 -118h-107q14 59 28 126t21 119h137zM217 116l7 -11q-13 -53 -37 -116t-49 -118h-107q14 59 28 126t21 119h137z" />
    <glyph glyph-name="dagger" unicode="&#x2020;" horiz-adv-x="516" 
d="M456 453l-162 15l27 -468h-136l27 468l-152 -15v118l152 -15l-27 204h136l-27 -204l162 15v-118z" />
    <glyph glyph-name="daggerdbl" unicode="&#x2021;" horiz-adv-x="516" 
d="M299 272l162 15v-118l-162 15l27 -184h-136l27 184l-162 -15v118l162 -15l-23 112l23 104l-162 -15v118l162 -15l-27 184h136l-27 -184l162 15v-118l-162 15l23 -104z" />
    <glyph glyph-name="bullet" unicode="&#x2022;" horiz-adv-x="376" 
d="M48 365q0 84 40.5 119.5t99.5 35.5q38 0 70 -15.5t51 -49.5t19 -90q0 -83 -41 -119t-99 -36q-59 0 -99.5 36t-40.5 119z" />
    <glyph glyph-name="ellipsis" unicode="&#x2026;" horiz-adv-x="855" 
d="M57 70q0 46 25 64.5t61 18.5q35 0 60 -18.5t25 -64.5q0 -44 -25 -63.5t-60 -19.5q-36 0 -61 19.5t-25 63.5zM342 70q0 46 25 64.5t61 18.5q35 0 60 -18.5t25 -64.5q0 -44 -25 -63.5t-60 -19.5q-36 0 -61 19.5t-25 63.5zM627 70q0 46 25 64.5t61 18.5q35 0 60 -18.5
t25 -64.5q0 -44 -25 -63.5t-60 -19.5q-36 0 -61 19.5t-25 63.5z" />
    <glyph glyph-name="perthousand" unicode="&#x2030;" horiz-adv-x="1281" 
d="M199 724q84 0 127.5 -58.5t43.5 -164.5t-41 -165.5t-130 -59.5q-83 0 -125.5 59.5t-42.5 165.5t40 164.5t128 58.5zM706 714l-396 -714h-117l396 714h117zM200 622q-46 0 -46 -122q0 -123 46 -123q47 0 47 123q0 122 -47 122zM699 439q84 0 127.5 -58.5t43.5 -164.5
t-41 -165.5t-130 -59.5q-83 0 -125.5 59.5t-42.5 165.5t40 164.5t128 58.5zM1079 439q84 0 127.5 -58.5t43.5 -164.5t-41 -165.5t-130 -59.5q-83 0 -125.5 59.5t-42.5 165.5t40 164.5t128 58.5zM700 337q-46 0 -46 -122q0 -123 46 -123q47 0 47 123q0 122 -47 122zM1080 337
q-46 0 -46 -122q0 -123 46 -123q47 0 47 123q0 122 -47 122z" />
    <glyph glyph-name="minute" unicode="&#x2032;" horiz-adv-x="303" 
d="M175 714h136l-169 -258h-96z" />
    <glyph glyph-name="second" unicode="&#x2033;" horiz-adv-x="524" 
d="M267 456l129 258h136l-169 -258h-96zM46 456l129 258h136l-169 -258h-96z" />
    <glyph glyph-name="guilsinglleft" unicode="&#x2039;" horiz-adv-x="368" 
d="M40 280l181 222l107 -58l-136 -170l136 -170l-107 -58l-181 221v13z" />
    <glyph glyph-name="guilsinglright" unicode="&#x203a;" horiz-adv-x="368" 
d="M147 502l181 -222v-13l-181 -221l-107 58l136 170l-136 170z" />
    <glyph glyph-name="exclamdbl" unicode="&#x203c;" horiz-adv-x="570" 
d="M203 237h-119l-25 477h169zM57 70q0 46 25 64.5t61 18.5q35 0 60 -18.5t25 -64.5q0 -44 -25 -63.5t-60 -19.5q-36 0 -61 19.5t-25 63.5zM488 237h-119l-25 477h169zM342 70q0 46 25 64.5t61 18.5q35 0 60 -18.5t25 -64.5q0 -44 -25 -63.5t-60 -19.5q-36 0 -61 19.5
t-25 63.5z" />
    <glyph glyph-name="fraction" unicode="&#x2044;" horiz-adv-x="130" 
d="M321 714l-396 -714h-117l396 714h117z" />
    <glyph glyph-name="nsuperior" unicode="&#x207f;" horiz-adv-x="427" 
d="M252.209 505.779q57.2031 0 91.6543 -28.499t34.4512 -91.4961v-213.591h-96.8535v191.392q0 35.3984 -13.6504 53.0977q-13.6514 17.7002 -43.5518 17.7002q-44.2021 0 -60.4521 -27.8994q-16.251 -27.8984 -16.251 -80.0967v-154.193h-96.8535v327.586h74.1025
l13 -41.998h5.20117q16.9004 25.1992 46.4766 36.5986t62.7266 11.3994z" />
    <glyph glyph-name="franc" unicode="&#x20a3;" horiz-adv-x="572" 
d="M90 0v128h-73v87h73v499h429v-124h-280v-164h262v-124h-262v-87h154v-87h-154v-128h-149z" />
    <glyph glyph-name="afii08941" unicode="&#x20a4;" horiz-adv-x="572" 
d="M344 724q57 0 103 -12t85 -28l-45 -112q-38 14 -70 22.5t-66 8.5q-35 0 -55.5 -18.5t-20.5 -65.5v-55h175v-86h-175v-56h175v-87h-176q0 -26 -16 -57t-57 -51h351v-127h-512v121q48 17 68 47.5t20 66.5h-87v87h87v56h-87v86h87v56q0 74 28 118.5t77 65t111 20.5z" />
    <glyph glyph-name="peseta" unicode="&#x20a7;" horiz-adv-x="892" 
d="M272 714q141 0 206 -59.5t65 -163.5q0 -63 -26.5 -117t-89.5 -87t-170 -33h-26v-254h-141v714h182zM272 590h-41v-212h32q67 0 102 25.5t35 82.5q0 52 -31 78t-97 26zM725 529v-116h133v-102h-133v-150q0 -29 17.5 -45.5t42.5 -16.5q23 0 41.5 4.5t37.5 12.5v-101
q-20 -11 -50 -18t-65 -7q-70 0 -111.5 36t-41.5 130v155h-71v53l82 50l43 115h75z" />
    <glyph glyph-name="Euro" unicode="&#x20ac;" horiz-adv-x="572" 
d="M392 719q50 0 91.5 -10.5t80.5 -29.5l-48 -113q-34 15 -63 23.5t-61 8.5q-59 0 -98 -34.5t-50 -99.5h197v-86h-204q0 -4 -0.5 -10.5t-0.5 -15.5v-15t1 -15h173v-87h-165q24 -119 157 -119q38 0 71.5 7.5t62.5 20.5v-125q-28 -14 -62.5 -21.5t-80.5 -7.5q-117 0 -195 63.5
t-99 181.5h-67v87h58q-2 14 -2 30v15t1 11h-57v86h65q13 80 53 137t102 87.5t140 30.5z" />
    <glyph glyph-name="afii61248" unicode="&#x2105;" horiz-adv-x="795" 
d="M205 369q-77 0 -125.5 43t-48.5 130q0 64 22.5 103t61.5 56.5t89 17.5q27 0 54.5 -6t51.5 -18l-27 -76q-22 9 -42.5 14.5t-38.5 5.5q-38 0 -54.5 -26.5t-16.5 -69.5t16.5 -68t51.5 -25q30 0 55.5 5.5t45.5 15.5v-80q-17 -10 -42 -16t-53 -6zM640 714l-396 -714h-117
l396 714h117zM764 168q0 -85 -44.5 -131.5t-120.5 -46.5q-71 0 -116.5 46.5t-45.5 131.5t44.5 131t120.5 46q69 0 115.5 -46t46.5 -131zM536 168q0 -49 15 -73.5t50 -24.5q63 0 63 98q0 97 -63 97q-35 0 -50 -24t-15 -73z" />
    <glyph glyph-name="afii61289" unicode="&#x2113;" horiz-adv-x="520" 
d="M313 93q29 0 48 24.5t22 73.5h101q-4 -95 -45 -147.5t-141 -52.5q-87 0 -138 49.5t-51 147.5v62q-19 -5 -41.5 -11t-47.5 -13v96q24 6 46.5 12.5t42.5 13.5v201q0 93 48 133.5t140 40.5q79 0 125.5 -42.5t46.5 -115.5q0 -97 -55.5 -158t-161.5 -110v-114q0 -40 14 -65
t47 -25zM341 562q0 32 -10.5 50t-33.5 18q-26 0 -35.5 -18.5t-9.5 -49.5v-160q47 20 68 63.5t21 96.5z" />
    <glyph glyph-name="afii61352" unicode="&#x2116;" horiz-adv-x="1028" 
d="M66 0v714h161l247 -508h9l-2 18.5t-4 48.5t-4 64.5t-2 65.5v311h130v-714h-160l-249 511h-7l2 -20.5t4 -52.5t4 -67t2 -64v-307h-131zM824 134q-72 0 -118.5 46.5t-46.5 131.5t45 131t122 46q70 0 117.5 -46t47.5 -131t-45.5 -131.5t-121.5 -46.5zM825 214q66 0 66 98
q0 97 -66 97q-35 0 -51 -24t-16 -73t16 -73.5t51 -24.5zM669 0v92h312v-92h-312z" />
    <glyph glyph-name="trademark" unicode="&#x2122;" horiz-adv-x="773" 
d="M325 362v352h94l94 -271l97 271h91v-352h-64v204q0 8 1 31.5t2 35.5h-4l-101 -271h-53l-96 271h-4q1 -16 2 -36t1 -26v-209h-60zM118 362v298h-101v54h266v-54h-102v-298h-63z" />
    <glyph glyph-name="uni2126" unicode="&#x2126;" horiz-adv-x="786" 
d="M393 599q-85 0 -134.5 -52.5t-49.5 -152.5q0 -86 28 -152t102 -106v-136h-312v127h181q-70 43 -112.5 121t-42.5 178q0 90 41.5 157.5t117.5 104.5t181 37t181 -37t117.5 -104.5t41.5 -158.5q0 -101 -42.5 -178t-114.5 -120h183v-127h-314v136q75 39 103.5 106.5
t28.5 152.5q0 100 -49.5 152t-134.5 52z" />
    <glyph glyph-name="estimated" unicode="&#x212e;" horiz-adv-x="619" 
d="M309 -17q-85 0 -142.5 39t-87 102t-29.5 135t23 124t60.5 86t83.5 50t92 16q73 0 132 -33.5t93 -95.5t34 -147h-404v-174q22 -23 61 -41.5t84 -18.5q73 0 116 30t77 84l35 -20q-23 -37 -52.5 -68t-71.5 -49.5t-104 -18.5zM455 301v135q-19 20 -57 39t-90 19
q-50 0 -85.5 -17t-58.5 -40v-136h291z" />
    <glyph glyph-name="oneeighth" unicode="&#x215b;" horiz-adv-x="888" 
d="M144 0l396 714h117l-396 -714h-117zM151 286v218q0 13 0.5 34t1.5 40.5t2 26.5q-6 -8 -17.5 -19.5t-19.5 -18.5l-38 -30l-53 62l147 115h93v-428h-116zM668 -10q-82 0 -125 35.5t-43 91.5q0 41 23 65t54 41q-26 19 -44 43.5t-18 61.5q0 36 20.5 60.5t55.5 37t77 12.5
q63 0 107 -27.5t44 -82.5q0 -37 -20.5 -60.5t-49.5 -40.5q33 -18 59.5 -42t26.5 -65q0 -56 -46 -93t-121 -37zM668 269q19 10 31 22t12 33q0 14 -10.5 25.5t-33.5 11.5q-21 0 -32 -11.5t-11 -25.5q0 -20 12.5 -32t31.5 -23zM666 67q28 0 43 14t15 36q0 20 -15.5 34.5
t-43.5 24.5l-6 2q-23 -10 -36 -24.5t-13 -36.5t14 -36t42 -14z" />
    <glyph glyph-name="threeeighths" unicode="&#x215c;" horiz-adv-x="888" 
d="M162 278q-71 0 -133 34v93q32 -19 64.5 -31.5t67.5 -12.5q70 0 70 52q0 20 -17 36t-64 16h-55v78h45q51 0 65.5 16.5t14.5 36.5q0 19 -12 31t-37 12q-23 0 -43.5 -9.5t-48.5 -28.5l-49 69q30 22 67 37.5t87 15.5q61 0 101 -30.5t40 -82.5q0 -34 -19.5 -58.5t-63.5 -38.5
v-6q50 -11 73.5 -39t23.5 -63q0 -59 -43 -93t-134 -34zM179 0l396 714h117l-396 -714h-117zM686 -10q-82 0 -125 35.5t-43 91.5q0 41 23 65t54 41q-26 19 -44 43.5t-18 61.5q0 36 20.5 60.5t55.5 37t77 12.5q63 0 107 -27.5t44 -82.5q0 -37 -20.5 -60.5t-49.5 -40.5
q33 -18 59.5 -42t26.5 -65q0 -56 -46 -93t-121 -37zM686 269q19 10 31 22t12 33q0 14 -10.5 25.5t-33.5 11.5q-21 0 -32 -11.5t-11 -25.5q0 -20 12.5 -32t31.5 -23zM684 67q28 0 43 14t15 36q0 20 -15.5 34.5t-43.5 24.5l-6 2q-23 -10 -36 -24.5t-13 -36.5t14 -36t42 -14z
" />
    <glyph glyph-name="fiveeighths" unicode="&#x215d;" horiz-adv-x="888" 
d="M186 0l396 714h117l-396 -714h-117zM173 278q-35 0 -68.5 6t-57.5 19v94q24 -16 57 -26t59 -10q38 0 61 14.5t23 49.5q0 62 -82 62q-12 0 -29 -2.5t-29 -6.5l-53 21l18 215h254v-90h-174l-8 -66q10 2 24.5 3t31.5 1q65 0 110 -34.5t45 -100.5q0 -71 -46.5 -110
t-135.5 -39zM695 -11q-82 0 -125 35.5t-43 91.5q0 41 23 65.5t54 40.5q-26 19 -44 43.5t-18 61.5q0 36 21 60.5t55.5 37t76.5 12.5q63 0 107 -27.5t44 -82.5q0 -37 -20.5 -61t-49.5 -40q33 -18 59.5 -42t26.5 -65q0 -56 -46 -93t-121 -37zM695 268q19 10 31 22t12 33
q0 14 -10.5 25.5t-33.5 11.5q-21 0 -32 -11.5t-11 -25.5q0 -20 12.5 -32.5t31.5 -22.5zM693 66q29 0 43.5 14t14.5 36q0 20 -15.5 34.5t-43.5 24.5l-6 2q-23 -11 -36 -25t-13 -36t14 -36t42 -14z" />
    <glyph glyph-name="seveneighths" unicode="&#x215e;" horiz-adv-x="888" 
d="M145 0l396 714h117l-396 -714h-117zM75 286l166 338h-212v90h326v-73l-157 -355h-123zM670 -10q-82 0 -125 35.5t-43 91.5q0 41 23 65t54 41q-26 19 -44 43.5t-18 61.5q0 36 20.5 60.5t55.5 37t77 12.5q63 0 107 -27.5t44 -82.5q0 -37 -20.5 -60.5t-49.5 -40.5
q33 -18 59.5 -42t26.5 -65q0 -56 -46 -93t-121 -37zM670 269q19 10 31 22t12 33q0 14 -10.5 25.5t-33.5 11.5q-21 0 -32 -11.5t-11 -25.5q0 -20 12.5 -32t31.5 -23zM668 67q28 0 43 14t15 36q0 20 -15.5 34.5t-43.5 24.5l-6 2q-23 -10 -36 -24.5t-13 -36.5t14 -36t42 -14z
" />
    <glyph glyph-name="cyrillicbreve" horiz-adv-x="577" 
d="M525 781q-5 -52 -29 -91.5t-75 -61.5t-137 -22q-88 0 -137.5 21t-70.5 60.5t-25 93.5h133q4 -55 27.5 -73t75.5 -18q43 0 70.5 19.5t32.5 71.5h135z" />
    <glyph glyph-name="caroncommaaccent" horiz-adv-x="500" 
d="M339 760v-10q-15 -33 -35 -71.5t-46 -78.5h-87v13q8 29 17 72t13 75h138z" />
    <glyph glyph-name="commaaccent" unicode="&#x326;" 
d="M84 -61v-10q-15 -33 -35 -71.5t-46 -78.5h-87v13q8 29 17 72t13 75h138z" />
    <glyph glyph-name="commaaccentrotate" horiz-adv-x="500" 
d="M331 766v-13q-8 -29 -17 -72t-13 -75h-138v10q15 33 35 71.5t46 78.5h87z" />
    <glyph glyph-name="uni2074" unicode="&#x2074;" horiz-adv-x="379" 
d="M370 490h-61v-74h-116v74h-187v75l188 282h115v-275h61v-82zM193 572v80q0 42 3 90q-5 -14 -17 -39t-21 -38l-62 -93h97z" />
    <glyph glyph-name="uni2075" unicode="&#x2075;" horiz-adv-x="379" 
d="M320 844v-90h-174l-8 -66q10 2 24.5 3t31.5 1q65 0 110 -34.5t45 -100.5q0 -71 -46.5 -110t-135.5 -39q-35 0 -68.5 6t-57.5 19v94q24 -16 57 -26t59 -10q38 0 61 14.5t23 49.5q0 62 -82 62q-12 0 -29 -2.5t-29 -6.5l-53 21l18 215h254z" />
    <glyph glyph-name="uni2077" unicode="&#x2077;" horiz-adv-x="379" 
d="M75 416l166 338h-212v90h326v-73l-157 -355h-123z" />
    <glyph glyph-name="uni2078" unicode="&#x2078;" horiz-adv-x="379" 
d="M190 854q63 0 107 -27.5t44 -82.5q0 -37 -20.5 -60.5t-49.5 -40.5q33 -18 59.5 -42t26.5 -65q0 -56 -46 -93t-121 -37q-82 0 -125 35.5t-43 91.5q0 41 23 65t54 41q-26 19 -44 43.5t-18 61.5q0 36 20.5 60.5t55.5 37t77 12.5zM189 777q-21 0 -32 -11.5t-11 -25.5
q0 -20 12.5 -32t31.5 -23q19 10 31 22t12 33q0 14 -10.5 25.5t-33.5 11.5zM181 594q-23 -10 -36 -24.5t-13 -36.5t14 -36t42 -14t43 14t15 36q0 20 -15.5 34.5t-43.5 24.5z" />
    <glyph glyph-name="uni2000" unicode="&#x2000;" horiz-adv-x="500" 
 />
    <glyph glyph-name="uni2001" unicode="&#x2001;" horiz-adv-x="1000" 
 />
    <glyph glyph-name="uni2002" unicode="&#x2002;" horiz-adv-x="500" 
 />
    <glyph glyph-name="uni2003" unicode="&#x2003;" horiz-adv-x="1000" 
 />
    <glyph glyph-name="uni2004" unicode="&#x2004;" horiz-adv-x="333" 
 />
    <glyph glyph-name="uni2005" unicode="&#x2005;" horiz-adv-x="250" 
 />
    <glyph glyph-name="uni2006" unicode="&#x2006;" horiz-adv-x="167" 
 />
    <glyph glyph-name="uni2007" unicode="&#x2007;" horiz-adv-x="572" 
 />
    <glyph glyph-name="uni2008" unicode="&#x2008;" horiz-adv-x="285" 
 />
    <glyph glyph-name="uni2009" unicode="&#x2009;" horiz-adv-x="200" 
 />
    <glyph glyph-name="uni200A" unicode="&#x200a;" horiz-adv-x="100" 
 />
    <glyph glyph-name="uni200B" unicode="&#x200b;" 
 />
    <glyph glyph-name="uniFEFF" unicode="&#xfeff;" 
 />
    <glyph glyph-name="uniFFFC" unicode="&#xfffc;" horiz-adv-x="1000" 
d="M821 687v54h148v-148h-53v94h-95zM630 687v54h133v-54h-133zM439 687v54h133v-54h-133zM248 687v54h132v-54h-132zM41 593v148h148v-54h-94v-94h-54zM969 402h-53v132h53v-132zM95 402h-54v132h54v-132zM422 307q0 -66 -31 -106.5t-97 -40.5t-97 40.5t-31 106.5
q0 67 31 107t97 40t97 -40t31 -107zM728 161q-24 0 -39 5v50q7 -2 15 -3t18 -1q18 0 30 8.5t12 33.5v196h61v-194q0 -50 -27 -72.5t-70 -22.5zM463 450h84q53 0 80.5 -16t27.5 -57q0 -24 -11.5 -40.5t-32.5 -20.5v-2q22 -4 37 -18.5t15 -48.5q0 -39 -26.5 -61t-72.5 -22
h-101v286zM228 307q0 -45 16 -70.5t50 -25.5t50 25.5t16 70.5t-16 70.5t-50 25.5t-50 -25.5t-16 -70.5zM523 337h32q23 0 31.5 8t8.5 24q0 31 -43 31h-29v-63zM95 210h-54v133h54v-133zM969 210h-53v133h53v-133zM523 289v-75h36q24 0 33 10.5t9 28.5q0 16 -9.5 26t-34.5 10
h-34zM95 19h-54v132h54v-132zM969 19h-53v132h53v-132zM41 -187v148h54v-95h94v-53h-148zM821 -187v53h95v95h53v-148h-148zM439 -187v53h133v-53h-133zM248 -187v53h132v-53h-132zM630 -187v53h133v-53h-133z" />
    <glyph glyph-name="uniFFFD" unicode="&#xfffd;" horiz-adv-x="1000" 
d="M499 760l459 -458l-459 -458l-458 458zM531 179v23q0 25 10 39.5t43 40.5q43 34 64.5 65t21.5 80q0 67 -46 104t-126 37q-42 0 -86 -14t-78 -34l40 -87q33 17 64 28t58 11q31 0 46 -14t15 -37q0 -29 -13 -46t-46 -43q-38 -30 -54 -57.5t-16 -66.5v-29h103zM415 45
q0 -35 20 -50.5t49 -15.5q27 0 47.5 15.5t20.5 50.5q0 37 -20.5 52t-47.5 15q-29 0 -49 -15t-20 -52z" />
    <glyph glyph-name="uni01F0" unicode="&#x1f0;" horiz-adv-x="305" 
d="M34 -240q-26 0 -53 3.5t-45 8.5v117q18 -5 34 -7t36 -2q30 0 51 17t21 66v583h149v-605q0 -50 -19 -91t-61.5 -65.5t-112.5 -24.5zM68 606q-14 22 -36.5 49.5t-46.5 53t-42 44.5v13h99q26 -16 56 -37.5t56 -48.5q25 27 56.5 48.5t57.5 37.5h99v-13q-18 -18 -42 -44
t-46.5 -53.5t-36.5 -49.5h-174z" />
    <glyph glyph-name="uni02BC" unicode="&#x2bc;" horiz-adv-x="217" 
d="M198 714l7 -11q-13 -53 -37 -116t-49 -118h-107q14 59 28 126t21 119h137z" />
    <glyph glyph-name="uni03D1" unicode="&#x3d1;" horiz-adv-x="732" 
d="M353 765q89 0 145.5 -36t88 -99.5t44.5 -145.5h71v-112h-63q1 -7 1 -21.5v-21.5q0 -68 -15 -129t-50 -108.5t-93.5 -74.5t-145.5 -27t-133 23.5t-63.5 60.5t-17.5 78q0 26 3 51.5t3 46.5q0 20 -7 27t-20 7q-11 0 -24 -5t-20 -9l-37 89q28 17 65.5 29.5t81.5 12.5
q43 0 68.5 -23t25.5 -66q0 -31 -3.5 -63.5t-3.5 -67.5q0 -31 21 -53t71 -22q71 0 107 56t36 177v15t-1 16q-125 2 -200 34.5t-108 83t-33 107.5q0 47 22 85.5t67.5 61.5t116.5 23zM356 653q-28 0 -45.5 -13t-17.5 -40q0 -29 18 -55t60 -43t113 -18q-10 81 -45 125t-83 44z
" />
    <glyph glyph-name="uni03D2" unicode="&#x3d2;" horiz-adv-x="631" 
d="M311 416q31 68 61 129t56 105q22 38 50.5 54t75.5 16q20 0 39 -3t35 -10v-112q-5 1 -14.5 3.5t-19.5 2.5q-15 0 -27.5 -7t-30.5 -33q-14 -21 -41 -67.5t-56 -105t-51 -117.5v-271h-150v273l-238 441h164z" />
    <glyph glyph-name="uni03D6" unicode="&#x3d6;" horiz-adv-x="999" 
d="M974 546v-112h-126q14 -45 22.5 -93.5t8.5 -95.5q0 -121 -55.5 -188t-164.5 -67q-64 0 -100.5 28t-55.5 75h-5q-19 -47 -55.5 -75t-100.5 -28q-110 0 -165 67t-55 188q0 47 9 95.5t22 93.5h-128v62l85 50h864zM711 434h-422q-14 -46 -22 -92.5t-8 -91.5
q0 -73 22.5 -108.5t72.5 -35.5q45 0 61.5 32t16.5 90v67h137v-67q0 -58 16.5 -90t61.5 -32q50 0 72.5 35.5t22.5 106.5q0 44 -8.5 92t-22.5 94z" />
    <glyph glyph-name="uni1E3E" unicode="&#x1e3e;" horiz-adv-x="943" 
d="M392 0l-172 560h-4l3 -60t4 -86t2 -82v-332h-135v714h206l169 -546h3l179 546h206v-714h-141v338q0 34 1.5 78t3 83.5t2.5 59.5h-4l-184 -559h-139zM663 934v-10q-14 -14 -37 -34t-49.5 -42t-52 -41.5t-44.5 -32.5h-99v13q16 19 37.5 44.5t42 53t35.5 49.5h167z" />
    <glyph glyph-name="uni1E3F" unicode="&#x1e3f;" horiz-adv-x="982" 
d="M719 556q93 0 140.5 -47.5t47.5 -152.5v-356h-149v319q0 118 -82 118q-59 0 -84 -42t-25 -121v-274h-149v319q0 118 -82 118q-62 0 -85.5 -46.5t-23.5 -133.5v-257h-149v546h114l20 -70h8q25 42 68.5 61t90.5 19q60 0 101.5 -19.5t64.5 -60.5h13q25 42 69.5 61t91.5 19z
M693 766v-10q-14 -14 -37 -34t-49.5 -42t-52 -41.5t-44.5 -32.5h-99v13q16 19 37.5 44.5t42 53t35.5 49.5h167z" />
    <glyph glyph-name="uni1E00" unicode="&#x1e00;" horiz-adv-x="690" 
d="M527 0l-52 170h-260l-52 -170h-163l252 717h185l253 -717h-163zM439 297l-52 166q-5 17 -13 43t-16 53t-13 47q-5 -20 -13.5 -49.5t-16 -56t-11.5 -37.5l-51 -166h186zM345 -293q-54 0 -87.5 31t-33.5 85t33.5 85t87.5 31q52 0 88 -31t36 -84q0 -55 -36 -86t-88 -31z
M345 -224q20 0 33.5 12.5t13.5 34.5t-13.5 34.5t-33.5 12.5t-33.5 -12.5t-13.5 -34.5t12 -34.5t35 -12.5z" />
    <glyph glyph-name="uni1E01" unicode="&#x1e01;" horiz-adv-x="604" 
d="M302 557q110 0 168.5 -47.5t58.5 -145.5v-364h-104l-29 74h-4q-35 -44 -74 -64t-107 -20q-73 0 -121 42t-48 131q0 87 61 128t183 46l95 3v24q0 43 -22.5 63t-62.5 20t-78 -11.5t-76 -28.5l-49 101q43 22 97 35.5t112 13.5zM381 253l-58 -2q-72 -2 -100 -26t-28 -63
q0 -34 20 -48.5t52 -14.5q48 0 81 28.5t33 80.5v45zM289 -293q-54 0 -87.5 31t-33.5 85t33.5 85t87.5 31q52 0 88 -31t36 -84q0 -55 -36 -86t-88 -31zM289 -224q20 0 33.5 12.5t13.5 34.5t-13.5 34.5t-33.5 12.5t-33.5 -12.5t-13.5 -34.5t12 -34.5t35 -12.5z" />
    <glyph glyph-name="uni02F3" unicode="&#x2f3;" horiz-adv-x="333" 
d="M164 -293q-54 0 -87.5 31t-33.5 85t33.5 85t87.5 31q52 0 88 -31t36 -84q0 -55 -36 -86t-88 -31zM164 -224q20 0 33.5 12.5t13.5 34.5t-13.5 34.5t-33.5 12.5t-33.5 -12.5t-13.5 -34.5t12 -34.5t35 -12.5z" />
    <glyph glyph-name="Ohorn" unicode="&#x1a0;" horiz-adv-x="825" 
d="M738 358q0 -111 -36.5 -193.5t-112 -128.5t-191.5 -46t-191.5 46t-112 129t-36.5 194t36.5 193t112.5 127.5t193 45.5q86 0 150.5 -26t105.5 -73q22 15 33.5 50.5t11.5 83.5h147l7 -11q-17 -82 -50.5 -132.5t-96.5 -76.5q30 -78 30 -182zM217 358q0 -112 43 -176.5
t138 -64.5q97 0 139 64.5t42 176.5t-42 176.5t-138 64.5t-139 -64.5t-43 -176.5z" />
    <glyph glyph-name="ohorn" unicode="&#x1a1;" horiz-adv-x="679" 
d="M574 274q0 -136 -71.5 -210t-194.5 -74q-76 0 -135.5 33t-93.5 96.5t-34 154.5q0 136 71 209t195 73q55 0 104 -17t83 -50q40 12 56.5 49.5t16.5 89.5h147l7 -11q-10 -49 -27.5 -90t-52.5 -71t-96 -46q12 -29 18.5 -63t6.5 -73zM197 274q0 -81 26.5 -122.5t86.5 -41.5
q59 0 85.5 41.5t26.5 122.5t-26.5 121.5t-86.5 40.5q-59 0 -85.5 -40.5t-26.5 -121.5z" />
    <glyph glyph-name="Uhorn" unicode="&#x1af;" horiz-adv-x="885" 
d="M671 714v-92q36 13 53 49.5t17 88.5h147l7 -11q-11 -54 -32.5 -99t-66 -75.5t-125.5 -42.5v-280q0 -74 -32.5 -133.5t-98.5 -94t-165 -34.5q-142 0 -216 72.5t-74 191.5v460h151v-449q0 -79 36 -113.5t107 -34.5q74 0 107.5 37.5t33.5 111.5v448h151z" />
    <glyph glyph-name="uhorn" unicode="&#x1b0;" horiz-adv-x="760" 
d="M799 628l7 -11q-11 -55 -32.5 -100t-67 -76t-127.5 -42v-399h-114l-20 70h-9q-26 -42 -71.5 -61t-95.5 -19q-88 0 -141 47.5t-53 152.5v356h149v-319q0 -59 21 -88.5t67 -29.5q68 0 93 46.5t25 133.5v257h149v-57q37 12 55 49.5t18 89.5h147z" />
    <glyph glyph-name="hook" 
d="M-172 726q0 -76 -79 -96l-5 -35h-85l-11 72q37 6 50 18.5t13 30.5q0 16 -10.5 24t-26.5 8q-20 0 -36 -3t-32 -8v82q14 5 38 8t48 3q68 0 102 -27t34 -77z" />
    <glyph glyph-name="uni0400" unicode="&#x400;" horiz-adv-x="560" 
d="M501 0h-411v714h411v-124h-260v-157h242v-124h-242v-184h260v-125zM277 934q15 -22 35.5 -49.5t42 -53t37.5 -44.5v-13h-99q-19 13 -44.5 32.5t-52 41.5t-49.5 42t-37 34v10h167z" />
    <glyph glyph-name="uni040D" unicode="&#x40d;" horiz-adv-x="823" 
d="M90 714h136v-345q0 -25 -1 -56t-2 -60.5t-2 -51t-2 -29.5h3l330 542h181v-714h-135v343q0 27 1 59.5t2.5 62.5t3 52.5t2.5 29.5h-4l-331 -547h-182v714zM400 934q15 -22 35.5 -49.5t42 -53t37.5 -44.5v-13h-99q-19 13 -44.5 32.5t-52 41.5t-49.5 42t-37 34v10h167z" />
    <glyph glyph-name="uni0450" unicode="&#x450;" horiz-adv-x="591" 
d="M303 556q113 0 179 -64.5t66 -183.5v-72h-352q2 -63 37.5 -99t98.5 -36q52 0 95.5 10.5t89.5 32.5v-115q-41 -20 -85 -29.5t-107 -9.5q-82 0 -145 30.5t-99 92t-36 156.5t32.5 159t90.5 96t135 32zM304 450q-44 0 -72 -28t-33 -87h209q-1 49 -26.5 82t-77.5 33zM272 766
q15 -22 35.5 -49.5t42 -53t37.5 -44.5v-13h-99q-19 13 -44.5 32.5t-52 41.5t-49.5 42t-37 34v10h167z" />
    <glyph glyph-name="uni045D" unicode="&#x45d;" horiz-adv-x="720" 
d="M222 546v-216q0 -17 -1.5 -42t-3 -51t-3.5 -46.5t-3 -27.5l252 383h179v-546h-144v218q0 26 2 59t4.5 61.5t3.5 43.5l-251 -382h-179v546h144zM336 766q15 -22 35.5 -49.5t42 -53t37.5 -44.5v-13h-99q-19 13 -44.5 32.5t-52 41.5t-49.5 42t-37 34v10h167z" />
    <glyph glyph-name="uni0460" unicode="&#x460;" horiz-adv-x="953" 
d="M234 0q-43 66 -81.5 150t-68 178.5t-46.5 192.5t-17 192h158q5 -116 24.5 -220.5t45.5 -191.5t53 -148h5q5 38 17 84t25 84l60 184q-10 53 -15.5 102t-7.5 107h158q4 -100 21.5 -202.5t45 -197t62.5 -169.5h6q47 109 71.5 245.5t24.5 322.5h157q0 -211 -45.5 -386.5
t-142.5 -326.5h-145q-41 64 -76.5 142t-58.5 146l-83 -288h-147z" />
    <glyph glyph-name="uni0461" unicode="&#x461;" horiz-adv-x="885" 
d="M846 546q-4 -96 -23 -183.5t-57 -175.5t-98 -187h-133q-26 48 -54.5 100t-46.5 102l-103 -202h-132q-33 51 -65 115.5t-58 136.5t-41.5 147t-15.5 147h150q4 -89 20 -168.5t37.5 -144.5t41.5 -112h4q7 25 24 54t31 58l58 114q-13 43 -19.5 96t-7.5 103h150q4 -82 17 -153
t31.5 -137t39.5 -135h4q41 84 64.5 187.5t31.5 237.5h150z" />
    <glyph glyph-name="uni0462" unicode="&#x462;" horiz-adv-x="673" 
d="M125 0v508h-125v112h125v94h151v-94h184v-112h-184v-68h60q100 0 165 -28t96 -77t31 -112q0 -106 -70.5 -164.5t-224.5 -58.5h-208zM276 124h51q69 0 108.5 22t39.5 77q0 57 -43 75t-117 18h-39v-192z" />
    <glyph glyph-name="uni0463" unicode="&#x463;" horiz-adv-x="662" 
d="M275 644v-98h175v-112h-175v-99h105q126 0 186.5 -40t60.5 -121q0 -80 -56 -127t-185 -47h-260v434h-126v112h126v98h149zM377 232h-102v-129h104q43 0 71 15.5t28 53.5q0 60 -101 60z" />
    <glyph glyph-name="uni0464" unicode="&#x464;" horiz-adv-x="950" 
d="M681 -10q-109 0 -181.5 39.5t-111 111t-46.5 167.5h-101v-308h-151v714h151v-280h105q14 87 58.5 152t118 101.5t173.5 36.5q57 0 113.5 -13.5t105.5 -36.5l-49 -123q-44 19 -88 33t-86 14q-80 0 -130.5 -42.5t-60.5 -121.5h299v-126h-300q4 -55 27 -98.5t64 -68.5
t100 -25q47 0 94 10t103 28v-127q-50 -19 -98.5 -28t-108.5 -9z" />
    <glyph glyph-name="uni0465" unicode="&#x465;" horiz-adv-x="800" 
d="M596 -10q-113 0 -180.5 57.5t-80.5 177.5h-108v-225h-149v546h149v-210h108q9 84 43.5 132t88 68t119.5 20q52 0 98 -12.5t77 -26.5l-42 -102q-27 12 -59.5 21.5t-67.5 9.5q-50 0 -75.5 -28.5t-29.5 -81.5h206v-111h-206q5 -67 35.5 -95.5t81.5 -28.5q44 0 84 11.5
t76 27.5v-116q-35 -18 -75.5 -26t-92.5 -8z" />
    <glyph glyph-name="uni0466" unicode="&#x466;" horiz-adv-x="730" 
d="M457 717l273 -717h-147l-102 308h-49v-308h-133v308h-50l-101 -308h-148l272 717h185zM365 626q-2 -10 -9.5 -31t-17 -45t-19 -46.5t-14.5 -35.5l-18 -44h153l-17 44q-5 14 -13.5 36t-17.5 46t-16.5 44.5t-10.5 31.5z" />
    <glyph glyph-name="uni0467" unicode="&#x467;" horiz-adv-x="640" 
d="M409 546l231 -546h-143l-74 206h-38v-206h-129v206h-39l-74 -206h-143l230 546h179zM320 460h-4q-5 -16 -14 -40t-17.5 -45t-11.5 -27l-18 -41h131l-18 39q-4 7 -13.5 28.5t-19.5 45.5t-15 40z" />
    <glyph glyph-name="uni0468" unicode="&#x468;" horiz-adv-x="1005" 
d="M732 717l273 -717h-147l-102 308h-49v-308h-133v308h-50l-101 -308h-148l117 308h-151v-308h-151v714h151v-280h199l107 283h185zM640 626q-2 -10 -9.5 -31t-17 -45t-19 -46.5t-14.5 -35.5l-18 -44h153l-17 44q-5 14 -13.5 36t-17.5 46t-16.5 44.5t-10.5 31.5z" />
    <glyph glyph-name="uni0469" unicode="&#x469;" horiz-adv-x="902" 
d="M671 546l231 -546h-143l-80 224h-32v-224h-129v224h-32l-81 -224h-143l95 225h-150v-225h-129v546h129v-210h196l89 210h179zM583 460h-4q-5 -16 -14.5 -40t-18 -45t-10.5 -27l-10 -23h115l-11 23q-4 8 -13.5 29t-19 44.5t-14.5 38.5z" />
    <glyph glyph-name="uni046A" unicode="&#x46a;" horiz-adv-x="804" 
d="M721 714v-68l-187 -229q64 -17 106 -63t70 -133l74 -221h-152l-60 188q-17 54 -37.5 81t-56.5 36v-305h-150v305q-38 -9 -58.5 -35.5t-37.5 -81.5l-60 -188h-152l74 221q28 87 69 133t106 63l-183 229v68h635zM526 588h-247l123 -153z" />
    <glyph glyph-name="uni046B" unicode="&#x46b;" horiz-adv-x="623" 
d="M576 546v-52l-143 -179q43 -16 73 -51t50 -95l57 -169h-126l-46 144q-13 38 -27 54t-36 21v-219h-129v220q-26 -4 -40.5 -20.5t-26.5 -55.5l-46 -144h-126l57 169q19 61 50 96t75 51l-141 178v52h525zM400 445h-175l87 -110z" />
    <glyph glyph-name="uni046C" unicode="&#x46c;" horiz-adv-x="1073" 
d="M990 714v-68l-187 -229q65 -17 106 -63t70 -133l74 -221h-152l-60 188q-17 54 -37.5 81t-56.5 36v-305h-150v305q-37 -9 -58 -35.5t-38 -81.5l-60 -188h-152l74 221q8 24 19.5 48t26.5 39h-168v-308h-151v714h151v-280h283l-169 212v68h635zM795 588h-247l123 -153z" />
    <glyph glyph-name="uni046D" unicode="&#x46d;" horiz-adv-x="880" 
d="M833 546v-52l-143 -179q44 -16 73.5 -51t49.5 -95l57 -169h-126l-46 144q-12 38 -26 54t-37 21v-219h-129v220q-26 -4 -40.5 -20.5t-26.5 -55.5l-46 -144h-126l57 169q5 16 12.5 31.5t17.5 24.5h-147v-225h-129v546h129v-210h226l-125 158v52h525zM657 445h-175l87 -110z
" />
    <glyph glyph-name="uni046E" unicode="&#x46e;" horiz-adv-x="632" 
d="M470 867q23 0 38 -3t22 -5v-74q-14 6 -43 6q-24 0 -48 -21t-44 -54q82 -16 127 -61.5t45 -107.5q0 -72 -47 -116t-120 -55v-3q90 -10 139.5 -54.5t49.5 -115.5q0 -94 -79 -153.5t-230 -59.5q-49 0 -73 -5t-32 -15t-8 -27q0 -19 15.5 -31t55.5 -12q56 0 94 2.5t75 2.5
t56.5 -5.5t26.5 -14.5v-112q-10 10 -33.5 15t-44.5 5q-33 0 -88.5 -2t-116.5 -2q-95 0 -141 45.5t-46 110.5q0 48 21 84t73 56.5t146 23.5q94 2 136.5 25.5t42.5 79.5q0 51 -62 74.5t-167 23.5h-67v118h60q85 0 132 11t66 32t19 50q0 37 -33 58.5t-97 21.5q-56 0 -104 -16
t-90 -42l-66 101q40 26 85 45t103 27q-25 31 -57.5 66t-53.5 56v13h102q23 -17 50 -43t52 -52q19 23 41 48.5t51 43t67 17.5z" />
    <glyph glyph-name="uni046F" unicode="&#x46f;" horiz-adv-x="555" 
d="M435 674q23 0 38 -3t22 -5v-74q-6 2 -18 4t-25 2q-20 0 -40 -14.5t-37 -39.5q54 -14 90.5 -47t36.5 -86q0 -49 -28 -78t-74 -42v-5q32 -8 59 -22.5t42.5 -39t15.5 -65.5q0 -45 -26 -83.5t-86.5 -62t-162.5 -23.5q-42 0 -63.5 -5.5t-29 -15.5t-7.5 -23q0 -26 18 -36
t62 -10q36 0 58.5 1t41 2.5t42.5 1.5q36 0 55 -5.5t26 -14.5v-112q-10 10 -33 15t-43 5q-33 0 -77 -2t-104 -2q-93 0 -133 41t-40 109q0 51 21 88t71 57.5t136 20.5q66 0 97.5 16.5t31.5 46.5q0 65 -155 65h-58v103h55q74 0 114.5 12t40.5 45q0 26 -26 39.5t-85 13.5
q-39 0 -85.5 -9t-86.5 -26l-44 104q28 11 58.5 19.5t65.5 13.5q-21 26 -45.5 53t-42.5 46v13h96q22 -16 48 -41t54 -54q18 23 40.5 48.5t51.5 43t67 17.5z" />
    <glyph glyph-name="uni0470" unicode="&#x470;" horiz-adv-x="876" 
d="M823 714v-234q0 -88 -29.5 -147.5t-99 -89.5t-188.5 -30v-213h-136v213q-122 0 -191 30.5t-97.5 89.5t-28.5 145v236h142v-234q0 -58 19 -89.5t57.5 -43.5t98.5 -12v379h136v-379q54 0 93 11.5t60.5 42.5t21.5 89v236h142z" />
    <glyph glyph-name="uni0471" unicode="&#x471;" horiz-adv-x="837" 
d="M492 759v-653q80 8 117.5 45t37.5 131q0 66 -11 130t-28 134h138q38 -137 38 -265q0 -103 -39 -165t-105 -91t-148 -34v-231h-138v231q-83 3 -147 31t-100.5 88.5t-36.5 160.5v275h142v-279q0 -85 31 -120.5t111 -41.5v654h138z" />
    <glyph glyph-name="uni0472" unicode="&#x472;" horiz-adv-x="796" 
d="M738 358q0 -111 -36.5 -193.5t-112 -128.5t-191.5 -46t-191.5 46t-112 129t-36.5 194t36.5 193t112 127.5t192.5 45.5q116 0 191 -45.5t111.5 -128t36.5 -193.5zM399 599q-80 0 -124 -45t-57 -125h359q-12 80 -55.5 125t-122.5 45zM398 117q84 0 128 49t53 137h-363
q10 -88 54.5 -137t127.5 -49z" />
    <glyph glyph-name="uni0473" unicode="&#x473;" horiz-adv-x="619" 
d="M574 274q0 -136 -71.5 -210t-194.5 -74q-76 0 -135.5 33t-93.5 96.5t-34 154.5q0 136 71 209t195 73q77 0 136 -33t93 -96t34 -153zM309 436q-95 0 -110 -110h220q-14 110 -110 110zM310 110q95 0 109 113h-220q15 -113 111 -113z" />
    <glyph glyph-name="uni0474" unicode="&#x474;" horiz-adv-x="717" 
d="M657 594q-29 0 -43.5 -24t-30.5 -68l-176 -502h-165l-242 714h153l141 -444q11 -44 18 -76t13 -70q5 38 13.5 72t21.5 74l83 254q21 62 42 106t51 67t79 23q32 0 55.5 -6t35.5 -13v-118q-10 5 -23 8t-26 3z" />
    <glyph glyph-name="uni0475" unicode="&#x475;" horiz-adv-x="605" 
d="M530 550q12 0 33 -3t39 -11v-115q-12 5 -22 7t-18 2q-22 0 -33 -15.5t-18 -32.5l-150 -382h-152l-209 546h156l100 -306q10 -32 18 -62.5t10 -55.5h2q3 25 10 54.5t18 60.5l60 168q18 51 36 83t45.5 47t74.5 15z" />
    <glyph glyph-name="uni0476" unicode="&#x476;" horiz-adv-x="717" 
d="M657 594q-29 0 -43.5 -24t-30.5 -68l-176 -502h-165l-242 714h153l141 -444q11 -44 18 -76t13 -70q5 38 13.5 72t21.5 74l83 254q21 62 42 106t51 67t79 23q32 0 55.5 -6t35.5 -13v-118q-10 5 -23 8t-26 3zM405 934q16 -34 40 -76t45 -71v-13h-79q-17 14 -39.5 33.5
t-46 41.5t-41.5 42t-26 33v10h147zM211 934q16 -34 40 -76t45 -71v-13h-79q-17 14 -39.5 33.5t-46 41.5t-41.5 42t-26 33v10h147z" />
    <glyph glyph-name="uni0477" unicode="&#x477;" horiz-adv-x="605" 
d="M530 550q12 0 33 -3t39 -11v-115q-12 5 -22 7t-18 2q-22 0 -33 -15.5t-18 -32.5l-150 -382h-152l-209 546h156l100 -306q10 -32 18 -62.5t10 -55.5h2q3 25 10 54.5t18 60.5l60 168q18 51 36 83t45.5 47t74.5 15zM367 766q16 -34 40 -76t45 -71v-13h-79q-17 14 -39.5 33.5
t-46 41.5t-41.5 42t-26 33v10h147zM173 766q16 -34 40 -76t45 -71v-13h-79q-17 14 -39.5 33.5t-46 41.5t-41.5 42t-26 33v10h147z" />
    <glyph glyph-name="uni0478" unicode="&#x478;" horiz-adv-x="1319" 
d="M698 358q0 -111 -32 -193.5t-102.5 -128.5t-185.5 -46t-185.5 46t-102.5 129t-32 194t32 193t103 127.5t186 45.5t185 -45.5t102 -128t32 -193.5zM214 358q0 -75 15 -129t51 -83t98 -29q64 0 99.5 29t50 83t14.5 129t-14.5 129t-50 83t-98.5 29t-99 -29t-51 -83t-15 -129
zM750 546h163l103 -307q8 -23 12 -46t6 -49h3q3 26 8 49t13 46l101 307h160l-231 -616q-32 -85 -91 -127.5t-137 -42.5q-26 0 -44 2.5t-32 5.5v118q10 -2 26 -4t33 -2q47 0 74 28.5t41 68.5l9 27z" />
    <glyph glyph-name="uni0479" unicode="&#x479;" horiz-adv-x="1168" 
d="M574 274q0 -136 -71.5 -210t-194.5 -74q-76 0 -135.5 33t-93.5 96.5t-34 154.5q0 136 71 209t195 73q77 0 136 -33t93 -96t34 -153zM197 274q0 -81 26.5 -122.5t86.5 -41.5q59 0 85.5 41.5t26.5 122.5t-26.5 121.5t-86.5 40.5q-59 0 -85.5 -40.5t-26.5 -121.5zM599 546
h163l103 -307q8 -23 12 -46t6 -49h3q3 26 8 49t13 46l101 307h160l-231 -616q-32 -85 -91 -127.5t-137 -42.5q-26 0 -44 2.5t-32 5.5v118q10 -2 26 -4t33 -2q47 0 74 28.5t41 68.5l9 27z" />
    <glyph glyph-name="uni047A" unicode="&#x47a;" horiz-adv-x="836" 
d="M419 -61q-57 0 -72 56q-99 13 -163 61t-95 125.5t-31 177.5q0 149 70.5 245.5t219.5 115.5q9 32 26.5 43t44.5 11q25 0 43 -11t27 -43q148 -19 218.5 -116t70.5 -246q0 -148 -70 -245.5t-217 -117.5q-17 -56 -72 -56zM351 125q11 20 28 27.5t40 7.5q22 0 39 -7.5
t28 -27.5q70 19 103 79.5t33 153.5q0 92 -32 152t-102 80q-10 -19 -28 -28t-41 -9q-49 0 -70 37q-70 -20 -102.5 -80t-32.5 -152q0 -93 33 -153.5t104 -79.5z" />
    <glyph glyph-name="uni047B" unicode="&#x47b;" horiz-adv-x="679" 
d="M634 274q0 -118 -61 -187.5t-168 -86.5q-5 -26 -22.5 -40t-43.5 -14q-58 0 -67 55q-101 17 -164 86t-63 187t60.5 188t170.5 86q5 22 22 31t41 9q22 0 39 -9t23 -31q103 -16 168 -85.5t65 -188.5zM482 274q0 59 -18 100.5t-57 57.5q-8 -22 -23 -36t-45 -14q-31 0 -46 14
t-23 36q-38 -16 -55.5 -58t-17.5 -100q0 -61 18.5 -103.5t58.5 -58.5q9 19 23 29.5t42 10.5q27 0 40.5 -11t23.5 -30q41 15 60 58t19 105z" />
    <glyph glyph-name="uni047C" unicode="&#x47c;" horiz-adv-x="1088" 
d="M360 914v24q0 45 12.5 71.5t33 39.5t44.5 16.5t46 3.5q38 0 74.5 -14.5t77.5 -29.5t92 -15h7v-95h-8q-54 0 -91.5 8t-63.5 18.5t-46 18.5t-40 8q-22 0 -33 -13t-16 -41h-89zM463 730v42q29 8 43 23t14 27q0 9 -9 13.5t-20 8t-20 10t-9 20.5q0 26 19 40t54 14q37 0 58 -22
t21 -57q0 -33 -21 -59t-55.5 -42t-74.5 -18zM364 -10q-106 0 -173.5 50t-100 137t-32.5 198q0 162 71 255t205 93q39 0 82 -15.5t72 -37.5l-53 -105q-17 11 -42 24.5t-54 13.5q-60 0 -96 -57.5t-36 -171.5q0 -118 44.5 -185t132.5 -67q23 0 43.5 9.5t38.5 24.5v193h151v-193
q35 -34 88 -34q89 0 132.5 67t43.5 185q0 114 -36 171.5t-96 57.5q-29 0 -54 -13.5t-42 -24.5l-53 105q29 22 72 37.5t82 15.5q134 0 205 -93t71 -255q0 -111 -32.5 -198t-100 -137t-173.5 -50q-56 0 -100 17.5t-81 54.5q-37 -37 -80 -54.5t-99 -17.5z" />
    <glyph glyph-name="uni047D" unicode="&#x47d;" horiz-adv-x="958" 
d="M403 915q37 0 74 -14.5t78 -29.5t92 -15h7v-95h-8q-54 0 -91.5 8t-63.5 18.5t-46 18.5t-40 8q-23 0 -33.5 -13t-15.5 -41h-89v24q0 45 12.5 71.5t33 39.5t44.5 16.5t46 3.5zM442 774q38 0 58.5 -22t20.5 -57q1 -33 -19.5 -59t-55 -42t-76.5 -18v42q29 8 43 23t14 27
q0 9 -9 13.5t-20 8t-20 10t-9 20.5q0 26 19.5 40t53.5 14zM313 -10q-122 0 -188.5 67t-66.5 213q0 100 30 163t84 93t124 30q45 0 76.5 -12t56.5 -29l-58 -104q-20 11 -38.5 18t-36.5 7q-86 0 -86 -165q0 -82 32 -121t87 -39q21 0 40 9.5t36 38.5l-1 131h149v-127
q19 -31 39 -41.5t43 -10.5q55 0 84 39t29 121q0 165 -86 165q-19 0 -37.5 -7t-38.5 -19l-59 105q25 17 57.5 29t77.5 12q70 0 124 -30t84 -93t30 -163q0 -146 -66.5 -213t-188.5 -67q-55 0 -95.5 21t-70.5 67q-31 -49 -71 -68.5t-95 -19.5z" />
    <glyph glyph-name="uni047E" unicode="&#x47e;" horiz-adv-x="953" 
d="M234 0q-43 66 -81.5 150t-68 178.5t-46.5 192.5t-17 192h158q5 -116 24.5 -220.5t45.5 -191.5t53 -148h5q5 38 17 84t25 84l60 184q-10 53 -15.5 102t-7.5 107h158q4 -100 21.5 -202.5t45 -197t62.5 -169.5h6q47 109 71.5 245.5t24.5 322.5h157q0 -211 -45.5 -386.5
t-142.5 -326.5h-145q-41 64 -76.5 142t-58.5 146l-83 -288h-147zM689 903v-43l-40 -84h-27l-24 50h-75l-24 -50h-27l-24 50h-75l-24 -50h-27l-39 84v43h406z" />
    <glyph glyph-name="uni047F" unicode="&#x47f;" horiz-adv-x="885" 
d="M846 546q-4 -96 -23 -183.5t-57 -175.5t-98 -187h-133q-26 48 -54.5 100t-46.5 102l-103 -202h-132q-33 51 -65 115.5t-58 136.5t-41.5 147t-15.5 147h150q4 -89 20 -168.5t37.5 -144.5t41.5 -112h4q7 25 24 54t31 58l58 114q-13 43 -19.5 96t-7.5 103h150q4 -82 17 -153
t31.5 -137t39.5 -135h4q41 84 64.5 187.5t31.5 237.5h150zM630 735v-43l-40 -84h-27l-24 50h-75l-24 -50h-27l-24 50h-75l-24 -50h-27l-39 84v43h406z" />
    <glyph glyph-name="uni0480" unicode="&#x480;" horiz-adv-x="677" 
d="M418 724q57 0 114.5 -13.5t109.5 -36.5l-49 -123q-44 19 -89.5 33t-89.5 14q-98 0 -149 -65t-51 -178q0 -114 48 -176.5t154 -62.5q35 0 76.5 5t77.5 13v-374h-151v230q-125 0 -204.5 45.5t-118 128t-38.5 192.5q0 108 41.5 191t122 130t196.5 47z" />
    <glyph glyph-name="uni0481" unicode="&#x481;" horiz-adv-x="524" 
d="M318 556q91 0 174 -39l-43 -113q-37 14 -70.5 23t-64.5 9q-62 0 -89.5 -41t-27.5 -124q0 -79 32.5 -119.5t88.5 -40.5q42 0 70.5 5.5t54.5 12.5v-369h-149v232q-115 9 -182 75.5t-67 202.5q0 109 34 171.5t95.5 88.5t143.5 26z" />
    <glyph glyph-name="uni0482" unicode="&#x482;" horiz-adv-x="609" 
d="M446 630l62 -36l-89 -154l140 -80l-36 -60l-138 80l-98 -169l139 -81l-35 -60l-139 80l-88 -153l-63 36l88 154l-138 80l34 60l140 -80l97 169l-139 80l35 61l139 -80z" />
    <glyph glyph-name="uni0488" unicode="&#x488;" horiz-adv-x="989" 
d="M387 601q2 43 27 69t75 26q48 0 74.5 -26.5t29.5 -68.5h-39q-3 28 -21.5 35.5t-43.5 7.5q-30 0 -46 -7t-19 -36h-37zM670 462q2 44 27 69.5t75 25.5q48 0 74.5 -26.5t29.5 -68.5h-39q-3 28 -21.5 35.5t-43.5 7.5q-30 0 -46 -7t-19 -36h-37zM107 462q2 44 27 69.5t75 25.5
q48 0 74.5 -26.5t29.5 -68.5h-39q-3 28 -21.5 35.5t-43.5 7.5q-30 0 -46 -7t-19 -36h-37zM20 224q2 44 27 69.5t75 25.5q48 0 74.5 -26.5t29.5 -68.5h-39q-3 28 -21.5 35.5t-43.5 7.5q-30 0 -46 -7t-19 -36h-37zM763 224q2 44 27 69.5t75 25.5q48 0 74.5 -26.5t29.5 -68.5
h-39q-3 28 -21.5 35.5t-43.5 7.5q-30 0 -46 -7t-19 -36h-37zM107 -20q2 44 27 69.5t75 25.5q48 0 74.5 -26.5t29.5 -68.5h-39q-3 28 -21.5 35.5t-43.5 7.5q-30 0 -46 -7t-19 -36h-37zM670 -20q2 44 27 69.5t75 25.5q48 0 74.5 -26.5t29.5 -68.5h-39q-3 28 -21.5 35.5
t-43.5 7.5q-30 0 -46 -7t-19 -36h-37zM387 -156q2 44 27 69.5t75 25.5q48 0 74.5 -26.5t29.5 -68.5h-39q-3 28 -21.5 35.5t-43.5 7.5q-30 0 -46 -7t-19 -36h-37z" />
    <glyph glyph-name="uni0489" unicode="&#x489;" horiz-adv-x="956" 
d="M532 728q-10 -41 -19.5 -88t-14.5 -83h-68l-5 7q10 38 26.5 82t33.5 82h47zM191 621q23 -36 49 -76t48 -69l-48 -48l-8 1q-20 34 -39.5 76.5t-34.5 81.5zM806 579l34 -33q-36 -22 -76 -48.5t-69 -48.5l-48 48l1 8q34 19 76.5 39t81.5 35zM20 323q41 -10 88 -19.5
t83 -14.5v-68l-7 -5q-38 10 -82 26.5t-82 33.5v47zM772 323q38 -10 82 -26.5t82 -33.5v-47q-41 10 -88 19.5t-83 14.5v68zM715 90l8 -1q19 -34 39 -76.5t35 -81.5l-33 -34q-22 36 -48.5 76t-48.5 69zM261 70l48 -48l-1 -8q-34 -20 -76.5 -39.5t-81.5 -34.5l-34 33
q36 23 76 49t69 48zM527 -17l5 -7q-10 -38 -26.5 -82t-33.5 -82h-47q10 41 19.5 88t14.5 83h68z" />
    <glyph glyph-name="uni048A" unicode="&#x48a;" horiz-adv-x="916" 
d="M407 771q-89 0 -138 21.5t-70 60.5t-25 93h133q5 -56 28 -73.5t75 -17.5q43 0 70.5 19.5t32.5 71.5h135q-6 -52 -29.5 -91.5t-74.5 -61.5t-137 -22zM641 -208l92 208h-135v343q0 49 3 106t6 98h-4l-331 -547h-182v714h136v-345q0 -46 -1.5 -100t-5.5 -97h3l330 542h181
v-584h163l-87 -338h-168z" />
    <glyph glyph-name="uni048B" unicode="&#x48b;" horiz-adv-x="802" 
d="M357 606q-89 0 -138 21t-70 60.5t-25 93.5h133q5 -51 28 -71t75 -20q43 0 70.5 19.5t32.5 71.5h135q-6 -52 -29.5 -91.5t-74.5 -61.5t-137 -22zM575 -196l67 196h-144v218q0 24 1.5 55.5t4 61t4.5 47.5l-251 -382h-179v546h144v-216q0 -24 -1.5 -55t-4 -61.5t-5.5 -50.5
l252 383h179v-437h146l-71 -305h-142z" />
    <glyph glyph-name="uni048C" unicode="&#x48c;" horiz-adv-x="638" 
d="M241 714v-74h146v-124h-146v-76h60q101 0 165.5 -28t95.5 -77t31 -112q0 -106 -70.5 -164.5t-224.5 -58.5h-208v516h-67v124h67v74h151zM280 316h-39v-192h51q69 0 108.5 22t39.5 77q0 57 -43 75t-117 18z" />
    <glyph glyph-name="uni048D" unicode="&#x48d;" horiz-adv-x="614" 
d="M227 760v-109h184v-97h-184v-219h105q126 0 186.5 -40t60.5 -121q0 -80 -56 -127t-185 -47h-260v554h-76v97h76v109h149zM329 232h-102v-129h104q43 0 71 15.5t28 53.5q0 60 -101 60z" />
    <glyph glyph-name="uni048E" unicode="&#x48e;" horiz-adv-x="628" 
d="M583 491q0 -57 -21.5 -107.5t-70.5 -83.5l43 -61l-74 -55l-56 80q-41 -10 -98 -10h-65v-254h-151v714h228q138 0 201.5 -59.5t63.5 -163.5zM241 378h60h11t11 1l-37 53l75 54l49 -70q20 26 20 70q0 104 -120 104h-69v-212z" />
    <glyph glyph-name="uni048F" unicode="&#x48f;" horiz-adv-x="633" 
d="M378 -10q-59 0 -94 21.5t-57 48.5h-8q3 -16 5.5 -40t2.5 -49v-211h-149v786h121l21 -71h8q22 33 59 57t95 24q92 0 149 -71.5t57 -210.5q0 -77 -19 -133.5t-52 -92.5l46 -60l-77 -58l-53 68q-27 -8 -55 -8zM334 437q-58 0 -82 -36.5t-25 -109.5v-16q0 -79 23.5 -121.5
t85.5 -42.5h8t9 1l-62 77l82 60l52 -64q5 19 8 41.5t3 49.5q0 161 -102 161z" />
    <glyph glyph-name="uni0492" unicode="&#x492;" horiz-adv-x="559" 
d="M539 714v-124h-298v-175h196v-124h-196v-291h-151v291h-67v124h67v299h449z" />
    <glyph glyph-name="uni0493" unicode="&#x493;" horiz-adv-x="491" 
d="M468 546v-121h-250v-106h162v-115h-162v-204h-149v204h-67v115h67v227h399z" />
    <glyph glyph-name="uni0494" unicode="&#x494;" horiz-adv-x="734" 
d="M323 262q-23 0 -46 -2.5t-36 -4.5v-255h-151v714h449v-124h-298v-198q27 4 59 6t66 2q54 0 109.5 -16.5t103 -54.5t76.5 -102t29 -158q0 -105 -37.5 -176t-98 -107t-129.5 -36q-54 0 -88.5 5.5t-69.5 17.5v133q31 -11 62 -17t66 -6q72 0 109.5 52.5t37.5 133.5
q0 99 -58 146t-155 47z" />
    <glyph glyph-name="uni0495" unicode="&#x495;" horiz-adv-x="602" 
d="M477 546v-121h-250v-118q36 6 73 6q72 0 132.5 -31.5t97.5 -93.5t37 -155q0 -97 -33 -158t-87.5 -90.5t-120.5 -29.5q-32 0 -63 5.5t-62 19.5v128q22 -12 51 -19t54 -7q50 0 84 35.5t34 117.5q0 67 -35.5 108t-118.5 41q-8 0 -20 -1t-23 -2v-181h-149v546h399z" />
    <glyph glyph-name="uni0496" unicode="&#x496;" horiz-adv-x="1029" 
d="M929 714l-240 -343l165 -241h155v-338h-146v208h-82l-239 362v-362h-141v362l-239 -362h-162l254 371l-240 343h156l231 -346v346h141v-346l231 346h156z" />
    <glyph glyph-name="uni0497" unicode="&#x497;" horiz-adv-x="942" 
d="M854 546l-201 -262l135 -175h130v-305h-134v196h-70l-208 277v-277h-139v277l-208 -277h-159l220 284l-201 262h154l194 -265v265h139v-265l194 265h154z" />
    <glyph glyph-name="uni0498" unicode="&#x498;" horiz-adv-x="648" 
d="M583 547q0 -72 -51 -116t-130 -55v-3q98 -10 150.5 -54.5t52.5 -115.5q0 -94 -76.5 -153.5t-224.5 -59.5q-81 0 -143.5 10t-108.5 29v127q31 -15 70 -25.5t79 -16t74 -5.5q95 0 137.5 27.5t42.5 77.5q0 51 -62 74.5t-167 23.5h-67v118h60q85 0 132 11t66 32t19 50
q0 37 -33 58.5t-97 21.5q-56 0 -104 -16t-90 -42l-66 101q55 36 122 57t159 21q121 0 188.5 -50t67.5 -127zM302 -111q0 25 -19 52t-53 59h87q37 -27 62.5 -56.5t25.5 -71.5q0 -50 -33 -81t-89 -31q-24 0 -42 3t-34 8v87q10 -3 25 -6t31 -3q17 0 28 10t11 30z" />
    <glyph glyph-name="uni0499" unicode="&#x499;" horiz-adv-x="555" 
d="M277 556q59 0 110.5 -15.5t83 -47.5t31.5 -82q0 -49 -30 -78t-79 -42v-5q35 -8 63 -22.5t44.5 -39t16.5 -65.5q0 -45 -28.5 -83.5t-88.5 -62t-152 -23.5q-136 0 -210 34v123q34 -16 83.5 -29t105.5 -13q61 0 103 14t42 49q0 65 -155 65h-58v103h55q74 0 114.5 12t40.5 45
q0 26 -26 39.5t-85 13.5q-39 0 -85.5 -9t-86.5 -26l-44 104q47 18 102.5 29.5t132.5 11.5zM249 -111q0 25 -19 52t-53 59h87q37 -27 62.5 -56.5t25.5 -71.5q0 -50 -33 -81t-89 -31q-24 0 -42 3t-34 8v87q10 -3 25 -6t31 -3q17 0 28 10t11 30z" />
    <glyph glyph-name="uni049A" unicode="&#x49a;" horiz-adv-x="756" 
d="M658 714l-260 -343l178 -241h160v-338h-146v208h-90l-259 362v-362h-151v714h151v-346l256 346h161z" />
    <glyph glyph-name="uni049B" unicode="&#x49b;" horiz-adv-x="665" 
d="M517 -196v196h-67l-223 277v-277h-149v546h149v-265l209 265h164l-216 -262l145 -175h122v-305h-134z" />
    <glyph glyph-name="uni049C" unicode="&#x49c;" horiz-adv-x="672" 
d="M367 93h-65v184l-61 85v-362h-151v714h151v-346l61 82v195h65v-107l130 176h161l-260 -343l274 -371h-172l-133 186v-93z" />
    </font>
</defs>
</svg>
