<?xml version="1.0" standalone="no"?>
  <!DOCTYPE svg PUBLIC "-//W3C//DTD SVG 1.1//EN" "http://www.w3.org/Graphics/SVG/1.1/DTD/svg11.dtd" >
  <svg>
  <metadata>
  Created by font-carrier
  </metadata>
  <defs>
  <font id="NotoSans-Bold" horiz-adv-x="2840" vert-adv-y="2840" >
    <font-face
      
      font-family="Noto Sans"
      
      font-weight="400"
      
      font-stretch="normal"
      
      units-per-em="1000"
      
      ascent="1069"
      
      descent="-293"
      
    />
      <missing-glyph />

      

      
      <glyph glyph-name="uni21" unicode="&#x21;" d="M203 237L84 237L59 714L228 714L203 237M57 70Q57 116 82 134.50Q107 153 143 153Q178 153 203 134.50Q228 116 228 70Q228 26 203 6.50Q178-13 143-13Q107-13 82 6.50Q57 26 57 70Z"  horiz-adv-x="286" vert-adv-y="1000"  />

      
      <glyph glyph-name="uni22" unicode="&#x22;" d="M201 714L181 456L85 456L65 714L201 714M407 714L387 456L291 456L271 714L407 714Z"  horiz-adv-x="472" vert-adv-y="1000"  />

      
      <glyph glyph-name="uni23" unicode="&#x23;" d="M488 412L465 299L591 299L591 198L446 198L408 0L301 0L339 198L244 198L207 0L102 0L138 198L22 198L22 299L157 299L180 412L57 412L57 514L198 514L236 713L343 713L305 514L402 514L440 713L545 713L507 514L624 514L624 412L488 412M263 299L359 299L382 412L286 412L263 299Z"  horiz-adv-x="646" vert-adv-y="1000"  />

      
      <glyph glyph-name="uni24" unicode="&#x24;" d="M253-58L253 40Q188 42 137 52.50Q86 63 44 82L44 211Q85 191 142.50 174.50Q200 158 253 155L253 306Q176 336 129.50 364.50Q83 393 63 428Q43 463 43 512Q43 587 101.50 631.50Q160 676 253 684L253 759L320 759L320 686Q431 682 522 641L476 527Q436 544 395.50 553Q355 562 320 565L320 421Q374 401 423 377.50Q472 354 502.50 318Q533 282 533 223Q533 150 480 101Q427 52 320 42L320-58L253-58M253 448L253 563Q190 554 190 512Q190 491 205 477Q220 463 253 448M320 158Q386 170 386 216Q386 236 369.50 250.50Q353 265 320 280L320 158Z"  horiz-adv-x="572" vert-adv-y="1000"  />

      
      <glyph glyph-name="uni25" unicode="&#x25;" d="M199 724Q283 724 326.50 665.50Q370 607 370 501Q370 395 329 335.50Q288 276 199 276Q116 276 73.50 335.50Q31 395 31 501Q31 607 71 665.50Q111 724 199 724M706 714L310 0L193 0L589 714L706 714M200 622Q154 622 154 500Q154 377 200 377Q247 377 247 500Q247 622 200 622M699 439Q783 439 826.50 380.50Q870 322 870 216Q870 110 829 50.50Q788-9 699-9Q616-9 573.50 50.50Q531 110 531 216Q531 322 571 380.50Q611 439 699 439M700 337Q654 337 654 215Q654 92 700 92Q747 92 747 215Q747 337 700 337Z"  horiz-adv-x="901" vert-adv-y="1000"  />

      
      <glyph glyph-name="uni26" unicode="&#x26;" d="M310 724Q368 724 413 706Q458 688 484 653Q510 618 510 569Q510 500 469 453Q428 406 367 371L506 236Q526 270 541 307.50Q556 345 566 383L721 383Q706 327 677 263Q648 199 603 143L750 0L566 0L510 55Q466 25 413.50 7.50Q361-10 299-10Q177-10 108.50 46Q40 102 40 193Q40 269 75 314.50Q110 360 171 395Q132 440 116.50 478Q101 516 101 559Q101 610 127.50 647Q154 684 201 704Q248 724 310 724M309 609Q284 609 261.50 596.50Q239 584 239 549Q239 524 251.50 501Q264 478 285 454Q327 477 349.50 500Q372 523 372 553Q372 583 352 596Q332 609 309 609M258 306Q230 285 213.50 261.50Q197 238 197 207Q197 164 229 139.50Q261 115 309 115Q341 115 369 123Q397 131 420 145L258 306Z"  horiz-adv-x="750" vert-adv-y="1000"  />

      
      <glyph glyph-name="uni27" unicode="&#x27;" d="M201 714L181 456L85 456L65 714L201 714Z"  horiz-adv-x="266" vert-adv-y="1000"  />

      
      <glyph glyph-name="uni28" unicode="&#x28;" d="M40 274Q40 396 75.50 509.50Q111 623 187 714L309 714Q241 620 205.50 507Q170 394 170 275Q170 159 205 46.50Q240-66 308-158L187-158Q111-70 75.50 41.50Q40 153 40 274Z"  horiz-adv-x="339" vert-adv-y="1000"  />

      
      <glyph glyph-name="uni29" unicode="&#x29;" d="M299 274Q299 153 263.50 41.50Q228-70 152-158L31-158Q98-66 133.50 46.50Q169 159 169 275Q169 394 133.50 507Q98 620 30 714L152 714Q228 623 263.50 509.50Q299 396 299 274Z"  horiz-adv-x="339" vert-adv-y="1000"  />

      
      <glyph glyph-name="uni2a" unicode="&#x2a;" d="M336 760L316 580L498 631L514 508L348 496L457 351L346 292L270 445L203 293L88 351L196 496L31 509L50 631L228 580L208 760L336 760Z"  horiz-adv-x="545" vert-adv-y="1000"  />

      
      <glyph glyph-name="uni2b" unicode="&#x2b;" d="M339 406L528 406L528 299L339 299L339 111L232 111L232 299L43 299L43 406L232 406L232 596L339 596L339 406Z"  horiz-adv-x="572" vert-adv-y="1000"  />

      
      <glyph glyph-name="uni2c" unicode="&#x2c;" d="M217 116L224 105Q210 52 186.50-11Q163-74 138-129L31-129Q45-70 58.50-3Q72 64 80 116L217 116Z"  horiz-adv-x="285" vert-adv-y="1000"  />

      
      <glyph glyph-name="uni2d" unicode="&#x2d;" d="M30 207L30 329L292 329L292 207L30 207Z"  horiz-adv-x="322" vert-adv-y="1000"  />

      
      <glyph glyph-name="uni2e" unicode="&#x2e;" d="M57 70Q57 116 82 134.50Q107 153 143 153Q178 153 203 134.50Q228 116 228 70Q228 26 203 6.50Q178-13 143-13Q107-13 82 6.50Q57 26 57 70Z"  horiz-adv-x="285" vert-adv-y="1000"  />

      
      <glyph glyph-name="uni2f" unicode="&#x2f;" d="M408 714L142 0L7 0L273 714L408 714Z"  horiz-adv-x="413" vert-adv-y="1000"  />

      
      <glyph glyph-name="uni30" unicode="&#x30;" d="M535 357Q535 242 510.50 160Q486 78 431 34Q376-10 285-10Q156-10 96 87Q36 184 36 357Q36 472 60 554.50Q84 637 139 681Q194 725 285 725Q413 725 474 628Q535 531 535 357M186 357Q186 235 207 173.50Q228 112 285 112Q341 112 363 173Q385 234 385 357Q385 479 363 541Q341 603 285 603Q228 603 207 541Q186 479 186 357Z"  horiz-adv-x="572" vert-adv-y="1000"  />

      
      <glyph glyph-name="uni31" unicode="&#x31;" d="M413 0L262 0L262 413Q262 438 263 480.50Q264 523 266 555Q261 549 244.50 533.50Q228 518 214 506L132 440L59 531L289 714L413 714L413 0Z"  horiz-adv-x="572" vert-adv-y="1000"  />

      
      <glyph glyph-name="uni32" unicode="&#x32;" d="M539 0L40 0L40 105L219 286Q273 342 306 379.50Q339 417 354 447.50Q369 478 369 513Q369 556 345.50 577Q322 598 282 598Q241 598 202 579Q163 560 120 525L38 622Q68 648 103 671.50Q138 695 183.50 709.50Q229 724 293 724Q363 724 413.50 698.50Q464 673 491.50 629.50Q519 586 519 531Q519 472 495.50 423Q472 374 427.50 326Q383 278 320 220L228 134L228 127L539 127L539 0Z"  horiz-adv-x="572" vert-adv-y="1000"  />

      
      <glyph glyph-name="uni33" unicode="&#x33;" d="M511 554Q511 480 466.50 436Q422 392 357 376L357 373Q442 362 487 320Q532 278 532 208Q532 146 501.50 96.50Q471 47 407.50 18.50Q344-10 244-10Q128-10 38 29L38 157Q84 134 134 122Q184 110 228 110Q309 110 341.50 138Q374 166 374 217Q374 246 359 267Q344 288 306.50 298.50Q269 309 202 309L148 309L148 425L203 425Q269 425 303.50 437.50Q338 450 350.50 471.50Q363 493 363 521Q363 559 339.50 580.50Q316 602 261 602Q210 602 172 584Q134 566 109 550L39 654Q81 684 137.50 704Q194 724 272 724Q382 724 446.50 679.50Q511 635 511 554Z"  horiz-adv-x="572" vert-adv-y="1000"  />

      
      <glyph glyph-name="uni34" unicode="&#x34;" d="M555 148L469 148L469 0L322 0L322 148L17 148L17 253L330 714L469 714L469 265L555 265L555 148M322 265L322 386Q322 409 323 442Q324 475 325.50 503.50Q327 532 328 541L324 541Q315 521 304.50 502Q294 483 281 463L150 265L322 265Z"  horiz-adv-x="572" vert-adv-y="1000"  />

      
      <glyph glyph-name="uni35" unicode="&#x35;" d="M300 456Q365 456 416 431Q467 406 496.50 358Q526 310 526 239Q526 123 454 56.50Q382-10 241-10Q185-10 135.50 0Q86 10 49 29L49 159Q86 140 138 126.50Q190 113 236 113Q303 113 338.50 140.50Q374 168 374 226Q374 334 231 334Q203 334 173 328.50Q143 323 123 318L63 350L90 714L477 714L477 586L222 586L209 446Q226 449 245.50 452.50Q265 456 300 456Z"  horiz-adv-x="572" vert-adv-y="1000"  />

      
      <glyph glyph-name="uni36" unicode="&#x36;" d="M35 303Q35 364 44 424.50Q53 485 75.50 538.50Q98 592 138.50 633.50Q179 675 241.50 698.50Q304 722 393 722Q414 722 442 720.50Q470 719 489 715L489 594Q470 598 447.50 601Q425 604 403 604Q314 604 265.50 576Q217 548 197 497.50Q177 447 174 381L180 381Q200 416 237.50 440Q275 464 335 464Q429 464 484 405Q539 346 539 238Q539 122 473.50 56Q408-10 296-10Q223-10 164 23.50Q105 57 70 126.50Q35 196 35 303M293 111Q337 111 365 141.50Q393 172 393 236Q393 288 369 318Q345 348 296 348Q262 348 237.50 333Q213 318 199 295.50Q185 273 185 249Q185 216 197 184Q209 152 233.50 131.50Q258 111 293 111Z"  horiz-adv-x="572" vert-adv-y="1000"  />

      
      <glyph glyph-name="uni37" unicode="&#x37;" d="M111 0L379 587L27 587L27 714L539 714L539 619L269 0L111 0Z"  horiz-adv-x="572" vert-adv-y="1000"  />

      
      <glyph glyph-name="uni38" unicode="&#x38;" d="M286 723Q348 723 399.50 704Q451 685 482.50 646.50Q514 608 514 551Q514 486 477.50 445Q441 404 386 377Q424 357 458.50 330.50Q493 304 514.50 268Q536 232 536 185Q536 126 504.50 82Q473 38 416.50 14Q360-10 286-10Q166-10 100.50 41Q35 92 35 181Q35 254 75 299.50Q115 345 172 373Q124 403 90.50 445.50Q57 488 57 552Q57 608 89 646.50Q121 685 173.50 704Q226 723 286 723M285 613Q248 613 223.50 593.50Q199 574 199 540Q199 503 225 480Q251 457 286 440Q320 456 346 478.50Q372 501 372 540Q372 574 347 593.50Q322 613 285 613M175 190Q175 151 202.50 126Q230 101 284 101Q340 101 368 125Q396 149 396 189Q396 216 380 236.50Q364 257 340 273.50Q316 290 292 304L279 311Q232 289 203.50 260Q175 231 175 190Z"  horiz-adv-x="572" vert-adv-y="1000"  />

      
      <glyph glyph-name="uni39" unicode="&#x39;" d="M536 409Q536 348 527 287.50Q518 227 495.50 173.50Q473 120 432.50 78.50Q392 37 329.50 13.50Q267-10 178-10Q157-10 129-8.50Q101-7 82-3L82 118Q102 114 124 111Q146 108 168 108Q257 108 305.50 136Q354 164 374 214.50Q394 265 397 331L391 331Q370 296 335.50 272Q301 248 233 248Q142 248 87 307Q32 366 32 474Q32 590 97.50 656Q163 722 275 722Q348 722 407 688.50Q466 655 501 585.50Q536 516 536 409M278 601Q234 601 206 570.50Q178 540 178 476Q178 424 202 394Q226 364 275 364Q308 364 333 379Q358 394 372 416.50Q386 439 386 463Q386 496 374 528Q362 560 338 580.50Q314 601 278 601Z"  horiz-adv-x="572" vert-adv-y="1000"  />

      
      <glyph glyph-name="uni3a" unicode="&#x3a;" d="M57 473Q57 519 82 537.50Q107 556 143 556Q178 556 203 537.50Q228 519 228 473Q228 429 203 409.50Q178 390 143 390Q107 390 82 409.50Q57 429 57 473M57 70Q57 116 82 134.50Q107 153 143 153Q178 153 203 134.50Q228 116 228 70Q228 26 203 6.50Q178-13 143-13Q107-13 82 6.50Q57 26 57 70Z"  horiz-adv-x="285" vert-adv-y="1000"  />

      
      <glyph glyph-name="uni3b" unicode="&#x3b;" d="M57 473Q57 519 82 537.50Q107 556 143 556Q178 556 203 537.50Q228 519 228 473Q228 429 203 409.50Q178 390 143 390Q107 390 82 409.50Q57 429 57 473M217 116L224 105Q210 52 186.50-11Q163-74 138-129L31-129Q45-70 58.50-3Q72 64 80 116L217 116Z"  horiz-adv-x="285" vert-adv-y="1000"  />

      
      <glyph glyph-name="uni3c" unicode="&#x3c;" d="M528 99L43 313L43 383L528 625L528 508L194 353L528 216L528 99Z"  horiz-adv-x="572" vert-adv-y="1000"  />

      
      <glyph glyph-name="uni3d" unicode="&#x3d;" d="M43 394L43 500L528 500L528 394L43 394M43 204L43 311L528 311L528 204L43 204Z"  horiz-adv-x="572" vert-adv-y="1000"  />

      
      <glyph glyph-name="uni3e" unicode="&#x3e;" d="M43 216L377 353L43 508L43 625L528 383L528 313L43 99L43 216Z"  horiz-adv-x="572" vert-adv-y="1000"  />

      
      <glyph glyph-name="uni3f" unicode="&#x3f;" d="M135 237L135 273Q135 322 156 356.50Q177 391 228 428Q273 460 292.50 483.50Q312 507 312 539Q312 570 288.50 587Q265 604 223 604Q181 604 140 591Q99 578 56 556L3 663Q52 690 109 707Q166 724 234 724Q338 724 395.50 674Q453 624 453 547Q453 506 440 476Q427 446 401 420Q375 394 336 366Q306 344 290.50 329.50Q275 315 269.50 300.50Q264 286 264 266L264 237L135 237M119 70Q119 116 144 134.50Q169 153 205 153Q240 153 265 134.50Q290 116 290 70Q290 26 265 6.50Q240-13 205-13Q169-13 144 6.50Q119 26 119 70Z"  horiz-adv-x="477" vert-adv-y="1000"  />

      
      <glyph glyph-name="uni40" unicode="&#x40;" d="M847 358Q847 312 836 267Q825 222 802.50 185Q780 148 746 126.50Q712 105 666 105Q629 105 601 122.50Q573 140 562 168L554 168Q534 143 500.50 124Q467 105 420 105Q331 105 282.50 158.50Q234 212 234 299Q234 366 263 417.50Q292 469 345 498.50Q398 528 470 528Q517 528 567.50 519.50Q618 511 646 501L636 296Q635 286 635 275.50Q635 265 635 262Q635 221 646.50 207.50Q658 194 672 194Q694 194 709.50 216.50Q725 239 732.50 276.50Q740 314 740 359Q740 442 706 501Q672 560 613 591Q554 622 480 622Q375 622 303.50 578.50Q232 535 195 459.50Q158 384 158 288Q158 153 230 81Q302 9 439 9Q497 9 559.50 21.50Q622 34 675 54L675-40Q627-60 568-72Q509-84 443-84Q319-84 231-40Q143 4 96.50 86.50Q50 169 50 285Q50 376 80 454Q110 532 166 590.50Q222 649 301.50 681.50Q381 714 479 714Q586 714 669 671Q752 628 799.50 548Q847 468 847 358M347 297Q347 242 370 218Q393 194 431 194Q481 194 501.50 230.50Q522 267 526 326L532 434Q521 436 506.50 437.50Q492 439 476 439Q428 439 400 418.50Q372 398 359.50 365Q347 332 347 297Z"  horiz-adv-x="897" vert-adv-y="1000"  />

      
      <glyph glyph-name="uni41" unicode="&#x41;" d="M527 0L475 170L215 170L163 0L0 0L252 717L437 717L690 0L527 0M439 297L387 463Q382 480 374 506Q366 532 358 559Q350 586 345 606Q340 586 331.50 556.50Q323 527 315.50 500.50Q308 474 304 463L253 297L439 297Z"  horiz-adv-x="690" vert-adv-y="1000"  />

      
      <glyph glyph-name="uni42" unicode="&#x42;" d="M90 714L312 714Q454 714 527.50 674Q601 634 601 533Q601 472 572.50 430Q544 388 491 379L491 374Q526 366 555.50 348.50Q585 331 602 297Q619 263 619 207Q619 110 548.50 55Q478 0 357 0L90 0L90 714M241 431L329 431Q395 431 420.50 451.50Q446 472 446 513Q446 554 416 572Q386 590 321 590L241 590L241 431M241 311L241 125L340 125Q408 125 435 151.50Q462 178 462 222Q462 262 434.50 286.50Q407 311 335 311L241 311Z"  horiz-adv-x="672" vert-adv-y="1000"  />

      
      <glyph glyph-name="uni43" unicode="&#x43;" d="M393 598Q306 598 260 533Q214 468 214 355Q214 241 256.50 178.50Q299 116 393 116Q436 116 480 126Q524 136 575 154L575 27Q528 8 482-1Q436-10 379-10Q268-10 197 35.50Q126 81 92 163.50Q58 246 58 356Q58 464 97 547Q136 630 210.50 677Q285 724 393 724Q446 724 499.50 710.50Q553 697 602 674L553 551Q513 570 472.50 584Q432 598 393 598Z"  horiz-adv-x="637" vert-adv-y="1000"  />

      
      <glyph glyph-name="uni44" unicode="&#x44;" d="M682 364Q682 183 579 91.50Q476 0 292 0L90 0L90 714L314 714Q426 714 508.50 674Q591 634 636.50 556Q682 478 682 364M525 360Q525 478 473 534Q421 590 322 590L241 590L241 125L306 125Q525 125 525 360Z"  horiz-adv-x="740" vert-adv-y="1000"  />

      
      <glyph glyph-name="uni45" unicode="&#x45;" d="M501 0L90 0L90 714L501 714L501 590L241 590L241 433L483 433L483 309L241 309L241 125L501 125L501 0Z"  horiz-adv-x="560" vert-adv-y="1000"  />

      
      <glyph glyph-name="uni46" unicode="&#x46;" d="M239 0L90 0L90 714L499 714L499 590L239 590L239 406L481 406L481 282L239 282L239 0Z"  horiz-adv-x="549" vert-adv-y="1000"  />

      
      <glyph glyph-name="uni47" unicode="&#x47;" d="M361 401L644 401L644 31Q588 12 527 1Q466-10 390-10Q230-10 144 84Q58 178 58 358Q58 470 101 552Q144 634 227.50 679Q311 724 431 724Q488 724 543 712Q598 700 643 680L593 559Q560 576 518 587Q476 598 430 598Q364 598 315.50 568Q267 538 240.50 483Q214 428 214 355Q214 285 233 231Q252 177 293 146.50Q334 116 400 116Q432 116 454 119Q476 122 496 126L496 275L361 275L361 401Z"  horiz-adv-x="724" vert-adv-y="1000"  />

      
      <glyph glyph-name="uni48" unicode="&#x48;" d="M675 0L524 0L524 308L241 308L241 0L90 0L90 714L241 714L241 434L524 434L524 714L675 714L675 0Z"  horiz-adv-x="765" vert-adv-y="1000"  />

      
      <glyph glyph-name="uni49" unicode="&#x49;" d="M357 0L32 0L32 86L119 126L119 588L32 628L32 714L357 714L357 628L270 588L270 126L357 86L357 0Z"  horiz-adv-x="389" vert-adv-y="1000"  />

      
      <glyph glyph-name="uni4a" unicode="&#x4a;" d="M15-210Q-14-210-36-207Q-58-204-74-199L-74-73Q-58-77-40.50-80Q-23-83-3-83Q23-83 44.50-73Q66-63 78-35.50Q90-8 90 45L90 714L241 714L241 46Q241-46 212.50-102.50Q184-159 133-184.50Q82-210 15-210Z"  horiz-adv-x="331" vert-adv-y="1000"  />

      
      <glyph glyph-name="uni4b" unicode="&#x4b;" d="M664 0L492 0L305 301L241 255L241 0L90 0L90 714L241 714L241 387Q256 408 271 429Q286 450 301 471L494 714L662 714L413 398L664 0Z"  horiz-adv-x="664" vert-adv-y="1000"  />

      
      <glyph glyph-name="uni4c" unicode="&#x4c;" d="M90 0L90 714L241 714L241 125L531 125L531 0L90 0Z"  horiz-adv-x="565" vert-adv-y="1000"  />

      
      <glyph glyph-name="uni4d" unicode="&#x4d;" d="M392 0L220 560L216 560Q217 540 219 500Q221 460 223 414Q225 368 225 332L225 0L90 0L90 714L296 714L465 168L468 168L647 714L853 714L853 0L712 0L712 338Q712 372 713.50 416Q715 460 716.50 499.50Q718 539 719 559L715 559L531 0L392 0Z"  horiz-adv-x="943" vert-adv-y="1000"  />

      
      <glyph glyph-name="uni4e" unicode="&#x4e;" d="M723 0L531 0L220 540L216 540Q218 489 220.50 438Q223 387 225 336L225 0L90 0L90 714L281 714L591 179L594 179Q592 228 590 277Q588 326 587 376L587 714L723 714L723 0Z"  horiz-adv-x="813" vert-adv-y="1000"  />

      
      <glyph glyph-name="uni4f" unicode="&#x4f;" d="M738 358Q738 247 701.50 164.50Q665 82 589.50 36Q514-10 398-10Q282-10 206.50 36Q131 82 94.50 165Q58 248 58 359Q58 470 94.50 552Q131 634 206.50 679.50Q282 725 399 725Q515 725 590 679.50Q665 634 701.50 551.50Q738 469 738 358M217 358Q217 246 260 181.50Q303 117 398 117Q495 117 537 181.50Q579 246 579 358Q579 470 537 534.50Q495 599 399 599Q303 599 260 534.50Q217 470 217 358Z"  horiz-adv-x="796" vert-adv-y="1000"  />

      
      <glyph glyph-name="uni50" unicode="&#x50;" d="M318 714Q456 714 519.50 654.50Q583 595 583 491Q583 428 557 374Q531 320 470.50 287Q410 254 306 254L241 254L241 0L90 0L90 714L318 714M310 590L241 590L241 378L291 378Q355 378 392.50 403.50Q430 429 430 486Q430 590 310 590Z"  horiz-adv-x="628" vert-adv-y="1000"  />

      
      <glyph glyph-name="uni51" unicode="&#x51;" d="M738 358Q738 238 695 150Q652 62 562 22L734-170L540-170L409-10L398-10Q282-10 206.50 36Q131 82 94.50 165Q58 248 58 359Q58 470 94.50 552Q131 634 206.50 679.50Q282 725 399 725Q515 725 590 679.50Q665 634 701.50 551.50Q738 469 738 358M217 358Q217 246 260 181.50Q303 117 398 117Q495 117 537 181.50Q579 246 579 358Q579 470 537 534.50Q495 599 399 599Q303 599 260 534.50Q217 470 217 358Z"  horiz-adv-x="796" vert-adv-y="1000"  />

      
      <glyph glyph-name="uni52" unicode="&#x52;" d="M298 714Q444 714 513.50 661Q583 608 583 500Q583 451 564.50 414.50Q546 378 515.50 352.50Q485 327 450 311L660 0L492 0L322 274L241 274L241 0L90 0L90 714L298 714M287 590L241 590L241 397L290 397Q365 397 397.50 422Q430 447 430 496Q430 547 395 568.50Q360 590 287 590Z"  horiz-adv-x="660" vert-adv-y="1000"  />

      
      <glyph glyph-name="uni53" unicode="&#x53;" d="M511 198Q511 103 442.50 46.50Q374-10 248-10Q135-10 46 33L46 174Q97 152 151.50 133.50Q206 115 260 115Q316 115 339.50 136.50Q363 158 363 191Q363 218 344.50 237Q326 256 295 272.50Q264 289 224 308Q199 320 170 336.50Q141 353 114.50 377.50Q88 402 71 437Q54 472 54 521Q54 617 119 670.50Q184 724 296 724Q352 724 402 711Q452 698 508 674L459 556Q410 576 371 587Q332 598 291 598Q248 598 225 578Q202 558 202 526Q202 488 236 466Q270 444 337 412Q392 386 430.50 358Q469 330 490 292Q511 254 511 198Z"  horiz-adv-x="551" vert-adv-y="1000"  />

      
      <glyph glyph-name="uni54" unicode="&#x54;" d="M365 0L214 0L214 588L20 588L20 714L559 714L559 588L365 588L365 0Z"  horiz-adv-x="579" vert-adv-y="1000"  />

      
      <glyph glyph-name="uni55" unicode="&#x55;" d="M671 714L671 252Q671 178 638.50 118.50Q606 59 540 24.50Q474-10 375-10Q233-10 159 62.50Q85 135 85 254L85 714L236 714L236 277Q236 188 272 152.50Q308 117 379 117Q453 117 486.50 156Q520 195 520 278L520 714L671 714Z"  horiz-adv-x="756" vert-adv-y="1000"  />

      
      <glyph glyph-name="uni56" unicode="&#x56;" d="M650 714L407 0L242 0L0 714L153 714L287 289Q290 278 298 248.50Q306 219 314 186.50Q322 154 325 132Q328 154 335.50 186.50Q343 219 350.50 248.50Q358 278 362 289L497 714L650 714Z"  horiz-adv-x="650" vert-adv-y="1000"  />

      
      <glyph glyph-name="uni57" unicode="&#x57;" d="M967 714L785 0L613 0L516 375Q513 386 508.50 408Q504 430 498.50 456Q493 482 488.50 505Q484 528 483 542Q482 528 477.50 505Q473 482 468 456.50Q463 431 458 408.50Q453 386 450 374L354 0L182 0L0 714L149 714L240 324Q246 301 253 266Q260 231 266 196Q272 161 275 137Q278 162 284 196.50Q290 231 296.50 263.50Q303 296 308 314L412 714L555 714L659 314Q664 296 670.50 263.50Q677 231 683 196Q689 161 692 137Q695 162 701 196.50Q707 231 714.50 265.50Q722 300 727 324L818 714L967 714Z"  horiz-adv-x="967" vert-adv-y="1000"  />

      
      <glyph glyph-name="uni58" unicode="&#x58;" d="M667 0L494 0L328 270L162 0L0 0L237 368L15 714L182 714L336 457L487 714L650 714L426 360L667 0Z"  horiz-adv-x="667" vert-adv-y="1000"  />

      
      <glyph glyph-name="uni59" unicode="&#x59;" d="M312 420L461 714L624 714L387 278L387 0L237 0L237 273L0 714L164 714L312 420Z"  horiz-adv-x="624" vert-adv-y="1000"  />

      
      <glyph glyph-name="uni5a" unicode="&#x5a;" d="M555 0L24 0L24 98L366 589L33 589L33 714L546 714L546 616L204 125L555 125L555 0Z"  horiz-adv-x="579" vert-adv-y="1000"  />

      
      <glyph glyph-name="uni5b" unicode="&#x5b;" d="M306-158L70-158L70 714L306 714L306 611L197 611L197-55L306-55L306-158Z"  horiz-adv-x="331" vert-adv-y="1000"  />

      
      <glyph glyph-name="uni5c" unicode="&#x5c;" d="M141 714L407 0L272 0L6 714L141 714Z"  horiz-adv-x="413" vert-adv-y="1000"  />

      
      <glyph glyph-name="uni5d" unicode="&#x5d;" d="M25-55L134-55L134 611L25 611L25 714L261 714L261-158L25-158L25-55Z"  horiz-adv-x="331" vert-adv-y="1000"  />

      
      <glyph glyph-name="uni5e" unicode="&#x5e;" d="M23 254L237 718L307 718L549 254L432 254L275 568L138 254L23 254Z"  horiz-adv-x="572" vert-adv-y="1000"  />

      
      <glyph glyph-name="uni5f" unicode="&#x5f;" d="M413-158L-2-158L-2-90L413-90L413-158Z"  horiz-adv-x="411" vert-adv-y="1000"  />

      
      <glyph glyph-name="uni60" unicode="&#x60;" d="M207 766Q222 744 242.50 716.50Q263 689 284.50 663.50Q306 638 322 619L322 606L223 606Q204 619 178.50 638.50Q153 658 126.50 680Q100 702 77 722Q54 742 40 756L40 766L207 766Z"  horiz-adv-x="362" vert-adv-y="1000"  />

      
      <glyph glyph-name="uni61" unicode="&#x61;" d="M302 557Q412 557 470.50 509.50Q529 462 529 364L529 0L425 0L396 74L392 74Q357 30 318 10Q279-10 211-10Q138-10 90 32Q42 74 42 163Q42 250 103 291Q164 332 286 337L381 340L381 364Q381 407 358.50 427Q336 447 296 447Q256 447 218 435.50Q180 424 142 407L93 508Q136 530 190 543.50Q244 557 302 557M381 253L323 251Q251 249 223 225Q195 201 195 162Q195 128 215 113.50Q235 99 267 99Q315 99 348 127.50Q381 156 381 208L381 253Z"  horiz-adv-x="604" vert-adv-y="1000"  />

      
      <glyph glyph-name="uni62" unicode="&#x62;" d="M227 760L227 583Q227 552 225 522Q223 492 221 475L227 475Q249 509 286 532.50Q323 556 382 556Q474 556 531 484.50Q588 413 588 274Q588 134 530 62Q472-10 378-10Q318-10 283.50 11.50Q249 33 227 60L217 60L192 0L78 0L78 760L227 760M334 437Q276 437 252 400.50Q228 364 227 291L227 275Q227 196 250.50 153.50Q274 111 336 111Q382 111 409 153.50Q436 196 436 276Q436 356 408.50 396.50Q381 437 334 437Z"  horiz-adv-x="633" vert-adv-y="1000"  />

      
      <glyph glyph-name="uni63" unicode="&#x63;" d="M300-10Q178-10 111.50 57Q45 124 45 270Q45 370 79 433Q113 496 173.50 526Q234 556 313 556Q369 556 410.50 545Q452 534 483 519L439 404Q404 418 373.50 427Q343 436 313 436Q197 436 197 271Q197 189 227.50 150Q258 111 313 111Q360 111 396 123.50Q432 136 466 158L466 31Q432 9 394.50-0.50Q357-10 300-10Z"  horiz-adv-x="514" vert-adv-y="1000"  />

      
      <glyph glyph-name="uni64" unicode="&#x64;" d="M251-10Q160-10 102.50 61.50Q45 133 45 272Q45 412 103 484Q161 556 255 556Q314 556 352 533Q390 510 412 476L417 476Q414 492 410 522.50Q406 553 406 585L406 760L555 760L555 0L441 0L412 71L406 71Q384 37 347 13.50Q310-10 251-10M303 109Q364 109 389 145.50Q414 182 416 255L416 271Q416 350 391.50 392.50Q367 435 301 435Q252 435 224 392.50Q196 350 196 270Q196 190 224 149.50Q252 109 303 109Z"  horiz-adv-x="633" vert-adv-y="1000"  />

      
      <glyph glyph-name="uni65" unicode="&#x65;" d="M303 556Q416 556 482 491.50Q548 427 548 308L548 236L196 236Q198 173 233.50 137Q269 101 332 101Q384 101 427.50 111.50Q471 122 517 144L517 29Q476 9 432-0.50Q388-10 325-10Q243-10 180 20.50Q117 51 81 112.50Q45 174 45 269Q45 364 77.50 428Q110 492 168 524Q226 556 303 556M304 450Q260 450 232 422Q204 394 199 335L408 335Q407 384 381.50 417Q356 450 304 450Z"  horiz-adv-x="591" vert-adv-y="1000"  />

      
      <glyph glyph-name="uni66" unicode="&#x66;" d="M380 434L251 434L251 0L102 0L102 434L20 434L20 506L102 546L102 586Q102 656 125.50 694.50Q149 733 192.50 749Q236 765 295 765Q338 765 374 758Q410 751 432 742L394 633Q377 638 356.50 642.50Q336 647 311 647Q280 647 265.50 628Q251 609 251 580L251 546L380 546L380 434Z"  horiz-adv-x="387" vert-adv-y="1000"  />

      
      <glyph glyph-name="uni67" unicode="&#x67;" d="M255 556Q356 556 413 476L417 476L429 546L555 546L555-1Q555-118 486-179Q417-240 282-240Q224-240 174.50-233Q125-226 78-208L78-89Q178-131 291-131Q406-131 406-7L406 4Q406 20 407 38.50Q408 57 410 71L406 71Q378 28 339 9Q300-10 251-10Q154-10 99.50 64.50Q45 139 45 272Q45 406 101 481Q157 556 255 556M302 435Q197 435 197 270Q197 107 304 107Q361 107 388.50 139.50Q416 172 416 253L416 271Q416 359 389 397Q362 435 302 435Z"  horiz-adv-x="633" vert-adv-y="1000"  />

      
      <glyph glyph-name="uni68" unicode="&#x68;" d="M227 760L227 605Q227 564 224.50 527.50Q222 491 220 476L228 476Q254 518 295 537Q336 556 386 556Q474 556 528 508.50Q582 461 582 356L582 0L433 0L433 319Q433 437 345 437Q278 437 252.50 390.50Q227 344 227 257L227 0L78 0L78 760L227 760Z"  horiz-adv-x="657" vert-adv-y="1000"  />

      
      <glyph glyph-name="uni69" unicode="&#x69;" d="M153 760Q186 760 210 744.50Q234 729 234 687Q234 646 210 630Q186 614 153 614Q119 614 95.50 630Q72 646 72 687Q72 729 95.50 744.50Q119 760 153 760M227 546L227 0L78 0L78 546L227 546Z"  horiz-adv-x="305" vert-adv-y="1000"  />

      
      <glyph glyph-name="uni6a" unicode="&#x6a;" d="M72 687Q72 729 95.50 744.50Q119 760 153 760Q186 760 210 744.50Q234 729 234 687Q234 646 210 630Q186 614 153 614Q119 614 95.50 630Q72 646 72 687M34-240Q8-240-19-236.50Q-46-233-64-228L-64-111Q-46-116-30-118Q-14-120 6-120Q36-120 57-103Q78-86 78-37L78 546L227 546L227-59Q227-109 208-150Q189-191 146.50-215.50Q104-240 34-240Z"  horiz-adv-x="305" vert-adv-y="1000"  />

      
      <glyph glyph-name="uni6b" unicode="&#x6b;" d="M227 760L227 420Q227 389 224.50 358.50Q222 328 219 297L221 297Q236 318 252 339Q268 360 286 380L439 546L607 546L390 309L620 0L448 0L291 221L227 170L227 0L78 0L78 760L227 760Z"  horiz-adv-x="620" vert-adv-y="1000"  />

      
      <glyph glyph-name="uni6c" unicode="&#x6c;" d="M227 0L78 0L78 760L227 760L227 0Z"  horiz-adv-x="305" vert-adv-y="1000"  />

      
      <glyph glyph-name="uni6d" unicode="&#x6d;" d="M719 556Q812 556 859.50 508.50Q907 461 907 356L907 0L758 0L758 319Q758 437 676 437Q617 437 592 395Q567 353 567 274L567 0L418 0L418 319Q418 437 336 437Q274 437 250.50 390.50Q227 344 227 257L227 0L78 0L78 546L192 546L212 476L220 476Q245 518 288.50 537Q332 556 379 556Q439 556 480.50 536.50Q522 517 545 476L558 476Q583 518 627.50 537Q672 556 719 556Z"  horiz-adv-x="982" vert-adv-y="1000"  />

      
      <glyph glyph-name="uni6e" unicode="&#x6e;" d="M388 556Q476 556 529 508.50Q582 461 582 356L582 0L433 0L433 319Q433 378 412 407.50Q391 437 345 437Q277 437 252 390.50Q227 344 227 257L227 0L78 0L78 546L192 546L212 476L220 476Q246 518 291.50 537Q337 556 388 556Z"  horiz-adv-x="657" vert-adv-y="1000"  />

      
      <glyph glyph-name="uni6f" unicode="&#x6f;" d="M574 274Q574 138 502.50 64Q431-10 308-10Q232-10 172.50 23Q113 56 79 119.50Q45 183 45 274Q45 410 116 483Q187 556 311 556Q388 556 447 523Q506 490 540 427Q574 364 574 274M197 274Q197 193 223.50 151.50Q250 110 310 110Q369 110 395.50 151.50Q422 193 422 274Q422 355 395.50 395.50Q369 436 309 436Q250 436 223.50 395.50Q197 355 197 274Z"  horiz-adv-x="619" vert-adv-y="1000"  />

      
      <glyph glyph-name="uni70" unicode="&#x70;" d="M382 556Q474 556 531 484.50Q588 413 588 274Q588 134 529 62Q470-10 378-10Q319-10 284 11.50Q249 33 227 60L219 60Q227 18 227-20L227-240L78-240L78 546L199 546L220 475L227 475Q249 508 286 532Q323 556 382 556M334 437Q276 437 252 400.50Q228 364 227 291L227 275Q227 196 250.50 153.50Q274 111 336 111Q387 111 411.50 153.50Q436 196 436 276Q436 437 334 437Z"  horiz-adv-x="633" vert-adv-y="1000"  />

      
      <glyph glyph-name="uni71" unicode="&#x71;" d="M406-240L406-11Q406 30 412 71L406 71Q385 37 348 13.50Q311-10 251-10Q159-10 102 61.50Q45 133 45 272Q45 412 103 484Q161 556 254 556Q314 556 351.50 533Q389 510 412 476L416 476L429 546L555 546L555-240L406-240M304 107Q366 107 390 143.50Q414 180 416 253L416 271Q416 350 391.50 392.50Q367 435 302 435Q249 435 223 392.50Q197 350 197 270Q197 107 304 107Z"  horiz-adv-x="633" vert-adv-y="1000"  />

      
      <glyph glyph-name="uni72" unicode="&#x72;" d="M383 556Q394 556 409 555Q424 554 433 552L422 412Q414 414 401 415.50Q388 417 378 417Q340 417 305 403.50Q270 390 248.50 360Q227 330 227 278L227 0L78 0L78 546L191 546L213 454L220 454Q244 496 286 526Q328 556 383 556Z"  horiz-adv-x="454" vert-adv-y="1000"  />

      
      <glyph glyph-name="uni73" unicode="&#x73;" d="M459 162Q459 79 400.50 34.50Q342-10 226-10Q169-10 128-2.50Q87 5 46 22L46 145Q90 125 141 112Q192 99 231 99Q274 99 293 112Q312 125 312 146Q312 160 304.50 171Q297 182 272 196Q247 210 194 232Q142 254 109.50 275.50Q77 297 61 327.50Q45 358 45 404Q45 480 104 518Q163 556 261 556Q312 556 358 546Q404 536 453 513L408 406Q368 423 332 434.50Q296 446 259 446Q193 446 193 410Q193 397 201.50 386.50Q210 376 234.50 364Q259 352 307 332Q354 313 388 292.50Q422 272 440.50 241Q459 210 459 162Z"  horiz-adv-x="497" vert-adv-y="1000"  />

      
      <glyph glyph-name="uni74" unicode="&#x74;" d="M308 109Q333 109 356 113.50Q379 118 402 126L402 15Q378 4 342.50-3Q307-10 265-10Q216-10 177.50 6Q139 22 116.50 61Q94 100 94 171L94 434L23 434L23 497L105 547L148 662L243 662L243 546L396 546L396 434L243 434L243 171Q243 140 261 124.50Q279 109 308 109Z"  horiz-adv-x="434" vert-adv-y="1000"  />

      
      <glyph glyph-name="uni75" unicode="&#x75;" d="M579 546L579 0L465 0L445 70L437 70Q411 28 365.50 9Q320-10 269-10Q181-10 128 37.50Q75 85 75 190L75 546L224 546L224 227Q224 168 245 138.50Q266 109 312 109Q380 109 405 155.50Q430 202 430 289L430 546L579 546Z"  horiz-adv-x="657" vert-adv-y="1000"  />

      
      <glyph glyph-name="uni76" unicode="&#x76;" d="M208 0L0 546L156 546L261 235Q270 207 275 177Q280 147 282 123L286 123Q289 177 308 235L413 546L569 546L361 0L208 0Z"  horiz-adv-x="569" vert-adv-y="1000"  />

      
      <glyph glyph-name="uni77" unicode="&#x77;" d="M527 0L485 191Q481 208 473.50 241.50Q466 275 457 313.50Q448 352 440 384.50Q432 417 429 432L425 432Q422 417 414.50 384.50Q407 352 398 313.50Q389 275 381 241Q373 207 369 189L325 0L165 0L10 546L158 546L221 304Q228 278 233.50 243.50Q239 209 243.50 176.50Q248 144 251 125L255 125Q256 139 259 162.50Q262 186 266.50 211Q271 236 274.50 256Q278 276 280 284L347 546L511 546L575 284Q578 270 584 239Q590 208 594 176Q598 144 599 125L603 125Q605 142 610 174.50Q615 207 621.50 242.50Q628 278 635 304L700 546L846 546L689 0L527 0Z"  horiz-adv-x="856" vert-adv-y="1000"  />

      
      <glyph glyph-name="uni78" unicode="&#x78;" d="M190 279L14 546L183 546L289 372L396 546L565 546L387 279L573 0L404 0L289 187L174 0L5 0L190 279Z"  horiz-adv-x="578" vert-adv-y="1000"  />

      
      <glyph glyph-name="uni79" unicode="&#x79;" d="M0 546L163 546L266 239Q274 216 278 193Q282 170 284 144L287 144Q290 170 295 193Q300 216 308 239L409 546L569 546L338-70Q306-155 247-197.50Q188-240 110-240Q84-240 66-237.50Q48-235 34-232L34-114Q44-116 60-118Q76-120 93-120Q140-120 167-91.50Q194-63 208-23L217 4L0 546Z"  horiz-adv-x="569" vert-adv-y="1000"  />

      
      <glyph glyph-name="uni7a" unicode="&#x7a;" d="M458 0L27 0L27 88L280 432L42 432L42 546L449 546L449 449L203 114L458 114L458 0Z"  horiz-adv-x="488" vert-adv-y="1000"  />

      
      <glyph glyph-name="uni7b" unicode="&#x7b;" d="M354-158Q268-158 222-144Q176-130 158-100Q140-70 140-22L140 132Q140 179 108 199Q76 219 15 219L15 336Q76 336 108 356Q140 376 140 423L140 578Q140 626 158 656Q176 686 222 700Q268 714 354 714L354 604Q315 603 292 590Q269 577 269 535L269 389Q269 298 155 281L155 275Q269 258 269 167L269 21Q269-21 292-34Q315-47 354-48L354-158Z"  horiz-adv-x="394" vert-adv-y="1000"  />

      
      <glyph glyph-name="uni7c" unicode="&#x7c;" d="M222 757L329 757L329-227L222-227L222 757Z"  horiz-adv-x="551" vert-adv-y="1000"  />

      
      <glyph glyph-name="uni7d" unicode="&#x7d;" d="M40-158L40-48Q79-47 102-34Q125-21 125 21L125 167Q125 258 239 275L239 281Q125 298 125 389L125 535Q125 577 102 590Q79 603 40 604L40 714Q126 714 172 700Q218 686 236 656Q254 626 254 578L254 423Q254 376 286 356Q318 336 379 336L379 219Q318 219 286 199Q254 179 254 132L254-22Q254-70 236-100Q218-130 172-144Q126-158 40-158Z"  horiz-adv-x="394" vert-adv-y="1000"  />

      
      <glyph glyph-name="uni7e" unicode="&#x7e;" d="M268 301Q231 317 205.50 322.50Q180 328 157 328Q128 328 98 311Q68 294 43 269L43 382Q93 435 168 435Q197 435 226.50 429.50Q256 424 303 404Q340 388 366 382.50Q392 377 414 377Q442 377 472.50 394Q503 411 528 436L528 323Q478 270 403 270Q374 270 344.50 276Q315 282 268 301Z"  horiz-adv-x="572" vert-adv-y="1000"  />

      
      <glyph glyph-name="unia1" unicode="&#xa1;" d="M228 463Q228 417 203 398.50Q178 380 142 380Q108 380 82.50 398.50Q57 417 57 463Q57 507 82.50 526.50Q108 546 142 546Q178 546 203 526.50Q228 507 228 463M82 296L201 296L226-180L57-180L82 296Z"  horiz-adv-x="286" vert-adv-y="1000"  />

      
      <glyph glyph-name="unia2" unicode="&#xa2;" d="M362 724L362 647Q409 645 444.50 634.50Q480 624 508 611L464 496Q429 510 398.50 519Q368 528 338 528Q222 528 222 363Q222 281 252 242Q282 203 338 203Q384 203 418 213Q452 223 491 240L491 116Q460 101 428.50 92.50Q397 84 362 82L362-10L275-10L275 86Q178 100 124 166Q70 232 70 362Q70 456 95.50 514.50Q121 573 167.50 603.50Q214 634 275 643L275 724L362 724Z"  horiz-adv-x="572" vert-adv-y="1000"  />

      
      <glyph glyph-name="unia3" unicode="&#xa3;" d="M342 724Q396 724 444.50 712Q493 700 532 684L487 572Q452 586 418.50 594.50Q385 603 354 603Q322 603 298.50 584.50Q275 566 275 519L275 425L458 425L458 318L275 318L275 248Q275 195 251 167.50Q227 140 201 127L552 127L552 0L40 0L40 121Q81 139 104.50 164.50Q128 190 128 247L128 318L41 318L41 425L128 425L128 520Q128 594 157 638.50Q186 683 234.50 703.50Q283 724 342 724Z"  horiz-adv-x="572" vert-adv-y="1000"  />

      
      <glyph glyph-name="unia4" unicode="&#xa4;" d="M92 353Q92 379 99 403.50Q106 428 118 449L55 511L127 583L189 521Q210 533 235 540Q260 547 285 547Q336 547 381 520L443 583L516 513L453 450Q465 430 472 404.50Q479 379 479 353Q479 300 453 256L514 195L443 124L381 185Q360 174 335.50 167Q311 160 285 160Q229 160 188 185L127 125L56 196L118 257Q92 301 92 353M193 353Q193 315 220 288Q247 261 285 261Q324 261 351.50 288Q379 315 379 353Q379 392 351.50 419Q324 446 285 446Q247 446 220 419Q193 392 193 353Z"  horiz-adv-x="572" vert-adv-y="1000"  />

      
      <glyph glyph-name="unia5" unicode="&#xa5;" d="M285 420L414 714L567 714L380 349L475 349L475 262L355 262L355 195L475 195L475 108L355 108L355 0L215 0L215 108L94 108L94 195L215 195L215 262L94 262L94 349L187 349L3 714L157 714L285 420Z"  horiz-adv-x="572" vert-adv-y="1000"  />

      
      <glyph glyph-name="unia6" unicode="&#xa6;" d="M222 757L329 757L329 359L222 359L222 757M222 171L329 171L329-227L222-227L222 171Z"  horiz-adv-x="551" vert-adv-y="1000"  />

      
      <glyph glyph-name="unia7" unicode="&#xa7;" d="M59 391Q59 434 78.50 464Q98 494 124 512Q93 532 76 560Q59 588 59 625Q59 688 113.50 726.50Q168 765 257 765Q306 765 349.50 753.50Q393 742 434 724L394 631Q361 647 326.50 659.50Q292 672 254 672Q214 672 196 661Q178 650 178 627Q178 602 202.50 585Q227 568 282 546Q352 518 394.50 479Q437 440 437 381Q437 332 420 302.50Q403 273 376 255Q406 236 421.50 210Q437 184 437 148Q437 76 379 33Q321-10 222-10Q169-10 127.50 0Q86 10 52 29L52 130Q90 110 137 96Q184 82 222 82Q277 82 297 98.50Q317 115 317 139Q317 156 309.50 168Q302 180 280.50 192.50Q259 205 216 223Q166 244 131 265.50Q96 287 77.50 316.50Q59 346 59 391M168 402Q168 372 195.50 348.50Q223 325 281 301L288 298Q302 308 314 325Q326 342 326 368Q326 398 303 421.50Q280 445 212 469Q195 462 181.50 444.50Q168 427 168 402Z"  horiz-adv-x="486" vert-adv-y="1000"  />

      
      <glyph glyph-name="unia8" unicode="&#xa8;" d="M136 686Q136 720 156 736Q176 752 204 752Q232 752 252.50 736Q273 720 273 686Q273 653 252.50 637Q232 621 204 621Q176 621 156 637Q136 653 136 686M333 686Q333 720 353 736Q373 752 402 752Q430 752 450.50 736Q471 720 471 686Q471 653 450.50 637Q430 621 402 621Q373 621 353 637Q333 653 333 686Z"  horiz-adv-x="607" vert-adv-y="1000"  />

      
      <glyph glyph-name="unia9" unicode="&#xa9;" d="M416-10Q336-10 269 17Q202 44 152.50 93.50Q103 143 76 210Q49 277 49 357Q49 433 76.50 499.50Q104 566 154 616.50Q204 667 271 695.50Q338 724 416 724Q492 724 558.50 697Q625 670 675.50 620.50Q726 571 754.50 504Q783 437 783 357Q783 277 756 210Q729 143 679.50 93.50Q630 44 563 17Q496-10 416-10M416 54Q498 54 565.50 93Q633 132 673 200Q713 268 713 357Q713 420 690.50 475Q668 530 628 572Q588 614 533.50 637.50Q479 661 416 661Q330 661 262.50 622Q195 583 156 514.50Q117 446 117 357Q117 268 155.50 200Q194 132 261 93Q328 54 416 54M431 128Q329 128 278.50 191Q228 254 228 357Q228 424 252 475.50Q276 527 322 556.50Q368 586 435 586Q500 586 558 556L529 489Q479 515 436 515Q377 515 344.50 472.50Q312 430 312 357Q312 280 340.50 239Q369 198 435 198Q458 198 486.50 204.50Q515 211 540 221L540 152Q516 142 491 135Q466 128 431 128Z"  horiz-adv-x="832" vert-adv-y="1000"  />

      
      <glyph glyph-name="uniaa" unicode="&#xaa;" d="M200 722Q271 722 305.50 686Q340 650 340 589L340 373L274 373L259 427Q215 367 141 367Q88 367 55.50 393.50Q23 420 23 476Q23 534 68 558.50Q113 583 194 587L242 589L242 597Q242 646 180 646Q158 646 130.50 638Q103 630 74 616L42 682Q74 698 113 710Q152 722 200 722M242 531L194 528Q150 525 136.50 509.50Q123 494 123 477Q123 458 134 449.50Q145 441 161 441Q198 441 220 461.50Q242 482 242 513L242 531Z"  horiz-adv-x="383" vert-adv-y="1000"  />

      
      <glyph glyph-name="uniab" unicode="&#xab;" d="M40 280L221 502L328 444L192 274L328 104L221 46L40 267L40 280M287 280L468 502L575 444L439 274L575 104L468 46L287 267L287 280Z"  horiz-adv-x="615" vert-adv-y="1000"  />

      
      <glyph glyph-name="uniac" unicode="&#xac;" d="M528 406L528 121L421 121L421 299L43 299L43 406L528 406Z"  horiz-adv-x="572" vert-adv-y="1000"  />

      
      <glyph glyph-name="uniad" unicode="&#xad;" d="M30 207L30 329L292 329L292 207L30 207Z"  horiz-adv-x="322" vert-adv-y="1000"  />

      
      <glyph glyph-name="uniae" unicode="&#xae;" d="M416-10Q336-10 269 17Q202 44 152.50 93.50Q103 143 76 210Q49 277 49 357Q49 433 76.50 499.50Q104 566 154 616.50Q204 667 271 695.50Q338 724 416 724Q492 724 558.50 697Q625 670 675.50 620.50Q726 571 754.50 504Q783 437 783 357Q783 277 756 210Q729 143 679.50 93.50Q630 44 563 17Q496-10 416-10M416 54Q498 54 565.50 93Q633 132 673 200Q713 268 713 357Q713 420 690.50 475Q668 530 628 572Q588 614 533.50 637.50Q479 661 416 661Q330 661 262.50 622Q195 583 156 514.50Q117 446 117 357Q117 268 155.50 200Q194 132 261 93Q328 54 416 54M274 138L274 580L407 580Q489 580 527 545Q565 510 565 446Q565 399 541 371.50Q517 344 487 332L603 138L512 138L417 306L355 306L355 138L274 138M355 373L405 373Q444 373 463.50 392.50Q483 412 483 444Q483 479 465.50 495Q448 511 404 511L355 511L355 373Z"  horiz-adv-x="832" vert-adv-y="1000"  />

      
      <glyph glyph-name="uniaf" unicode="&#xaf;" d="M503 760L-3 760L-3 858L503 858L503 760Z"  horiz-adv-x="500" vert-adv-y="1000"  />

      
      <glyph glyph-name="unib0" unicode="&#xb0;" d="M214 387Q162 387 123 408.50Q84 430 61.50 468Q39 506 39 555Q39 604 61.50 642Q84 680 123 702Q162 724 214 724Q266 724 305 702.50Q344 681 366 642.50Q388 604 388 555Q388 506 366 468Q344 430 305 408.50Q266 387 214 387M214 480Q246 480 268 500Q290 520 290 555Q290 591 268 611.50Q246 632 214 632Q182 632 160 611.50Q138 591 138 555Q138 520 160 500Q182 480 214 480Z"  horiz-adv-x="428" vert-adv-y="1000"  />

      
      <glyph glyph-name="unib1" unicode="&#xb1;" d="M339 436L528 436L528 329L339 329L339 141L232 141L232 329L43 329L43 436L232 436L232 626L339 626L339 436M43 0L43 107L528 107L528 0L43 0Z"  horiz-adv-x="572" vert-adv-y="1000"  />

      
      <glyph glyph-name="unib2" unicode="&#xb2;" d="M343 416L27 416L27 498L136 605Q181 648 197.50 672Q214 696 214 722Q214 740 202 750Q190 760 171 760Q132 760 83 717L23 791Q54 819 94 836.50Q134 854 187 854Q252 854 291.50 822.50Q331 791 331 732Q331 687 305.50 650Q280 613 222 560L171 514L343 514L343 416Z"  horiz-adv-x="379" vert-adv-y="1000"  />

      
      <glyph glyph-name="unib3" unicode="&#xb3;" d="M184 853Q245 853 285 822.50Q325 792 325 740Q325 706 305.50 681.50Q286 657 242 643L242 637Q292 626 315.50 598Q339 570 339 535Q339 476 296 442Q253 408 162 408Q91 408 29 442L29 535Q61 516 93.50 503.50Q126 491 161 491Q231 491 231 543Q231 563 214 579Q197 595 150 595L95 595L95 673L140 673Q191 673 205.50 689.50Q220 706 220 726Q220 745 208 757Q196 769 171 769Q148 769 127.50 759.50Q107 750 79 731L30 800Q60 822 97 837.50Q134 853 184 853Z"  horiz-adv-x="379" vert-adv-y="1000"  />

      
      <glyph glyph-name="unib4" unicode="&#xb4;" d="M322 766L322 756Q308 742 285 722Q262 702 235.50 680Q209 658 183.50 638.50Q158 619 139 606L40 606L40 619Q56 638 77.50 663.50Q99 689 119.50 716.50Q140 744 155 766L322 766Z"  horiz-adv-x="362" vert-adv-y="1000"  />

      
      <glyph glyph-name="unib5" unicode="&#xb5;" d="M582 546L582 0L469 0L448 73L441 73Q421 32 391.50 11Q362-10 319-10Q258-10 225 34L222 34Q224 24 225 2.50Q226-19 226.50-42.50Q227-66 227-84L227-240L78-240L78 546L227 546L227 227Q227 109 316 109Q383 109 408 155.50Q433 202 433 289L433 546L582 546Z"  horiz-adv-x="660" vert-adv-y="1000"  />

      
      <glyph glyph-name="unib6" unicode="&#xb6;" d="M570-127L491-127L491 662L410 662L410-127L331-127L331 273Q301 264 260 264Q198 264 152 287Q106 310 80.50 364Q55 418 55 509Q55 604 82.50 659Q110 714 160 737Q210 760 275 760L570 760L570-127Z"  horiz-adv-x="655" vert-adv-y="1000"  />

      
      <glyph glyph-name="unib7" unicode="&#xb7;" d="M57 352Q57 398 82 416.50Q107 435 143 435Q178 435 203 416.50Q228 398 228 352Q228 308 203 288.50Q178 269 143 269Q107 269 82 288.50Q57 308 57 352Z"  horiz-adv-x="285" vert-adv-y="1000"  />

      
      <glyph glyph-name="unib8" unicode="&#xb8;" d="M204-122Q204-178 171-209Q138-240 53-240Q31-240 13.50-237Q-4-234-18-230L-18-148Q-4-152 16.50-155Q37-158 52-158Q66-158 76.50-151.50Q87-145 87-128Q87-110 69-96Q51-82 6-75L44 0L138 0L125-30Q155-40 179.50-62.50Q204-85 204-122Z"  horiz-adv-x="205" vert-adv-y="1000"  />

      
      <glyph glyph-name="unib9" unicode="&#xb9;" d="M285 844L285 416L169 416L169 634Q169 647 169.50 668Q170 689 171 708.50Q172 728 173 735Q167 727 155.50 715.50Q144 704 136 697L98 667L45 729L192 844L285 844Z"  horiz-adv-x="379" vert-adv-y="1000"  />

      
      <glyph glyph-name="uniba" unicode="&#xba;" d="M360 545Q360 460 315 413.50Q270 367 193 367Q121 367 74.50 413.50Q28 460 28 545Q28 630 73 676Q118 722 195 722Q266 722 313 676Q360 630 360 545M127 545Q127 496 143 471.50Q159 447 194 447Q260 447 260 545Q260 642 194 642Q159 642 143 618Q127 594 127 545Z"  horiz-adv-x="388" vert-adv-y="1000"  />

      
      <glyph glyph-name="unibb" unicode="&#xbb;" d="M575 267L394 46L287 104L423 274L287 444L394 502L575 280L575 267M328 267L147 46L40 104L176 274L40 444L147 502L328 280L328 267Z"  horiz-adv-x="615" vert-adv-y="1000"  />

      
      <glyph glyph-name="unibc" unicode="&#xbc;" d="M156 0L552 714L669 714L273 0L156 0M146 286L146 504Q146 517 146.50 538Q147 559 148 578.50Q149 598 150 605Q144 597 132.50 585.50Q121 574 113 567L75 537L22 599L169 714L262 714L262 286L146 286M644 0L644 74L457 74L457 149L645 431L760 431L760 156L821 156L821 74L760 74L760 0L644 0M547 156L644 156L644 236Q644 278 647 326Q642 312 630 287Q618 262 609 249L547 156Z"  horiz-adv-x="830" vert-adv-y="1000"  />

      
      <glyph glyph-name="unibd" unicode="&#xbd;" d="M156 0L552 714L669 714L273 0L156 0M146 286L146 504Q146 517 146.50 538Q147 559 148 578.50Q149 598 150 605Q144 597 132.50 585.50Q121 574 113 567L75 537L22 599L169 714L262 714L262 286L146 286M522 0L522 82L631 189Q676 232 692.50 256Q709 280 709 306Q709 324 697.50 334Q686 344 666 344Q627 344 578 301L518 375Q550 403 589.50 420.50Q629 438 682 438Q746 438 786 406.50Q826 375 826 316Q826 271 801 234Q776 197 717 144L666 98L838 98L838 0L522 0Z"  horiz-adv-x="874" vert-adv-y="1000"  />

      
      <glyph glyph-name="unibe" unicode="&#xbe;" d="M177 278Q106 278 44 312L44 405Q76 386 108.50 373.50Q141 361 176 361Q246 361 246 413Q246 433 229 449Q212 465 165 465L110 465L110 543L155 543Q206 543 220.50 559.50Q235 576 235 596Q235 615 223 627Q211 639 186 639Q163 639 142.50 629.50Q122 620 94 601L45 670Q75 692 112 707.50Q149 723 199 723Q260 723 300 692.50Q340 662 340 610Q340 576 320 551.50Q300 527 257 513L257 507Q306 496 330 468Q354 440 354 405Q354 346 311 312Q268 278 177 278M191 0L587 714L704 714L308 0L191 0M659 0L659 74L472 74L472 149L660 431L775 431L775 156L836 156L836 74L775 74L775 0L659 0M562 156L659 156L659 236Q659 278 662 326Q657 312 645 287Q633 262 624 249L562 156Z"  horiz-adv-x="845" vert-adv-y="1000"  />

      
      <glyph glyph-name="unibf" unicode="&#xbf;" d="M345 295L345 259Q345 210 324 175.50Q303 141 252 104Q207 72 187.50 48.50Q168 25 168-7Q168-38 191.50-55Q215-72 257-72Q299-72 340-59Q381-46 424-24L477-131Q428-158 371-175Q314-192 246-192Q142-192 84.50-142Q27-92 27-15Q27 26 40 56Q53 86 79 112Q105 138 144 166Q174 188 189.50 202.50Q205 217 210.50 231.50Q216 246 216 266L216 295L345 295M361 462Q361 416 336 397.50Q311 379 275 379Q240 379 215 397.50Q190 416 190 462Q190 506 215 525.50Q240 545 275 545Q311 545 336 525.50Q361 506 361 462Z"  horiz-adv-x="477" vert-adv-y="1000"  />

      
      <glyph glyph-name="unic0" unicode="&#xc0;" d="M527 0L475 170L215 170L163 0L0 0L252 717L437 717L690 0L527 0M439 297L387 463Q382 480 374 506Q366 532 358 559Q350 586 345 606Q340 586 331.50 556.50Q323 527 315.50 500.50Q308 474 304 463L253 297L439 297M321 934Q336 912 356.50 884.50Q377 857 398.50 831.50Q420 806 436 787L436 774L337 774Q318 787 292.50 806.50Q267 826 240.50 848Q214 870 191 890Q168 910 154 924L154 934L321 934Z"  horiz-adv-x="690" vert-adv-y="1000"  />

      
      <glyph glyph-name="unic1" unicode="&#xc1;" d="M527 0L475 170L215 170L163 0L0 0L252 717L437 717L690 0L527 0M439 297L387 463Q382 480 374 506Q366 532 358 559Q350 586 345 606Q340 586 331.50 556.50Q323 527 315.50 500.50Q308 474 304 463L253 297L439 297M537 934L537 924Q523 910 500 890Q477 870 450.50 848Q424 826 398.50 806.50Q373 787 354 774L255 774L255 787Q271 806 292.50 831.50Q314 857 334.50 884.50Q355 912 370 934L537 934Z"  horiz-adv-x="690" vert-adv-y="1000"  />

      
      <glyph glyph-name="unic2" unicode="&#xc2;" d="M527 0L475 170L215 170L163 0L0 0L252 717L437 717L690 0L527 0M439 297L387 463Q382 480 374 506Q366 532 358 559Q350 586 345 606Q340 586 331.50 556.50Q323 527 315.50 500.50Q308 474 304 463L253 297L439 297M433 934Q447 912 469.50 884.50Q492 857 516 831Q540 805 558 787L558 774L459 774Q433 790 401.50 811.50Q370 833 345 860Q319 833 289 811.50Q259 790 233 774L134 774L134 787Q152 806 176 831.50Q200 857 222.50 884.50Q245 912 259 934L433 934Z"  horiz-adv-x="690" vert-adv-y="1000"  />

      
      <glyph glyph-name="unic3" unicode="&#xc3;" d="M527 0L475 170L215 170L163 0L0 0L252 717L437 717L690 0L527 0M439 297L387 463Q382 480 374 506Q366 532 358 559Q350 586 345 606Q340 586 331.50 556.50Q323 527 315.50 500.50Q308 474 304 463L253 297L439 297M142 773Q148 851 185.50 887.50Q223 924 275 924Q302 924 327 911Q352 898 377 885.50Q402 873 425 873Q440 873 454 886Q468 899 474 925L547 925Q541 848 503 811Q465 774 414 774Q388 774 362 786.50Q336 799 312 812Q288 825 264 825Q249 825 235 812Q221 799 215 773L142 773Z"  horiz-adv-x="690" vert-adv-y="1000"  />

      
      <glyph glyph-name="unic4" unicode="&#xc4;" d="M527 0L475 170L215 170L163 0L0 0L252 717L437 717L690 0L527 0M439 297L387 463Q382 480 374 506Q366 532 358 559Q350 586 345 606Q340 586 331.50 556.50Q323 527 315.50 500.50Q308 474 304 463L253 297L439 297M177 854Q177 888 197 904Q217 920 245 920Q273 920 293.50 904Q314 888 314 854Q314 821 293.50 805Q273 789 245 789Q217 789 197 805Q177 821 177 854M374 854Q374 888 394 904Q414 920 443 920Q471 920 491.50 904Q512 888 512 854Q512 821 491.50 805Q471 789 443 789Q414 789 394 805Q374 821 374 854Z"  horiz-adv-x="690" vert-adv-y="1000"  />

      
      <glyph glyph-name="unic5" unicode="&#xc5;" d="M527 0L475 170L215 170L163 0L0 0L252 717L437 717L690 0L527 0M439 297L387 463Q382 480 374 506Q366 532 358 559Q350 586 345 606Q340 586 331.50 556.50Q323 527 315.50 500.50Q308 474 304 463L253 297L439 297M344 648Q290 648 256.50 679Q223 710 223 764Q223 818 256.50 849Q290 880 344 880Q396 880 432 849Q468 818 468 765Q468 710 432.50 679Q397 648 344 648M344 717Q364 717 377.50 729.50Q391 742 391 764Q391 786 377.50 798.50Q364 811 344 811Q324 811 310.50 798.50Q297 786 297 764Q297 742 309 729.50Q321 717 344 717Z"  horiz-adv-x="690" vert-adv-y="1000"  />

      
      <glyph glyph-name="unic6" unicode="&#xc6;" d="M893 0L467 0L467 170L227 170L154 0L0 0L320 714L893 714L893 590L618 590L618 433L875 433L875 309L618 309L618 125L893 125L893 0M282 297L467 297L467 585L405 585L282 297Z"  horiz-adv-x="952" vert-adv-y="1000"  />

      
      <glyph glyph-name="unic7" unicode="&#xc7;" d="M393 598Q306 598 260 533Q214 468 214 355Q214 241 256.50 178.50Q299 116 393 116Q436 116 480 126Q524 136 575 154L575 27Q528 8 482-1Q436-10 379-10Q268-10 197 35.50Q126 81 92 163.50Q58 246 58 356Q58 464 97 547Q136 630 210.50 677Q285 724 393 724Q446 724 499.50 710.50Q553 697 602 674L553 551Q513 570 472.50 584Q432 598 393 598M486-122Q486-178 453-209Q420-240 335-240Q313-240 295.50-237Q278-234 264-230L264-148Q278-152 298.50-155Q319-158 334-158Q348-158 358.50-151.50Q369-145 369-128Q369-110 351-96Q333-82 288-75L326 0L420 0L407-30Q437-40 461.50-62.50Q486-85 486-122Z"  horiz-adv-x="637" vert-adv-y="1000"  />

      
      <glyph glyph-name="unic8" unicode="&#xc8;" d="M501 0L90 0L90 714L501 714L501 590L241 590L241 433L483 433L483 309L241 309L241 125L501 125L501 0M277 934Q292 912 312.50 884.50Q333 857 354.50 831.50Q376 806 392 787L392 774L293 774Q274 787 248.50 806.50Q223 826 196.50 848Q170 870 147 890Q124 910 110 924L110 934L277 934Z"  horiz-adv-x="560" vert-adv-y="1000"  />

      
      <glyph glyph-name="unic9" unicode="&#xc9;" d="M501 0L90 0L90 714L501 714L501 590L241 590L241 433L483 433L483 309L241 309L241 125L501 125L501 0M493 934L493 924Q479 910 456 890Q433 870 406.50 848Q380 826 354.50 806.50Q329 787 310 774L211 774L211 787Q227 806 248.50 831.50Q270 857 290.50 884.50Q311 912 326 934L493 934Z"  horiz-adv-x="560" vert-adv-y="1000"  />

      
      <glyph glyph-name="unica" unicode="&#xca;" d="M501 0L90 0L90 714L501 714L501 590L241 590L241 433L483 433L483 309L241 309L241 125L501 125L501 0M389 934Q403 912 425.50 884.50Q448 857 472 831Q496 805 514 787L514 774L415 774Q389 790 357.50 811.50Q326 833 301 860Q275 833 245 811.50Q215 790 189 774L90 774L90 787Q108 806 132 831.50Q156 857 178.50 884.50Q201 912 215 934L389 934Z"  horiz-adv-x="560" vert-adv-y="1000"  />

      
      <glyph glyph-name="unicb" unicode="&#xcb;" d="M501 0L90 0L90 714L501 714L501 590L241 590L241 433L483 433L483 309L241 309L241 125L501 125L501 0M133 854Q133 888 153 904Q173 920 201 920Q229 920 249.50 904Q270 888 270 854Q270 821 249.50 805Q229 789 201 789Q173 789 153 805Q133 821 133 854M330 854Q330 888 350 904Q370 920 399 920Q427 920 447.50 904Q468 888 468 854Q468 821 447.50 805Q427 789 399 789Q370 789 350 805Q330 821 330 854Z"  horiz-adv-x="560" vert-adv-y="1000"  />

      
      <glyph glyph-name="unicc" unicode="&#xcc;" d="M357 0L32 0L32 86L119 126L119 588L32 628L32 714L357 714L357 628L270 588L270 126L357 86L357 0M171 934Q186 912 206.50 884.50Q227 857 248.50 831.50Q270 806 286 787L286 774L187 774Q168 787 142.50 806.50Q117 826 90.50 848Q64 870 41 890Q18 910 4 924L4 934L171 934Z"  horiz-adv-x="389" vert-adv-y="1000"  />

      
      <glyph glyph-name="unicd" unicode="&#xcd;" d="M357 0L32 0L32 86L119 126L119 588L32 628L32 714L357 714L357 628L270 588L270 126L357 86L357 0M387 934L387 924Q373 910 350 890Q327 870 300.50 848Q274 826 248.50 806.50Q223 787 204 774L105 774L105 787Q121 806 142.50 831.50Q164 857 184.50 884.50Q205 912 220 934L387 934Z"  horiz-adv-x="389" vert-adv-y="1000"  />

      
      <glyph glyph-name="unice" unicode="&#xce;" d="M357 0L32 0L32 86L119 126L119 588L32 628L32 714L357 714L357 628L270 588L270 126L357 86L357 0M283 934Q297 912 319.50 884.50Q342 857 366 831Q390 805 408 787L408 774L309 774Q283 790 251.50 811.50Q220 833 195 860Q169 833 139 811.50Q109 790 83 774L-16 774L-16 787Q2 806 26 831.50Q50 857 72.50 884.50Q95 912 109 934L283 934Z"  horiz-adv-x="389" vert-adv-y="1000"  />

      
      <glyph glyph-name="unicf" unicode="&#xcf;" d="M357 0L32 0L32 86L119 126L119 588L32 628L32 714L357 714L357 628L270 588L270 126L357 86L357 0M27 854Q27 888 47 904Q67 920 95 920Q123 920 143.50 904Q164 888 164 854Q164 821 143.50 805Q123 789 95 789Q67 789 47 805Q27 821 27 854M224 854Q224 888 244 904Q264 920 293 920Q321 920 341.50 904Q362 888 362 854Q362 821 341.50 805Q321 789 293 789Q264 789 244 805Q224 821 224 854Z"  horiz-adv-x="389" vert-adv-y="1000"  />

      
      <glyph glyph-name="unid0" unicode="&#xd0;" d="M314 714Q426 714 508.50 674Q591 634 636.50 556Q682 478 682 364Q682 183 579 91.50Q476 0 292 0L90 0L90 291L23 291L23 415L90 415L90 714L314 714M321 590L241 590L241 415L357 415L357 291L241 291L241 125L305 125Q525 125 525 360Q525 478 471.50 534Q418 590 321 590Z"  horiz-adv-x="740" vert-adv-y="1000"  />

      
      <glyph glyph-name="unid1" unicode="&#xd1;" d="M723 0L531 0L220 540L216 540Q218 489 220.50 438Q223 387 225 336L225 0L90 0L90 714L281 714L591 179L594 179Q592 228 590 277Q588 326 587 376L587 714L723 714L723 0M204 773Q210 851 247.50 887.50Q285 924 337 924Q364 924 389 911Q414 898 439 885.50Q464 873 487 873Q502 873 516 886Q530 899 536 925L609 925Q603 848 565 811Q527 774 476 774Q450 774 424 786.50Q398 799 374 812Q350 825 326 825Q311 825 297 812Q283 799 277 773L204 773Z"  horiz-adv-x="813" vert-adv-y="1000"  />

      
      <glyph glyph-name="unid2" unicode="&#xd2;" d="M738 358Q738 247 701.50 164.50Q665 82 589.50 36Q514-10 398-10Q282-10 206.50 36Q131 82 94.50 165Q58 248 58 359Q58 470 94.50 552Q131 634 206.50 679.50Q282 725 399 725Q515 725 590 679.50Q665 634 701.50 551.50Q738 469 738 358M217 358Q217 246 260 181.50Q303 117 398 117Q495 117 537 181.50Q579 246 579 358Q579 470 537 534.50Q495 599 399 599Q303 599 260 534.50Q217 470 217 358M374 934Q389 912 409.50 884.50Q430 857 451.50 831.50Q473 806 489 787L489 774L390 774Q371 787 345.50 806.50Q320 826 293.50 848Q267 870 244 890Q221 910 207 924L207 934L374 934Z"  horiz-adv-x="796" vert-adv-y="1000"  />

      
      <glyph glyph-name="unid3" unicode="&#xd3;" d="M738 358Q738 247 701.50 164.50Q665 82 589.50 36Q514-10 398-10Q282-10 206.50 36Q131 82 94.50 165Q58 248 58 359Q58 470 94.50 552Q131 634 206.50 679.50Q282 725 399 725Q515 725 590 679.50Q665 634 701.50 551.50Q738 469 738 358M217 358Q217 246 260 181.50Q303 117 398 117Q495 117 537 181.50Q579 246 579 358Q579 470 537 534.50Q495 599 399 599Q303 599 260 534.50Q217 470 217 358M590 934L590 924Q576 910 553 890Q530 870 503.50 848Q477 826 451.50 806.50Q426 787 407 774L308 774L308 787Q324 806 345.50 831.50Q367 857 387.50 884.50Q408 912 423 934L590 934Z"  horiz-adv-x="796" vert-adv-y="1000"  />

      
      <glyph glyph-name="unid4" unicode="&#xd4;" d="M738 358Q738 247 701.50 164.50Q665 82 589.50 36Q514-10 398-10Q282-10 206.50 36Q131 82 94.50 165Q58 248 58 359Q58 470 94.50 552Q131 634 206.50 679.50Q282 725 399 725Q515 725 590 679.50Q665 634 701.50 551.50Q738 469 738 358M217 358Q217 246 260 181.50Q303 117 398 117Q495 117 537 181.50Q579 246 579 358Q579 470 537 534.50Q495 599 399 599Q303 599 260 534.50Q217 470 217 358M486 934Q500 912 522.50 884.50Q545 857 569 831Q593 805 611 787L611 774L512 774Q486 790 454.50 811.50Q423 833 398 860Q372 833 342 811.50Q312 790 286 774L187 774L187 787Q205 806 229 831.50Q253 857 275.50 884.50Q298 912 312 934L486 934Z"  horiz-adv-x="796" vert-adv-y="1000"  />

      
      <glyph glyph-name="unid5" unicode="&#xd5;" d="M738 358Q738 247 701.50 164.50Q665 82 589.50 36Q514-10 398-10Q282-10 206.50 36Q131 82 94.50 165Q58 248 58 359Q58 470 94.50 552Q131 634 206.50 679.50Q282 725 399 725Q515 725 590 679.50Q665 634 701.50 551.50Q738 469 738 358M217 358Q217 246 260 181.50Q303 117 398 117Q495 117 537 181.50Q579 246 579 358Q579 470 537 534.50Q495 599 399 599Q303 599 260 534.50Q217 470 217 358M195 773Q201 851 238.50 887.50Q276 924 328 924Q355 924 380 911Q405 898 430 885.50Q455 873 478 873Q493 873 507 886Q521 899 527 925L600 925Q594 848 556 811Q518 774 467 774Q441 774 415 786.50Q389 799 365 812Q341 825 317 825Q302 825 288 812Q274 799 268 773L195 773Z"  horiz-adv-x="796" vert-adv-y="1000"  />

      
      <glyph glyph-name="unid6" unicode="&#xd6;" d="M738 358Q738 247 701.50 164.50Q665 82 589.50 36Q514-10 398-10Q282-10 206.50 36Q131 82 94.50 165Q58 248 58 359Q58 470 94.50 552Q131 634 206.50 679.50Q282 725 399 725Q515 725 590 679.50Q665 634 701.50 551.50Q738 469 738 358M217 358Q217 246 260 181.50Q303 117 398 117Q495 117 537 181.50Q579 246 579 358Q579 470 537 534.50Q495 599 399 599Q303 599 260 534.50Q217 470 217 358M230 854Q230 888 250 904Q270 920 298 920Q326 920 346.50 904Q367 888 367 854Q367 821 346.50 805Q326 789 298 789Q270 789 250 805Q230 821 230 854M427 854Q427 888 447 904Q467 920 496 920Q524 920 544.50 904Q565 888 565 854Q565 821 544.50 805Q524 789 496 789Q467 789 447 805Q427 821 427 854Z"  horiz-adv-x="796" vert-adv-y="1000"  />

      
      <glyph glyph-name="unid7" unicode="&#xd7;" d="M433 575L508 502L359 353L506 205L433 131L284 278L137 132L64 206L209 353L63 500L137 575L284 429L433 575Z"  horiz-adv-x="572" vert-adv-y="1000"  />

      
      <glyph glyph-name="unid8" unicode="&#xd8;" d="M738 358Q738 247 701.50 164.50Q665 82 589.50 36Q514-10 398-10Q303-10 234 22L190-44L111 9L155 75Q106 124 82 196Q58 268 58 359Q58 470 94.50 552Q131 634 206.50 679.50Q282 725 399 725Q448 725 490 716.50Q532 708 567 691L608 752L686 701L643 637Q691 589 714.50 517.50Q738 446 738 358M217 358Q217 313 223.50 275Q230 237 244 208L491 577Q452 599 399 599Q303 599 260 534.50Q217 470 217 358M579 358Q579 447 554 503L310 136Q328 127 350 122Q372 117 398 117Q495 117 537 181.50Q579 246 579 358Z"  horiz-adv-x="796" vert-adv-y="1000"  />

      
      <glyph glyph-name="unid9" unicode="&#xd9;" d="M671 714L671 252Q671 178 638.50 118.50Q606 59 540 24.50Q474-10 375-10Q233-10 159 62.50Q85 135 85 254L85 714L236 714L236 277Q236 188 272 152.50Q308 117 379 117Q453 117 486.50 156Q520 195 520 278L520 714L671 714M354 934Q369 912 389.50 884.50Q410 857 431.50 831.50Q453 806 469 787L469 774L370 774Q351 787 325.50 806.50Q300 826 273.50 848Q247 870 224 890Q201 910 187 924L187 934L354 934Z"  horiz-adv-x="756" vert-adv-y="1000"  />

      
      <glyph glyph-name="unida" unicode="&#xda;" d="M671 714L671 252Q671 178 638.50 118.50Q606 59 540 24.50Q474-10 375-10Q233-10 159 62.50Q85 135 85 254L85 714L236 714L236 277Q236 188 272 152.50Q308 117 379 117Q453 117 486.50 156Q520 195 520 278L520 714L671 714M570 934L570 924Q556 910 533 890Q510 870 483.50 848Q457 826 431.50 806.50Q406 787 387 774L288 774L288 787Q304 806 325.50 831.50Q347 857 367.50 884.50Q388 912 403 934L570 934Z"  horiz-adv-x="756" vert-adv-y="1000"  />

      
      <glyph glyph-name="unidb" unicode="&#xdb;" d="M671 714L671 252Q671 178 638.50 118.50Q606 59 540 24.50Q474-10 375-10Q233-10 159 62.50Q85 135 85 254L85 714L236 714L236 277Q236 188 272 152.50Q308 117 379 117Q453 117 486.50 156Q520 195 520 278L520 714L671 714M466 934Q480 912 502.50 884.50Q525 857 549 831Q573 805 591 787L591 774L492 774Q466 790 434.50 811.50Q403 833 378 860Q352 833 322 811.50Q292 790 266 774L167 774L167 787Q185 806 209 831.50Q233 857 255.50 884.50Q278 912 292 934L466 934Z"  horiz-adv-x="756" vert-adv-y="1000"  />

      
      <glyph glyph-name="unidc" unicode="&#xdc;" d="M671 714L671 252Q671 178 638.50 118.50Q606 59 540 24.50Q474-10 375-10Q233-10 159 62.50Q85 135 85 254L85 714L236 714L236 277Q236 188 272 152.50Q308 117 379 117Q453 117 486.50 156Q520 195 520 278L520 714L671 714M210 854Q210 888 230 904Q250 920 278 920Q306 920 326.50 904Q347 888 347 854Q347 821 326.50 805Q306 789 278 789Q250 789 230 805Q210 821 210 854M407 854Q407 888 427 904Q447 920 476 920Q504 920 524.50 904Q545 888 545 854Q545 821 524.50 805Q504 789 476 789Q447 789 427 805Q407 821 407 854Z"  horiz-adv-x="756" vert-adv-y="1000"  />

      
      <glyph glyph-name="unidd" unicode="&#xdd;" d="M312 420L461 714L624 714L387 278L387 0L237 0L237 273L0 714L164 714L312 420M504 934L504 924Q490 910 467 890Q444 870 417.50 848Q391 826 365.50 806.50Q340 787 321 774L222 774L222 787Q238 806 259.50 831.50Q281 857 301.50 884.50Q322 912 337 934L504 934Z"  horiz-adv-x="624" vert-adv-y="1000"  />

      
      <glyph glyph-name="unide" unicode="&#xde;" d="M583 376Q583 315 558 262Q533 209 474.50 176Q416 143 316 143L241 143L241 0L90 0L90 714L241 714L241 602L328 602Q460 602 521.50 540.50Q583 479 583 376M241 265L290 265Q360 265 395 291Q430 317 430 376Q430 428 399 453.50Q368 479 302 479L241 479L241 265Z"  horiz-adv-x="628" vert-adv-y="1000"  />

      
      <glyph glyph-name="unidf" unicode="&#xdf;" d="M610 606Q610 569 596 542Q582 515 561 495Q540 475 519 460Q498 445 484 432.50Q470 420 470 407Q470 388 495 371.50Q520 355 576 318Q624 287 650 252.50Q676 218 676 159Q676 76 618.50 33Q561-10 451-10Q358-10 303 21L303 139Q326 123 366.50 110Q407 97 441 97Q480 97 501.50 112Q523 127 523 157Q523 174 516 187.50Q509 201 489.50 215.50Q470 230 431 252Q370 287 346 316Q322 345 322 385Q322 416 335.50 438Q349 460 369.50 476Q390 492 410.50 507Q431 522 444.50 539Q458 556 458 580Q458 611 426 630Q394 649 347 649Q294 649 260.50 625Q227 601 227 551L227 0L78 0L78 556Q78 627 113.50 673.50Q149 720 209.50 742.50Q270 765 347 765Q422 765 481.50 746.50Q541 728 575.50 692.50Q610 657 610 606Z"  horiz-adv-x="711" vert-adv-y="1000"  />

      
      <glyph glyph-name="unie0" unicode="&#xe0;" d="M302 557Q412 557 470.50 509.50Q529 462 529 364L529 0L425 0L396 74L392 74Q357 30 318 10Q279-10 211-10Q138-10 90 32Q42 74 42 163Q42 250 103 291Q164 332 286 337L381 340L381 364Q381 407 358.50 427Q336 447 296 447Q256 447 218 435.50Q180 424 142 407L93 508Q136 530 190 543.50Q244 557 302 557M381 253L323 251Q251 249 223 225Q195 201 195 162Q195 128 215 113.50Q235 99 267 99Q315 99 348 127.50Q381 156 381 208L381 253M278 766Q293 744 313.50 716.50Q334 689 355.50 663.50Q377 638 393 619L393 606L294 606Q275 619 249.50 638.50Q224 658 197.50 680Q171 702 148 722Q125 742 111 756L111 766L278 766Z"  horiz-adv-x="604" vert-adv-y="1000"  />

      
      <glyph glyph-name="unie1" unicode="&#xe1;" d="M302 557Q412 557 470.50 509.50Q529 462 529 364L529 0L425 0L396 74L392 74Q357 30 318 10Q279-10 211-10Q138-10 90 32Q42 74 42 163Q42 250 103 291Q164 332 286 337L381 340L381 364Q381 407 358.50 427Q336 447 296 447Q256 447 218 435.50Q180 424 142 407L93 508Q136 530 190 543.50Q244 557 302 557M381 253L323 251Q251 249 223 225Q195 201 195 162Q195 128 215 113.50Q235 99 267 99Q315 99 348 127.50Q381 156 381 208L381 253M494 766L494 756Q480 742 457 722Q434 702 407.50 680Q381 658 355.50 638.50Q330 619 311 606L212 606L212 619Q228 638 249.50 663.50Q271 689 291.50 716.50Q312 744 327 766L494 766Z"  horiz-adv-x="604" vert-adv-y="1000"  />

      
      <glyph glyph-name="unie2" unicode="&#xe2;" d="M302 557Q412 557 470.50 509.50Q529 462 529 364L529 0L425 0L396 74L392 74Q357 30 318 10Q279-10 211-10Q138-10 90 32Q42 74 42 163Q42 250 103 291Q164 332 286 337L381 340L381 364Q381 407 358.50 427Q336 447 296 447Q256 447 218 435.50Q180 424 142 407L93 508Q136 530 190 543.50Q244 557 302 557M381 253L323 251Q251 249 223 225Q195 201 195 162Q195 128 215 113.50Q235 99 267 99Q315 99 348 127.50Q381 156 381 208L381 253M390 766Q404 744 426.50 716.50Q449 689 473 663Q497 637 515 619L515 606L416 606Q390 622 358.50 643.50Q327 665 302 692Q276 665 246 643.50Q216 622 190 606L91 606L91 619Q109 638 133 663.50Q157 689 179.50 716.50Q202 744 216 766L390 766Z"  horiz-adv-x="604" vert-adv-y="1000"  />

      
      <glyph glyph-name="unie3" unicode="&#xe3;" d="M302 557Q412 557 470.50 509.50Q529 462 529 364L529 0L425 0L396 74L392 74Q357 30 318 10Q279-10 211-10Q138-10 90 32Q42 74 42 163Q42 250 103 291Q164 332 286 337L381 340L381 364Q381 407 358.50 427Q336 447 296 447Q256 447 218 435.50Q180 424 142 407L93 508Q136 530 190 543.50Q244 557 302 557M381 253L323 251Q251 249 223 225Q195 201 195 162Q195 128 215 113.50Q235 99 267 99Q315 99 348 127.50Q381 156 381 208L381 253M99 605Q105 683 142.50 719.50Q180 756 232 756Q259 756 284 743Q309 730 334 717.50Q359 705 382 705Q397 705 411 718Q425 731 431 757L504 757Q498 680 460 643Q422 606 371 606Q345 606 319 618.50Q293 631 269 644Q245 657 221 657Q206 657 192 644Q178 631 172 605L99 605Z"  horiz-adv-x="604" vert-adv-y="1000"  />

      
      <glyph glyph-name="unie4" unicode="&#xe4;" d="M302 557Q412 557 470.50 509.50Q529 462 529 364L529 0L425 0L396 74L392 74Q357 30 318 10Q279-10 211-10Q138-10 90 32Q42 74 42 163Q42 250 103 291Q164 332 286 337L381 340L381 364Q381 407 358.50 427Q336 447 296 447Q256 447 218 435.50Q180 424 142 407L93 508Q136 530 190 543.50Q244 557 302 557M381 253L323 251Q251 249 223 225Q195 201 195 162Q195 128 215 113.50Q235 99 267 99Q315 99 348 127.50Q381 156 381 208L381 253M134 686Q134 720 154 736Q174 752 202 752Q230 752 250.50 736Q271 720 271 686Q271 653 250.50 637Q230 621 202 621Q174 621 154 637Q134 653 134 686M331 686Q331 720 351 736Q371 752 400 752Q428 752 448.50 736Q469 720 469 686Q469 653 448.50 637Q428 621 400 621Q371 621 351 637Q331 653 331 686Z"  horiz-adv-x="604" vert-adv-y="1000"  />

      
      <glyph glyph-name="unie5" unicode="&#xe5;" d="M302 557Q412 557 470.50 509.50Q529 462 529 364L529 0L425 0L396 74L392 74Q357 30 318 10Q279-10 211-10Q138-10 90 32Q42 74 42 163Q42 250 103 291Q164 332 286 337L381 340L381 364Q381 407 358.50 427Q336 447 296 447Q256 447 218 435.50Q180 424 142 407L93 508Q136 530 190 543.50Q244 557 302 557M381 253L323 251Q251 249 223 225Q195 201 195 162Q195 128 215 113.50Q235 99 267 99Q315 99 348 127.50Q381 156 381 208L381 253M303 605Q249 605 215.50 636Q182 667 182 721Q182 775 215.50 806Q249 837 303 837Q355 837 391 806Q427 775 427 722Q427 667 391.50 636Q356 605 303 605M303 674Q323 674 336.50 686.50Q350 699 350 721Q350 743 336.50 755.50Q323 768 303 768Q283 768 269.50 755.50Q256 743 256 721Q256 699 268 686.50Q280 674 303 674Z"  horiz-adv-x="604" vert-adv-y="1000"  />

      
      <glyph glyph-name="unie6" unicode="&#xe6;" d="M641 556Q710 556 762.50 527Q815 498 844.50 443Q874 388 874 308L874 236L521 236Q523 173 558.50 137Q594 101 657 101Q753 101 843 144L843 29Q802 9 758-0.50Q714-10 649-10Q582-10 527 15Q472 40 437 91Q408 56 378.50 33.50Q349 11 310.50 0.50Q272-10 216-10Q169-10 129.50 8.50Q90 27 66 65.50Q42 104 42 163Q42 250 101 291Q160 332 278 337L371 340L371 381Q371 415 349.50 431Q328 447 290 447Q251 447 214.50 436.50Q178 426 141 409L93 508Q136 530 189 543.50Q242 557 299 557Q409 557 466 493Q498 524 540 540Q582 556 641 556M638 450Q588 450 558 422Q528 394 524 335L734 335Q733 384 708.50 417Q684 450 638 450M371 253L316 251Q248 249 221.50 225Q195 201 195 162Q195 128 213.50 113.50Q232 99 263 99Q309 99 340 127.50Q371 156 371 208L371 253Z"  horiz-adv-x="917" vert-adv-y="1000"  />

      
      <glyph glyph-name="unie7" unicode="&#xe7;" d="M300-10Q178-10 111.50 57Q45 124 45 270Q45 370 79 433Q113 496 173.50 526Q234 556 313 556Q369 556 410.50 545Q452 534 483 519L439 404Q404 418 373.50 427Q343 436 313 436Q197 436 197 271Q197 189 227.50 150Q258 111 313 111Q360 111 396 123.50Q432 136 466 158L466 31Q432 9 394.50-0.50Q357-10 300-10M407-122Q407-178 374-209Q341-240 256-240Q234-240 216.50-237Q199-234 185-230L185-148Q199-152 219.50-155Q240-158 255-158Q269-158 279.50-151.50Q290-145 290-128Q290-110 272-96Q254-82 209-75L247 0L341 0L328-30Q358-40 382.50-62.50Q407-85 407-122Z"  horiz-adv-x="514" vert-adv-y="1000"  />

      
      <glyph glyph-name="unie8" unicode="&#xe8;" d="M303 556Q416 556 482 491.50Q548 427 548 308L548 236L196 236Q198 173 233.50 137Q269 101 332 101Q384 101 427.50 111.50Q471 122 517 144L517 29Q476 9 432-0.50Q388-10 325-10Q243-10 180 20.50Q117 51 81 112.50Q45 174 45 269Q45 364 77.50 428Q110 492 168 524Q226 556 303 556M304 450Q260 450 232 422Q204 394 199 335L408 335Q407 384 381.50 417Q356 450 304 450M272 766Q287 744 307.50 716.50Q328 689 349.50 663.50Q371 638 387 619L387 606L288 606Q269 619 243.50 638.50Q218 658 191.50 680Q165 702 142 722Q119 742 105 756L105 766L272 766Z"  horiz-adv-x="591" vert-adv-y="1000"  />

      
      <glyph glyph-name="unie9" unicode="&#xe9;" d="M303 556Q416 556 482 491.50Q548 427 548 308L548 236L196 236Q198 173 233.50 137Q269 101 332 101Q384 101 427.50 111.50Q471 122 517 144L517 29Q476 9 432-0.50Q388-10 325-10Q243-10 180 20.50Q117 51 81 112.50Q45 174 45 269Q45 364 77.50 428Q110 492 168 524Q226 556 303 556M304 450Q260 450 232 422Q204 394 199 335L408 335Q407 384 381.50 417Q356 450 304 450M488 766L488 756Q474 742 451 722Q428 702 401.50 680Q375 658 349.50 638.50Q324 619 305 606L206 606L206 619Q222 638 243.50 663.50Q265 689 285.50 716.50Q306 744 321 766L488 766Z"  horiz-adv-x="591" vert-adv-y="1000"  />

      
      <glyph glyph-name="uniea" unicode="&#xea;" d="M303 556Q416 556 482 491.50Q548 427 548 308L548 236L196 236Q198 173 233.50 137Q269 101 332 101Q384 101 427.50 111.50Q471 122 517 144L517 29Q476 9 432-0.50Q388-10 325-10Q243-10 180 20.50Q117 51 81 112.50Q45 174 45 269Q45 364 77.50 428Q110 492 168 524Q226 556 303 556M304 450Q260 450 232 422Q204 394 199 335L408 335Q407 384 381.50 417Q356 450 304 450M384 766Q398 744 420.50 716.50Q443 689 467 663Q491 637 509 619L509 606L410 606Q384 622 352.50 643.50Q321 665 296 692Q270 665 240 643.50Q210 622 184 606L85 606L85 619Q103 638 127 663.50Q151 689 173.50 716.50Q196 744 210 766L384 766Z"  horiz-adv-x="591" vert-adv-y="1000"  />

      
      <glyph glyph-name="unieb" unicode="&#xeb;" d="M303 556Q416 556 482 491.50Q548 427 548 308L548 236L196 236Q198 173 233.50 137Q269 101 332 101Q384 101 427.50 111.50Q471 122 517 144L517 29Q476 9 432-0.50Q388-10 325-10Q243-10 180 20.50Q117 51 81 112.50Q45 174 45 269Q45 364 77.50 428Q110 492 168 524Q226 556 303 556M304 450Q260 450 232 422Q204 394 199 335L408 335Q407 384 381.50 417Q356 450 304 450M128 686Q128 720 148 736Q168 752 196 752Q224 752 244.50 736Q265 720 265 686Q265 653 244.50 637Q224 621 196 621Q168 621 148 637Q128 653 128 686M325 686Q325 720 345 736Q365 752 394 752Q422 752 442.50 736Q463 720 463 686Q463 653 442.50 637Q422 621 394 621Q365 621 345 637Q325 653 325 686Z"  horiz-adv-x="591" vert-adv-y="1000"  />

      
      <glyph glyph-name="uniec" unicode="&#xec;" d="M227 0L78 0L78 546L227 546L227 0M129 766Q144 744 164.50 716.50Q185 689 206.50 663.50Q228 638 244 619L244 606L145 606Q126 619 100.50 638.50Q75 658 48.50 680Q22 702-1 722Q-24 742-38 756L-38 766L129 766Z"  horiz-adv-x="305" vert-adv-y="1000"  />

      
      <glyph glyph-name="unied" unicode="&#xed;" d="M227 0L78 0L78 546L227 546L227 0M345 766L345 756Q331 742 308 722Q285 702 258.50 680Q232 658 206.50 638.50Q181 619 162 606L63 606L63 619Q79 638 100.50 663.50Q122 689 142.50 716.50Q163 744 178 766L345 766Z"  horiz-adv-x="305" vert-adv-y="1000"  />

      
      <glyph glyph-name="uniee" unicode="&#xee;" d="M227 0L78 0L78 546L227 546L227 0M241 766Q255 744 277.50 716.50Q300 689 324 663Q348 637 366 619L366 606L267 606Q241 622 209.50 643.50Q178 665 153 692Q127 665 97 643.50Q67 622 41 606L-58 606L-58 619Q-40 638-16 663.50Q8 689 30.50 716.50Q53 744 67 766L241 766Z"  horiz-adv-x="305" vert-adv-y="1000"  />

      
      <glyph glyph-name="unief" unicode="&#xef;" d="M227 0L78 0L78 546L227 546L227 0M-15 686Q-15 720 5 736Q25 752 53 752Q81 752 101.50 736Q122 720 122 686Q122 653 101.50 637Q81 621 53 621Q25 621 5 637Q-15 653-15 686M182 686Q182 720 202 736Q222 752 251 752Q279 752 299.50 736Q320 720 320 686Q320 653 299.50 637Q279 621 251 621Q222 621 202 637Q182 653 182 686Z"  horiz-adv-x="305" vert-adv-y="1000"  />

      
      <glyph glyph-name="unif0" unicode="&#xf0;" d="M224 765Q258 749 290 732Q322 715 350 696L460 764L509 689L426 638Q499 571 536.50 484.50Q574 398 574 280Q574 141 502 65.50Q430-10 308-10Q232-10 172.50 19Q113 48 79 104Q45 160 45 239Q45 318 75 373Q105 428 158 457Q211 486 280 486Q380 486 414 438L418 440Q402 480 379 512.50Q356 545 324 575L212 506L163 582L249 634Q232 645 213.50 656.50Q195 668 175 679L224 765M310 376Q249 376 223 341.50Q197 307 197 238Q197 176 223.50 138Q250 100 310 100Q370 100 396 140Q422 180 422 260Q422 306 395 341Q368 376 310 376Z"  horiz-adv-x="619" vert-adv-y="1000"  />

      
      <glyph glyph-name="unif1" unicode="&#xf1;" d="M388 556Q476 556 529 508.50Q582 461 582 356L582 0L433 0L433 319Q433 378 412 407.50Q391 437 345 437Q277 437 252 390.50Q227 344 227 257L227 0L78 0L78 546L192 546L212 476L220 476Q246 518 291.50 537Q337 556 388 556M126 605Q132 683 169.50 719.50Q207 756 259 756Q286 756 311 743Q336 730 361 717.50Q386 705 409 705Q424 705 438 718Q452 731 458 757L531 757Q525 680 487 643Q449 606 398 606Q372 606 346 618.50Q320 631 296 644Q272 657 248 657Q233 657 219 644Q205 631 199 605L126 605Z"  horiz-adv-x="657" vert-adv-y="1000"  />

      
      <glyph glyph-name="unif2" unicode="&#xf2;" d="M574 274Q574 138 502.50 64Q431-10 308-10Q232-10 172.50 23Q113 56 79 119.50Q45 183 45 274Q45 410 116 483Q187 556 311 556Q388 556 447 523Q506 490 540 427Q574 364 574 274M197 274Q197 193 223.50 151.50Q250 110 310 110Q369 110 395.50 151.50Q422 193 422 274Q422 355 395.50 395.50Q369 436 309 436Q250 436 223.50 395.50Q197 355 197 274M286 766Q301 744 321.50 716.50Q342 689 363.50 663.50Q385 638 401 619L401 606L302 606Q283 619 257.50 638.50Q232 658 205.50 680Q179 702 156 722Q133 742 119 756L119 766L286 766Z"  horiz-adv-x="619" vert-adv-y="1000"  />

      
      <glyph glyph-name="unif3" unicode="&#xf3;" d="M574 274Q574 138 502.50 64Q431-10 308-10Q232-10 172.50 23Q113 56 79 119.50Q45 183 45 274Q45 410 116 483Q187 556 311 556Q388 556 447 523Q506 490 540 427Q574 364 574 274M197 274Q197 193 223.50 151.50Q250 110 310 110Q369 110 395.50 151.50Q422 193 422 274Q422 355 395.50 395.50Q369 436 309 436Q250 436 223.50 395.50Q197 355 197 274M502 766L502 756Q488 742 465 722Q442 702 415.50 680Q389 658 363.50 638.50Q338 619 319 606L220 606L220 619Q236 638 257.50 663.50Q279 689 299.50 716.50Q320 744 335 766L502 766Z"  horiz-adv-x="619" vert-adv-y="1000"  />

      
      <glyph glyph-name="unif4" unicode="&#xf4;" d="M574 274Q574 138 502.50 64Q431-10 308-10Q232-10 172.50 23Q113 56 79 119.50Q45 183 45 274Q45 410 116 483Q187 556 311 556Q388 556 447 523Q506 490 540 427Q574 364 574 274M197 274Q197 193 223.50 151.50Q250 110 310 110Q369 110 395.50 151.50Q422 193 422 274Q422 355 395.50 395.50Q369 436 309 436Q250 436 223.50 395.50Q197 355 197 274M398 766Q412 744 434.50 716.50Q457 689 481 663Q505 637 523 619L523 606L424 606Q398 622 366.50 643.50Q335 665 310 692Q284 665 254 643.50Q224 622 198 606L99 606L99 619Q117 638 141 663.50Q165 689 187.50 716.50Q210 744 224 766L398 766Z"  horiz-adv-x="619" vert-adv-y="1000"  />

      
      <glyph glyph-name="unif5" unicode="&#xf5;" d="M574 274Q574 138 502.50 64Q431-10 308-10Q232-10 172.50 23Q113 56 79 119.50Q45 183 45 274Q45 410 116 483Q187 556 311 556Q388 556 447 523Q506 490 540 427Q574 364 574 274M197 274Q197 193 223.50 151.50Q250 110 310 110Q369 110 395.50 151.50Q422 193 422 274Q422 355 395.50 395.50Q369 436 309 436Q250 436 223.50 395.50Q197 355 197 274M107 605Q113 683 150.50 719.50Q188 756 240 756Q267 756 292 743Q317 730 342 717.50Q367 705 390 705Q405 705 419 718Q433 731 439 757L512 757Q506 680 468 643Q430 606 379 606Q353 606 327 618.50Q301 631 277 644Q253 657 229 657Q214 657 200 644Q186 631 180 605L107 605Z"  horiz-adv-x="619" vert-adv-y="1000"  />

      
      <glyph glyph-name="unif6" unicode="&#xf6;" d="M574 274Q574 138 502.50 64Q431-10 308-10Q232-10 172.50 23Q113 56 79 119.50Q45 183 45 274Q45 410 116 483Q187 556 311 556Q388 556 447 523Q506 490 540 427Q574 364 574 274M197 274Q197 193 223.50 151.50Q250 110 310 110Q369 110 395.50 151.50Q422 193 422 274Q422 355 395.50 395.50Q369 436 309 436Q250 436 223.50 395.50Q197 355 197 274M142 686Q142 720 162 736Q182 752 210 752Q238 752 258.50 736Q279 720 279 686Q279 653 258.50 637Q238 621 210 621Q182 621 162 637Q142 653 142 686M339 686Q339 720 359 736Q379 752 408 752Q436 752 456.50 736Q477 720 477 686Q477 653 456.50 637Q436 621 408 621Q379 621 359 637Q339 653 339 686Z"  horiz-adv-x="619" vert-adv-y="1000"  />

      
      <glyph glyph-name="unif7" unicode="&#xf7;" d="M285 449Q257 449 237 466.50Q217 484 217 523Q217 564 237 580.50Q257 597 285 597Q312 597 332.50 580.50Q353 564 353 523Q353 484 332.50 466.50Q312 449 285 449M43 299L43 406L528 406L528 299L43 299M285 108Q257 108 237 125.50Q217 143 217 182Q217 223 237 239.50Q257 256 285 256Q312 256 332.50 239.50Q353 223 353 182Q353 143 332.50 125.50Q312 108 285 108Z"  horiz-adv-x="572" vert-adv-y="1000"  />

      
      <glyph glyph-name="unif8" unicode="&#xf8;" d="M574 274Q574 138 502.50 64Q431-10 308-10Q276-10 248-4Q220 2 194 12L161-37L86 14L119 63Q84 100 64.50 152.50Q45 205 45 274Q45 410 116 483Q187 556 311 556Q376 556 432 531L459 571L533 518L505 477Q538 441 556 390Q574 339 574 274M197 274Q197 226 206 193L361 425Q339 436 309 436Q250 436 223.50 395.50Q197 355 197 274M422 274Q422 313 416 343L265 117Q283 110 310 110Q369 110 395.50 151.50Q422 193 422 274Z"  horiz-adv-x="619" vert-adv-y="1000"  />

      
      <glyph glyph-name="unif9" unicode="&#xf9;" d="M579 546L579 0L465 0L445 70L437 70Q411 28 365.50 9Q320-10 269-10Q181-10 128 37.50Q75 85 75 190L75 546L224 546L224 227Q224 168 245 138.50Q266 109 312 109Q380 109 405 155.50Q430 202 430 289L430 546L579 546M305 766Q320 744 340.50 716.50Q361 689 382.50 663.50Q404 638 420 619L420 606L321 606Q302 619 276.50 638.50Q251 658 224.50 680Q198 702 175 722Q152 742 138 756L138 766L305 766Z"  horiz-adv-x="657" vert-adv-y="1000"  />

      
      <glyph glyph-name="unifa" unicode="&#xfa;" d="M579 546L579 0L465 0L445 70L437 70Q411 28 365.50 9Q320-10 269-10Q181-10 128 37.50Q75 85 75 190L75 546L224 546L224 227Q224 168 245 138.50Q266 109 312 109Q380 109 405 155.50Q430 202 430 289L430 546L579 546M521 766L521 756Q507 742 484 722Q461 702 434.50 680Q408 658 382.50 638.50Q357 619 338 606L239 606L239 619Q255 638 276.50 663.50Q298 689 318.50 716.50Q339 744 354 766L521 766Z"  horiz-adv-x="657" vert-adv-y="1000"  />

      
      <glyph glyph-name="unifb" unicode="&#xfb;" d="M579 546L579 0L465 0L445 70L437 70Q411 28 365.50 9Q320-10 269-10Q181-10 128 37.50Q75 85 75 190L75 546L224 546L224 227Q224 168 245 138.50Q266 109 312 109Q380 109 405 155.50Q430 202 430 289L430 546L579 546M417 766Q431 744 453.50 716.50Q476 689 500 663Q524 637 542 619L542 606L443 606Q417 622 385.50 643.50Q354 665 329 692Q303 665 273 643.50Q243 622 217 606L118 606L118 619Q136 638 160 663.50Q184 689 206.50 716.50Q229 744 243 766L417 766Z"  horiz-adv-x="657" vert-adv-y="1000"  />

      
      <glyph glyph-name="unifc" unicode="&#xfc;" d="M579 546L579 0L465 0L445 70L437 70Q411 28 365.50 9Q320-10 269-10Q181-10 128 37.50Q75 85 75 190L75 546L224 546L224 227Q224 168 245 138.50Q266 109 312 109Q380 109 405 155.50Q430 202 430 289L430 546L579 546M161 686Q161 720 181 736Q201 752 229 752Q257 752 277.50 736Q298 720 298 686Q298 653 277.50 637Q257 621 229 621Q201 621 181 637Q161 653 161 686M358 686Q358 720 378 736Q398 752 427 752Q455 752 475.50 736Q496 720 496 686Q496 653 475.50 637Q455 621 427 621Q398 621 378 637Q358 653 358 686Z"  horiz-adv-x="657" vert-adv-y="1000"  />

      
      <glyph glyph-name="unifd" unicode="&#xfd;" d="M0 546L163 546L266 239Q274 216 278 193Q282 170 284 144L287 144Q290 170 295 193Q300 216 308 239L409 546L569 546L338-70Q306-155 247-197.50Q188-240 110-240Q84-240 66-237.50Q48-235 34-232L34-114Q44-116 60-118Q76-120 93-120Q140-120 167-91.50Q194-63 208-23L217 4L0 546M477 766L477 756Q463 742 440 722Q417 702 390.50 680Q364 658 338.50 638.50Q313 619 294 606L195 606L195 619Q211 638 232.50 663.50Q254 689 274.50 716.50Q295 744 310 766L477 766Z"  horiz-adv-x="569" vert-adv-y="1000"  />

      
      <glyph glyph-name="unife" unicode="&#xfe;" d="M588 274Q588 134 531 62Q474-10 382-10Q323-10 286 9.50Q249 29 227 57L220 57Q223 42 225 19.50Q227-3 227-19L227-240L78-240L78 760L227 760L227 569Q227 545 224.50 517.50Q222 490 220 475L227 475Q248 509 286 532.50Q324 556 382 556Q474 556 531 484.50Q588 413 588 274M436 276Q436 437 334 437Q276 437 252 400.50Q228 364 227 291L227 275Q227 196 250.50 153.50Q274 111 336 111Q387 111 411.50 153.50Q436 196 436 276Z"  horiz-adv-x="633" vert-adv-y="1000"  />

      
      <glyph glyph-name="uniff" unicode="&#xff;" d="M0 546L163 546L266 239Q274 216 278 193Q282 170 284 144L287 144Q290 170 295 193Q300 216 308 239L409 546L569 546L338-70Q306-155 247-197.50Q188-240 110-240Q84-240 66-237.50Q48-235 34-232L34-114Q44-116 60-118Q76-120 93-120Q140-120 167-91.50Q194-63 208-23L217 4L0 546M117 686Q117 720 137 736Q157 752 185 752Q213 752 233.50 736Q254 720 254 686Q254 653 233.50 637Q213 621 185 621Q157 621 137 637Q117 653 117 686M314 686Q314 720 334 736Q354 752 383 752Q411 752 431.50 736Q452 720 452 686Q452 653 431.50 637Q411 621 383 621Q354 621 334 637Q314 653 314 686Z"  horiz-adv-x="569" vert-adv-y="1000"  />

      
      <glyph glyph-name="uni0100" unicode="&#x0100;" d="M527 0L475 170L215 170L163 0L0 0L252 717L437 717L690 0L527 0M439 297L387 463Q382 480 374 506Q366 532 358 559Q350 586 345 606Q340 586 331.50 556.50Q323 527 315.50 500.50Q308 474 304 463L253 297L439 297M511 877L511 774L180 774L180 877L511 877Z"  horiz-adv-x="690" vert-adv-y="1000"  />

      
      <glyph glyph-name="uni0101" unicode="&#x0101;" d="M302 557Q412 557 470.50 509.50Q529 462 529 364L529 0L425 0L396 74L392 74Q357 30 318 10Q279-10 211-10Q138-10 90 32Q42 74 42 163Q42 250 103 291Q164 332 286 337L381 340L381 364Q381 407 358.50 427Q336 447 296 447Q256 447 218 435.50Q180 424 142 407L93 508Q136 530 190 543.50Q244 557 302 557M381 253L323 251Q251 249 223 225Q195 201 195 162Q195 128 215 113.50Q235 99 267 99Q315 99 348 127.50Q381 156 381 208L381 253M468 709L468 606L137 606L137 709L468 709Z"  horiz-adv-x="604" vert-adv-y="1000"  />

      
      <glyph glyph-name="uni0102" unicode="&#x0102;" d="M527 0L475 170L215 170L163 0L0 0L252 717L437 717L690 0L527 0M439 297L387 463Q382 480 374 506Q366 532 358 559Q350 586 345 606Q340 586 331.50 556.50Q323 527 315.50 500.50Q308 474 304 463L253 297L439 297M540 939Q535 866 482 820Q429 774 346 774Q260 774 210 819Q160 864 156 939L239 939Q242 911 256.50 898Q271 885 294.50 881.50Q318 878 347 878Q370 878 394 882.50Q418 887 435 900Q452 913 455 939L540 939Z"  horiz-adv-x="690" vert-adv-y="1000"  />

      
      <glyph glyph-name="uni0103" unicode="&#x0103;" d="M302 557Q412 557 470.50 509.50Q529 462 529 364L529 0L425 0L396 74L392 74Q357 30 318 10Q279-10 211-10Q138-10 90 32Q42 74 42 163Q42 250 103 291Q164 332 286 337L381 340L381 364Q381 407 358.50 427Q336 447 296 447Q256 447 218 435.50Q180 424 142 407L93 508Q136 530 190 543.50Q244 557 302 557M381 253L323 251Q251 249 223 225Q195 201 195 162Q195 128 215 113.50Q235 99 267 99Q315 99 348 127.50Q381 156 381 208L381 253M497 771Q492 698 439 652Q386 606 303 606Q217 606 167 651Q117 696 113 771L196 771Q199 743 213.50 730Q228 717 251.50 713.50Q275 710 304 710Q327 710 351 714.50Q375 719 392 732Q409 745 412 771L497 771Z"  horiz-adv-x="604" vert-adv-y="1000"  />

      
      <glyph glyph-name="uni0104" unicode="&#x0104;" d="M527 0L475 170L215 170L163 0L0 0L252 717L437 717L690 0L527 0M439 297L387 463Q382 480 374 506Q366 532 358 559Q350 586 345 606Q340 586 331.50 556.50Q323 527 315.50 500.50Q308 474 304 463L253 297L439 297M575-111Q575-131 586-141Q597-151 614-151Q630-151 645-148Q660-145 670-142L670-229Q654-234 636-237Q618-240 594-240Q538-240 505-209Q472-178 472-128Q472-84 504-46Q536-8 582 17L647 0Q613-32 594-59Q575-86 575-111Z"  horiz-adv-x="690" vert-adv-y="1000"  />

      
      <glyph glyph-name="uni0105" unicode="&#x0105;" d="M302 557Q412 557 470.50 509.50Q529 462 529 364L529 0L425 0L396 74L392 74Q357 30 318 10Q279-10 211-10Q138-10 90 32Q42 74 42 163Q42 250 103 291Q164 332 286 337L381 340L381 364Q381 407 358.50 427Q336 447 296 447Q256 447 218 435.50Q180 424 142 407L93 508Q136 530 190 543.50Q244 557 302 557M381 253L323 251Q251 249 223 225Q195 201 195 162Q195 128 215 113.50Q235 99 267 99Q315 99 348 127.50Q381 156 381 208L381 253M445-111Q445-131 456-141Q467-151 484-151Q500-151 515-148Q530-145 540-142L540-229Q524-234 506-237Q488-240 464-240Q408-240 375-209Q342-178 342-128Q342-84 374-46Q406-8 452 17L517 0Q483-32 464-59Q445-86 445-111Z"  horiz-adv-x="604" vert-adv-y="1000"  />

      
      <glyph glyph-name="uni0106" unicode="&#x0106;" d="M393 598Q306 598 260 533Q214 468 214 355Q214 241 256.50 178.50Q299 116 393 116Q436 116 480 126Q524 136 575 154L575 27Q528 8 482-1Q436-10 379-10Q268-10 197 35.50Q126 81 92 163.50Q58 246 58 356Q58 464 97 547Q136 630 210.50 677Q285 724 393 724Q446 724 499.50 710.50Q553 697 602 674L553 551Q513 570 472.50 584Q432 598 393 598M569 934L569 924Q555 910 532 890Q509 870 482.50 848Q456 826 430.50 806.50Q405 787 386 774L287 774L287 787Q303 806 324.50 831.50Q346 857 366.50 884.50Q387 912 402 934L569 934Z"  horiz-adv-x="637" vert-adv-y="1000"  />

      
      <glyph glyph-name="uni0107" unicode="&#x0107;" d="M300-10Q178-10 111.50 57Q45 124 45 270Q45 370 79 433Q113 496 173.50 526Q234 556 313 556Q369 556 410.50 545Q452 534 483 519L439 404Q404 418 373.50 427Q343 436 313 436Q197 436 197 271Q197 189 227.50 150Q258 111 313 111Q360 111 396 123.50Q432 136 466 158L466 31Q432 9 394.50-0.50Q357-10 300-10M479 766L479 756Q465 742 442 722Q419 702 392.50 680Q366 658 340.50 638.50Q315 619 296 606L197 606L197 619Q213 638 234.50 663.50Q256 689 276.50 716.50Q297 744 312 766L479 766Z"  horiz-adv-x="514" vert-adv-y="1000"  />

      
      <glyph glyph-name="uni0108" unicode="&#x0108;" d="M393 598Q306 598 260 533Q214 468 214 355Q214 241 256.50 178.50Q299 116 393 116Q436 116 480 126Q524 136 575 154L575 27Q528 8 482-1Q436-10 379-10Q268-10 197 35.50Q126 81 92 163.50Q58 246 58 356Q58 464 97 547Q136 630 210.50 677Q285 724 393 724Q446 724 499.50 710.50Q553 697 602 674L553 551Q513 570 472.50 584Q432 598 393 598M465 934Q479 912 501.50 884.50Q524 857 548 831Q572 805 590 787L590 774L491 774Q465 790 433.50 811.50Q402 833 377 860Q351 833 321 811.50Q291 790 265 774L166 774L166 787Q184 806 208 831.50Q232 857 254.50 884.50Q277 912 291 934L465 934Z"  horiz-adv-x="637" vert-adv-y="1000"  />

      
      <glyph glyph-name="uni0109" unicode="&#x0109;" d="M300-10Q178-10 111.50 57Q45 124 45 270Q45 370 79 433Q113 496 173.50 526Q234 556 313 556Q369 556 410.50 545Q452 534 483 519L439 404Q404 418 373.50 427Q343 436 313 436Q197 436 197 271Q197 189 227.50 150Q258 111 313 111Q360 111 396 123.50Q432 136 466 158L466 31Q432 9 394.50-0.50Q357-10 300-10M375 766Q389 744 411.50 716.50Q434 689 458 663Q482 637 500 619L500 606L401 606Q375 622 343.50 643.50Q312 665 287 692Q261 665 231 643.50Q201 622 175 606L76 606L76 619Q94 638 118 663.50Q142 689 164.50 716.50Q187 744 201 766L375 766Z"  horiz-adv-x="514" vert-adv-y="1000"  />

      
      <glyph glyph-name="uni010A" unicode="&#x010A;" d="M393 598Q306 598 260 533Q214 468 214 355Q214 241 256.50 178.50Q299 116 393 116Q436 116 480 126Q524 136 575 154L575 27Q528 8 482-1Q436-10 379-10Q268-10 197 35.50Q126 81 92 163.50Q58 246 58 356Q58 464 97 547Q136 630 210.50 677Q285 724 393 724Q446 724 499.50 710.50Q553 697 602 674L553 551Q513 570 472.50 584Q432 598 393 598M379 928Q412 928 436 912.50Q460 897 460 855Q460 814 436 798Q412 782 379 782Q345 782 321.50 798Q298 814 298 855Q298 897 321.50 912.50Q345 928 379 928Z"  horiz-adv-x="637" vert-adv-y="1000"  />

      
      <glyph glyph-name="uni010B" unicode="&#x010B;" d="M300-10Q178-10 111.50 57Q45 124 45 270Q45 370 79 433Q113 496 173.50 526Q234 556 313 556Q369 556 410.50 545Q452 534 483 519L439 404Q404 418 373.50 427Q343 436 313 436Q197 436 197 271Q197 189 227.50 150Q258 111 313 111Q360 111 396 123.50Q432 136 466 158L466 31Q432 9 394.50-0.50Q357-10 300-10M289 760Q322 760 346 744.50Q370 729 370 687Q370 646 346 630Q322 614 289 614Q255 614 231.50 630Q208 646 208 687Q208 729 231.50 744.50Q255 760 289 760Z"  horiz-adv-x="514" vert-adv-y="1000"  />

      
      <glyph glyph-name="uni010C" unicode="&#x010C;" d="M393 598Q306 598 260 533Q214 468 214 355Q214 241 256.50 178.50Q299 116 393 116Q436 116 480 126Q524 136 575 154L575 27Q528 8 482-1Q436-10 379-10Q268-10 197 35.50Q126 81 92 163.50Q58 246 58 356Q58 464 97 547Q136 630 210.50 677Q285 724 393 724Q446 724 499.50 710.50Q553 697 602 674L553 551Q513 570 472.50 584Q432 598 393 598M292 774Q278 796 255.50 823.50Q233 851 209 876.50Q185 902 167 921L167 934L266 934Q292 918 322 896.50Q352 875 378 848Q403 875 434.50 896.50Q466 918 492 934L591 934L591 921Q573 903 549 877Q525 851 502.50 823.50Q480 796 466 774L292 774Z"  horiz-adv-x="637" vert-adv-y="1000"  />

      
      <glyph glyph-name="uni010D" unicode="&#x010D;" d="M300-10Q178-10 111.50 57Q45 124 45 270Q45 370 79 433Q113 496 173.50 526Q234 556 313 556Q369 556 410.50 545Q452 534 483 519L439 404Q404 418 373.50 427Q343 436 313 436Q197 436 197 271Q197 189 227.50 150Q258 111 313 111Q360 111 396 123.50Q432 136 466 158L466 31Q432 9 394.50-0.50Q357-10 300-10M202 606Q188 628 165.50 655.50Q143 683 119 708.50Q95 734 77 753L77 766L176 766Q202 750 232 728.50Q262 707 288 680Q313 707 344.50 728.50Q376 750 402 766L501 766L501 753Q483 735 459 709Q435 683 412.50 655.50Q390 628 376 606L202 606Z"  horiz-adv-x="514" vert-adv-y="1000"  />

      
      <glyph glyph-name="uni010E" unicode="&#x010E;" d="M682 364Q682 183 579 91.50Q476 0 292 0L90 0L90 714L314 714Q426 714 508.50 674Q591 634 636.50 556Q682 478 682 364M525 360Q525 478 473 534Q421 590 322 590L241 590L241 125L306 125Q525 125 525 360M285 774Q271 796 248.50 823.50Q226 851 202 876.50Q178 902 160 921L160 934L259 934Q285 918 315 896.50Q345 875 371 848Q396 875 427.50 896.50Q459 918 485 934L584 934L584 921Q566 903 542 877Q518 851 495.50 823.50Q473 796 459 774L285 774Z"  horiz-adv-x="740" vert-adv-y="1000"  />

      
      <glyph glyph-name="uni010F" unicode="&#x010F;" d="M251-10Q160-10 102.50 61.50Q45 133 45 272Q45 412 103 484Q161 556 255 556Q314 556 352 533Q390 510 412 476L417 476Q414 492 410 522.50Q406 553 406 585L406 760L555 760L555 0L441 0L412 71L406 71Q384 37 347 13.50Q310-10 251-10M303 109Q364 109 389 145.50Q414 182 416 255L416 271Q416 350 391.50 392.50Q367 435 301 435Q252 435 224 392.50Q196 350 196 270Q196 190 224 149.50Q252 109 303 109M757 760L757 750Q742 717 722 678.50Q702 640 676 600L589 600L589 613Q597 642 606 685Q615 728 619 760L757 760Z"  horiz-adv-x="633" vert-adv-y="1000"  />

      
      <glyph glyph-name="uni0110" unicode="&#x0110;" d="M314 714Q426 714 508.50 674Q591 634 636.50 556Q682 478 682 364Q682 183 579 91.50Q476 0 292 0L90 0L90 291L23 291L23 415L90 415L90 714L314 714M321 590L241 590L241 415L357 415L357 291L241 291L241 125L305 125Q525 125 525 360Q525 478 471.50 534Q418 590 321 590Z"  horiz-adv-x="740" vert-adv-y="1000"  />

      
      <glyph glyph-name="uni0111" unicode="&#x0111;" d="M251-10Q160-10 102.50 58Q45 126 45 257Q45 390 103 458Q161 526 255 526Q314 526 352 503Q390 480 412 446L417 446Q417 446 414.50 464.50Q412 483 409 509.50Q406 536 406 559L406 584L252 584L252 681L406 681L406 760L555 760L555 681L631 681L631 584L555 584L555 0L441 0L412 71L406 71Q384 37 347 13.50Q310-10 251-10M303 109Q364 109 389 142Q414 175 416 242L416 256Q416 328 391.50 366.50Q367 405 301 405Q252 405 224 366.50Q196 328 196 255Q196 182 224 145.50Q252 109 303 109Z"  horiz-adv-x="649" vert-adv-y="1000"  />

      
      <glyph glyph-name="uni0112" unicode="&#x0112;" d="M501 0L90 0L90 714L501 714L501 590L241 590L241 433L483 433L483 309L241 309L241 125L501 125L501 0M467 877L467 774L136 774L136 877L467 877Z"  horiz-adv-x="560" vert-adv-y="1000"  />

      
      <glyph glyph-name="uni0113" unicode="&#x0113;" d="M303 556Q416 556 482 491.50Q548 427 548 308L548 236L196 236Q198 173 233.50 137Q269 101 332 101Q384 101 427.50 111.50Q471 122 517 144L517 29Q476 9 432-0.50Q388-10 325-10Q243-10 180 20.50Q117 51 81 112.50Q45 174 45 269Q45 364 77.50 428Q110 492 168 524Q226 556 303 556M304 450Q260 450 232 422Q204 394 199 335L408 335Q407 384 381.50 417Q356 450 304 450M462 709L462 606L131 606L131 709L462 709Z"  horiz-adv-x="591" vert-adv-y="1000"  />

      
      <glyph glyph-name="uni0114" unicode="&#x0114;" d="M501 0L90 0L90 714L501 714L501 590L241 590L241 433L483 433L483 309L241 309L241 125L501 125L501 0M496 939Q491 866 438 820Q385 774 302 774Q216 774 166 819Q116 864 112 939L195 939Q198 911 212.50 898Q227 885 250.50 881.50Q274 878 303 878Q326 878 350 882.50Q374 887 391 900Q408 913 411 939L496 939Z"  horiz-adv-x="560" vert-adv-y="1000"  />

      
      <glyph glyph-name="uni0115" unicode="&#x0115;" d="M303 556Q416 556 482 491.50Q548 427 548 308L548 236L196 236Q198 173 233.50 137Q269 101 332 101Q384 101 427.50 111.50Q471 122 517 144L517 29Q476 9 432-0.50Q388-10 325-10Q243-10 180 20.50Q117 51 81 112.50Q45 174 45 269Q45 364 77.50 428Q110 492 168 524Q226 556 303 556M304 450Q260 450 232 422Q204 394 199 335L408 335Q407 384 381.50 417Q356 450 304 450M491 771Q486 698 433 652Q380 606 297 606Q211 606 161 651Q111 696 107 771L190 771Q193 743 207.50 730Q222 717 245.50 713.50Q269 710 298 710Q321 710 345 714.50Q369 719 386 732Q403 745 406 771L491 771Z"  horiz-adv-x="591" vert-adv-y="1000"  />

      
      <glyph glyph-name="uni0116" unicode="&#x0116;" d="M501 0L90 0L90 714L501 714L501 590L241 590L241 433L483 433L483 309L241 309L241 125L501 125L501 0M303 928Q336 928 360 912.50Q384 897 384 855Q384 814 360 798Q336 782 303 782Q269 782 245.50 798Q222 814 222 855Q222 897 245.50 912.50Q269 928 303 928Z"  horiz-adv-x="560" vert-adv-y="1000"  />

      
      <glyph glyph-name="uni0117" unicode="&#x0117;" d="M303 556Q416 556 482 491.50Q548 427 548 308L548 236L196 236Q198 173 233.50 137Q269 101 332 101Q384 101 427.50 111.50Q471 122 517 144L517 29Q476 9 432-0.50Q388-10 325-10Q243-10 180 20.50Q117 51 81 112.50Q45 174 45 269Q45 364 77.50 428Q110 492 168 524Q226 556 303 556M304 450Q260 450 232 422Q204 394 199 335L408 335Q407 384 381.50 417Q356 450 304 450M298 760Q331 760 355 744.50Q379 729 379 687Q379 646 355 630Q331 614 298 614Q264 614 240.50 630Q217 646 217 687Q217 729 240.50 744.50Q264 760 298 760Z"  horiz-adv-x="591" vert-adv-y="1000"  />

      
      <glyph glyph-name="uni0118" unicode="&#x0118;" d="M501 0L90 0L90 714L501 714L501 590L241 590L241 433L483 433L483 309L241 309L241 125L501 125L501 0M406-111Q406-131 417-141Q428-151 445-151Q461-151 476-148Q491-145 501-142L501-229Q485-234 467-237Q449-240 425-240Q369-240 336-209Q303-178 303-128Q303-84 335-46Q367-8 413 17L478 0Q444-32 425-59Q406-86 406-111Z"  horiz-adv-x="560" vert-adv-y="1000"  />

      
      <glyph glyph-name="uni0119" unicode="&#x0119;" d="M413-111Q413-131 424-141Q435-151 452-151Q468-151 483-148Q498-145 508-142L508-229Q492-234 474-237Q456-240 432-240Q376-240 343-209Q310-178 310-128Q310-94 330.50-63Q351-32 382-8Q356-10 325-10Q243-10 180 20.50Q117 51 81 112.50Q45 174 45 269Q45 364 77.50 428Q110 492 168 524Q226 556 303 556Q416 556 482 491.50Q548 427 548 308L548 236L196 236Q198 173 233.50 137Q269 101 332 101Q384 101 427.50 111.50Q471 122 517 144L517 29Q457-24 435-55Q413-86 413-111M304 450Q260 450 232 422Q204 394 199 335L408 335Q407 384 381.50 417Q356 450 304 450Z"  horiz-adv-x="591" vert-adv-y="1000"  />

      
      <glyph glyph-name="uni011A" unicode="&#x011A;" d="M501 0L90 0L90 714L501 714L501 590L241 590L241 433L483 433L483 309L241 309L241 125L501 125L501 0M216 774Q202 796 179.50 823.50Q157 851 133 876.50Q109 902 91 921L91 934L190 934Q216 918 246 896.50Q276 875 302 848Q327 875 358.50 896.50Q390 918 416 934L515 934L515 921Q497 903 473 877Q449 851 426.50 823.50Q404 796 390 774L216 774Z"  horiz-adv-x="560" vert-adv-y="1000"  />

      
      <glyph glyph-name="uni011B" unicode="&#x011B;" d="M303 556Q416 556 482 491.50Q548 427 548 308L548 236L196 236Q198 173 233.50 137Q269 101 332 101Q384 101 427.50 111.50Q471 122 517 144L517 29Q476 9 432-0.50Q388-10 325-10Q243-10 180 20.50Q117 51 81 112.50Q45 174 45 269Q45 364 77.50 428Q110 492 168 524Q226 556 303 556M304 450Q260 450 232 422Q204 394 199 335L408 335Q407 384 381.50 417Q356 450 304 450M211 606Q197 628 174.50 655.50Q152 683 128 708.50Q104 734 86 753L86 766L185 766Q211 750 241 728.50Q271 707 297 680Q322 707 353.50 728.50Q385 750 411 766L510 766L510 753Q492 735 468 709Q444 683 421.50 655.50Q399 628 385 606L211 606Z"  horiz-adv-x="591" vert-adv-y="1000"  />

      
      <glyph glyph-name="uni011C" unicode="&#x011C;" d="M361 401L644 401L644 31Q588 12 527 1Q466-10 390-10Q230-10 144 84Q58 178 58 358Q58 470 101 552Q144 634 227.50 679Q311 724 431 724Q488 724 543 712Q598 700 643 680L593 559Q560 576 518 587Q476 598 430 598Q364 598 315.50 568Q267 538 240.50 483Q214 428 214 355Q214 285 233 231Q252 177 293 146.50Q334 116 400 116Q432 116 454 119Q476 122 496 126L496 275L361 275L361 401M488 934Q502 912 524.50 884.50Q547 857 571 831Q595 805 613 787L613 774L514 774Q488 790 456.50 811.50Q425 833 400 860Q374 833 344 811.50Q314 790 288 774L189 774L189 787Q207 806 231 831.50Q255 857 277.50 884.50Q300 912 314 934L488 934Z"  horiz-adv-x="724" vert-adv-y="1000"  />

      
      <glyph glyph-name="uni011D" unicode="&#x011D;" d="M255 556Q356 556 413 476L417 476L429 546L555 546L555-1Q555-118 486-179Q417-240 282-240Q224-240 174.50-233Q125-226 78-208L78-89Q178-131 291-131Q406-131 406-7L406 4Q406 20 407 38.50Q408 57 410 71L406 71Q378 28 339 9Q300-10 251-10Q154-10 99.50 64.50Q45 139 45 272Q45 406 101 481Q157 556 255 556M302 435Q197 435 197 270Q197 107 304 107Q361 107 388.50 139.50Q416 172 416 253L416 271Q416 359 389 397Q362 435 302 435M402 766Q416 744 438.50 716.50Q461 689 485 663Q509 637 527 619L527 606L428 606Q402 622 370.50 643.50Q339 665 314 692Q288 665 258 643.50Q228 622 202 606L103 606L103 619Q121 638 145 663.50Q169 689 191.50 716.50Q214 744 228 766L402 766Z"  horiz-adv-x="633" vert-adv-y="1000"  />

      
      <glyph glyph-name="uni011E" unicode="&#x011E;" d="M361 401L644 401L644 31Q588 12 527 1Q466-10 390-10Q230-10 144 84Q58 178 58 358Q58 470 101 552Q144 634 227.50 679Q311 724 431 724Q488 724 543 712Q598 700 643 680L593 559Q560 576 518 587Q476 598 430 598Q364 598 315.50 568Q267 538 240.50 483Q214 428 214 355Q214 285 233 231Q252 177 293 146.50Q334 116 400 116Q432 116 454 119Q476 122 496 126L496 275L361 275L361 401M595 939Q590 866 537 820Q484 774 401 774Q315 774 265 819Q215 864 211 939L294 939Q297 911 311.50 898Q326 885 349.50 881.50Q373 878 402 878Q425 878 449 882.50Q473 887 490 900Q507 913 510 939L595 939Z"  horiz-adv-x="724" vert-adv-y="1000"  />

      
      <glyph glyph-name="uni011F" unicode="&#x011F;" d="M255 556Q356 556 413 476L417 476L429 546L555 546L555-1Q555-118 486-179Q417-240 282-240Q224-240 174.50-233Q125-226 78-208L78-89Q178-131 291-131Q406-131 406-7L406 4Q406 20 407 38.50Q408 57 410 71L406 71Q378 28 339 9Q300-10 251-10Q154-10 99.50 64.50Q45 139 45 272Q45 406 101 481Q157 556 255 556M302 435Q197 435 197 270Q197 107 304 107Q361 107 388.50 139.50Q416 172 416 253L416 271Q416 359 389 397Q362 435 302 435M509 771Q504 698 451 652Q398 606 315 606Q229 606 179 651Q129 696 125 771L208 771Q211 743 225.50 730Q240 717 263.50 713.50Q287 710 316 710Q339 710 363 714.50Q387 719 404 732Q421 745 424 771L509 771Z"  horiz-adv-x="633" vert-adv-y="1000"  />

      
      <glyph glyph-name="uni0120" unicode="&#x0120;" d="M361 401L644 401L644 31Q588 12 527 1Q466-10 390-10Q230-10 144 84Q58 178 58 358Q58 470 101 552Q144 634 227.50 679Q311 724 431 724Q488 724 543 712Q598 700 643 680L593 559Q560 576 518 587Q476 598 430 598Q364 598 315.50 568Q267 538 240.50 483Q214 428 214 355Q214 285 233 231Q252 177 293 146.50Q334 116 400 116Q432 116 454 119Q476 122 496 126L496 275L361 275L361 401M402 928Q435 928 459 912.50Q483 897 483 855Q483 814 459 798Q435 782 402 782Q368 782 344.50 798Q321 814 321 855Q321 897 344.50 912.50Q368 928 402 928Z"  horiz-adv-x="724" vert-adv-y="1000"  />

      
      </font>
</defs>
</svg>
