<?xml version="1.0" standalone="no"?>
<!DOCTYPE svg PUBLIC "-//W3C//DTD SVG 1.1//EN" "http://www.w3.org/Graphics/SVG/1.1/DTD/svg11.dtd" >
<svg xmlns="http://www.w3.org/2000/svg" xmlns:xlink="http://www.w3.org/1999/xlink" version="1.1">
<metadata>
Created by FontForge 20170910 at Tue Sep 19 23:59:24 2017
 By Jimmy Wärting
Copyright 2015 Google Inc. All Rights Reserved.
</metadata>
<defs>
<font id="NotoSans-Italic" horiz-adv-x="0" >
  <font-face 
    font-family="Noto Sans"
    font-weight="400"
    font-style="italic"
    font-stretch="normal"
    units-per-em="1000"
    panose-1="2 11 5 2 4 5 4 9 2 4"
    ascent="800"
    descent="-200"
    x-height="536"
    cap-height="714"
    bbox="-665 -389 2767 1084"
    underline-thickness="50"
    underline-position="-125"
    slope="-12"
    unicode-range="U+000D-FFFD"
  />
<missing-glyph horiz-adv-x="600" 
d="M94 0v714h411v-714h-411zM145 51h309v612h-309v-612z" />
    <glyph glyph-name="f_f" unicode="ff" horiz-adv-x="638" 
d="M-48 -240q-20 0 -35.5 3t-28.5 7v74q14 -4 27 -7.5t29 -3.5q30 0 52.5 24.5t35.5 89.5l110 522h-93l7 37l100 33l11 48q15 69 39 107.5t59 54.5t84 16q25 0 51 -5.5t43 -13.5l-23 -67q-14 5 -31 9.5t-36 4.5q-39 0 -62 -22t-36 -84l-12 -51h231l12 52q16 68 39.5 106.5
t58 54.5t84.5 16q26 0 52 -5.5t43 -13.5l-24 -67q-14 5 -30.5 9.5t-35.5 4.5q-40 0 -62.5 -22t-36.5 -84l-12 -51h116l-14 -67h-115l-112 -532q-18 -83 -55.5 -130t-110.5 -47q-38 0 -63 10v74q12 -4 26 -7.5t30 -3.5q30 0 52 25.5t35 88.5l110 522h-231l-112 -532
q-18 -83 -56 -130t-110 -47z" />
    <glyph glyph-name="f_f_i" unicode="ffi" horiz-adv-x="896" 
d="M-48 -240q-20 0 -35.5 3t-28.5 7v74q14 -4 27 -7.5t29 -3.5q30 0 52.5 24.5t35.5 89.5l110 522h-93l7 37l100 33l11 48q15 69 39 107.5t59 54.5t84 16q25 0 51 -5.5t43 -13.5l-23 -67q-14 5 -31 9.5t-36 4.5q-39 0 -62 -22t-36 -84l-12 -51h231l12 52q16 68 39.5 106.5
t58 54.5t84.5 16q26 0 52 -5.5t43 -13.5l-24 -67q-14 5 -30.5 9.5t-35.5 4.5q-40 0 -62.5 -22t-36.5 -84l-12 -51h116l-14 -67h-115l-112 -532q-18 -83 -55.5 -130t-110.5 -47q-38 0 -63 10v74q12 -4 26 -7.5t30 -3.5q30 0 52 25.5t35 88.5l110 522h-231l-112 -532
q-18 -83 -56 -130t-110 -47zM851 625q-19 0 -33 12.5t-14 34.5q0 26 15.5 45t43.5 19q45 0 45 -45q0 -31 -18 -48.5t-39 -17.5zM666 0l115 536h88l-115 -536h-88z" />
    <glyph glyph-name="f_f_l" unicode="ffl" horiz-adv-x="896" 
d="M-48 -240q-20 0 -35.5 3t-28.5 7v74q14 -4 27 -7.5t29 -3.5q30 0 52.5 24.5t35.5 89.5l110 522h-93l7 37l100 33l11 48q15 69 39 107.5t59 54.5t84 16q25 0 51 -5.5t43 -13.5l-23 -67q-14 5 -31 9.5t-36 4.5q-39 0 -62 -22t-36 -84l-12 -51h231l12 52q16 68 39.5 106.5
t58 54.5t84.5 16q26 0 52 -5.5t43 -13.5l-24 -67q-14 5 -30.5 9.5t-35.5 4.5q-40 0 -62.5 -22t-36.5 -84l-12 -51h116l-14 -67h-115l-112 -532q-18 -83 -55.5 -130t-110.5 -47q-38 0 -63 10v74q12 -4 26 -7.5t30 -3.5q30 0 52 25.5t35 88.5l110 522h-231l-112 -532
q-18 -83 -56 -130t-110 -47zM666 0l161 760h88l-162 -760h-87z" />
    <glyph glyph-name="f_i" unicode="fi" horiz-adv-x="576" 
d="M-48 -240q-20 0 -35.5 3t-28.5 7v74q14 -4 27 -7.5t29 -3.5q36 0 56 29.5t32 84.5l110 522h-93l7 37l100 33l11 48q15 69 39 107.5t59 54.5t84 16q25 0 51 -5.5t43 -13.5l-23 -67q-14 5 -31 9.5t-36 4.5q-39 0 -62 -22t-36 -84l-12 -51h115l-13 -67h-115l-112 -532
q-18 -83 -56 -130t-110 -47zM531 625q-21 0 -34.5 12.5t-13.5 34.5q0 26 15.5 45t43.5 19q46 0 46 -45q0 -31 -18 -48.5t-39 -17.5zM346 0l114 536h88l-114 -536h-88z" />
    <glyph glyph-name="f_l" unicode="fl" horiz-adv-x="576" 
d="M-48 -240q-20 0 -35.5 3t-28.5 7v74q14 -4 27 -7.5t29 -3.5q36 0 56 29.5t32 84.5l110 522h-93l7 37l100 33l11 48q15 69 39 107.5t59 54.5t84 16q25 0 51 -5.5t43 -13.5l-23 -67q-14 5 -31 9.5t-36 4.5q-39 0 -62 -22t-36 -84l-12 -51h115l-13 -67h-115l-112 -532
q-18 -83 -56 -130t-110 -47zM345 0l162 760h88l-162 -760h-88z" />
    <glyph glyph-name=".notdef" horiz-adv-x="600" 
d="M94 0v714h411v-714h-411zM145 51h309v612h-309v-612z" />
    <glyph glyph-name="NULL" 
 />
    <glyph glyph-name="NULL" 
 />
    <glyph glyph-name="CR" unicode="&#xd;" horiz-adv-x="260" 
 />
    <glyph glyph-name="space" unicode=" " horiz-adv-x="260" 
 />
    <glyph glyph-name="exclam" unicode="!" horiz-adv-x="261" 
d="M77 201l91 513h107l-127 -513h-71zM73 -14q-53 0 -53 54q0 32 18 56.5t57 24.5q23 0 37 -14t14 -40q0 -29 -18 -55t-55 -26z" />
    <glyph glyph-name="quotedbl" unicode="&#x22;" horiz-adv-x="392" 
d="M281 456l35 258h96l-75 -258h-56zM109 456l35 258h96l-75 -258h-56z" />
    <glyph glyph-name="numbersign" unicode="#" horiz-adv-x="646" 
d="M97 0l59 209h-126l6 66h139l48 162h-134l6 65h146l60 212h72l-61 -212h144l62 212h68l-60 -212h128l-7 -65h-141l-47 -162h138l-6 -66h-151l-60 -209h-72l63 209h-144l-61 -209h-69zM246 275h144l45 162h-143z" />
    <glyph glyph-name="dollar" unicode="$" horiz-adv-x="551" 
d="M166 -58l24 108q-41 2 -83 11.5t-73 24.5v80q39 -20 85 -31.5t85 -12.5l47 215q-61 23 -96.5 57.5t-35.5 97.5q0 56 26.5 94.5t72.5 60t103 26.5l19 85h65l-18 -86q38 -3 73 -12t65 -25l-33 -71q-23 13 -54.5 23.5t-65.5 12.5l-45 -209q68 -25 102.5 -59t34.5 -92
t-28 -97.5t-75 -62t-106 -29.5l-24 -109h-65zM267 414l39 186q-47 -5 -76.5 -31t-29.5 -75q0 -26 16.5 -46.5t50.5 -33.5zM270 125q46 6 78 33.5t32 74.5q0 26 -16 46t-53 35z" />
    <glyph glyph-name="percent" unicode="%" horiz-adv-x="799" 
d="M195 276q-55 0 -85 37t-30 108q0 29 5 68t17.5 80t34 76.5t54.5 57t79 21.5q57 0 87 -35.5t30 -101.5q0 -27 -5.5 -66.5t-18.5 -82t-35.5 -79.5t-55 -60t-77.5 -23zM113 0l530 714h78l-530 -714h-78zM202 342q26 0 45.5 19.5t32.5 50t20.5 63.5t11 62t3.5 44
q0 41 -13 59.5t-38 18.5q-26 0 -45 -18t-32 -46t-20.5 -60.5t-11 -62.5t-3.5 -50q0 -80 50 -80zM562 -10q-55 0 -85 37t-30 107q0 30 5 69.5t17.5 80.5t34.5 76t54.5 56.5t78.5 21.5q58 0 88 -35.5t30 -100.5q0 -27 -6 -66.5t-19 -82t-35 -80t-55 -60.5t-78 -23zM569 56
q26 0 45.5 19.5t32.5 50t20.5 64t11 62t3.5 43.5q0 41 -13 59.5t-38 18.5q-26 0 -45 -18t-31.5 -46t-20 -60.5t-11 -62.5t-3.5 -50q0 -80 49 -80z" />
    <glyph glyph-name="ampersand" unicode="&#x26;" horiz-adv-x="673" 
d="M216 -10q-81 0 -132.5 45.5t-51.5 132.5q0 80 49 132t141 96q-20 32 -34.5 69.5t-14.5 79.5q0 51 22.5 91.5t65.5 64.5t104 24q73 0 116 -38.5t43 -104.5q0 -50 -26.5 -86t-71 -64t-96.5 -54l132 -184q33 28 56 66t39 78h88q-25 -62 -60 -112.5t-79 -92.5l99 -133h-104
l-55 78q-47 -38 -100.5 -63t-129.5 -25zM295 433q31 16 64.5 35.5t56.5 45.5t23 61t-20 57t-58 22q-49 0 -76.5 -29t-27.5 -80q0 -59 38 -112zM233 63q53 0 93 21.5t78 51.5l-145 206q-37 -19 -68.5 -41t-51.5 -52.5t-20 -74.5q0 -51 32 -81t82 -30z" />
    <glyph glyph-name="quotesingle" unicode="'" horiz-adv-x="220" 
d="M109 456l35 258h96l-75 -258h-56z" />
    <glyph glyph-name="parenleft" unicode="(" horiz-adv-x="290" 
d="M112 -158q-34 61 -53 134.5t-19 156.5q0 179 64 319t182 262h81q-71 -78 -126 -168.5t-86 -193t-31 -218.5q0 -87 14.5 -158.5t41.5 -133.5h-68z" />
    <glyph glyph-name="parenright" unicode=")" horiz-adv-x="290" 
d="M-77 -158q71 78 125.5 168.5t85.5 193t31 218.5q0 86 -14 158t-41 134h68q34 -62 52.5 -135.5t18.5 -156.5q0 -178 -63.5 -318.5t-182.5 -261.5h-80z" />
    <glyph glyph-name="asterisk" unicode="*" horiz-adv-x="551" 
d="M372 300l-54 195l-123 -165l-61 61l149 137l-180 53l28 78l180 -89l20 193l87 -17l-59 -186l204 10l-4 -82l-190 23l87 -185z" />
    <glyph glyph-name="plus" unicode="+" horiz-adv-x="572" 
d="M341 388h199v-71h-199v-206h-72v206h-199v71h199v207h72v-207z" />
    <glyph glyph-name="comma" unicode="," horiz-adv-x="256" 
d="M-43 -129q26 59 53 126t46 119h96l4 -11q-25 -53 -61 -116t-71 -118h-67z" />
    <glyph glyph-name="hyphen" unicode="-" horiz-adv-x="313" 
d="M26 227l18 81h236l-18 -81h-236z" />
    <glyph glyph-name="period" unicode="." horiz-adv-x="256" 
d="M72 -14q-52 0 -52 52q0 33 18.5 58t58.5 25q22 0 35.5 -13.5t13.5 -39.5q0 -31 -18 -56.5t-56 -25.5z" />
    <glyph glyph-name="slash" unicode="/" horiz-adv-x="356" 
d="M-46 0l397 714h90l-396 -714h-91z" />
    <glyph glyph-name="zero" unicode="0" horiz-adv-x="551" 
d="M236 -10q-88 0 -133.5 63t-45.5 180q0 59 10 126t31.5 131.5t56.5 117.5t84.5 85t114.5 32q92 0 136 -59.5t44 -170.5q0 -72 -11 -144t-33.5 -137t-57.5 -115.5t-84 -79.5t-112 -29zM246 65q40 0 71.5 26t55 70.5t39.5 100.5t24 116.5t8 118.5q0 74 -23.5 113.5
t-71.5 39.5q-38 0 -70 -25.5t-56.5 -69t-41.5 -97.5t-26 -112.5t-9 -112.5q0 -81 24 -124.5t76 -43.5z" />
    <glyph glyph-name="one" unicode="1" horiz-adv-x="551" 
d="M202 0l95 442q10 46 21.5 94.5t20.5 77.5q-15 -16 -31 -28t-36 -25l-88 -55l-41 66l224 142h77l-153 -714h-89z" />
    <glyph glyph-name="two" unicode="2" horiz-adv-x="551" 
d="M3 0l16 75l227 205q66 60 108 102t62 80t20 85q0 45 -27.5 73.5t-78.5 28.5q-44 0 -81 -18t-72 -44l-42 60q41 33 91 55t114 22q91 0 139.5 -45.5t48.5 -117.5q0 -58 -22 -105.5t-72 -100.5t-132 -125l-168 -146v-4h326l-15 -80h-442z" />
    <glyph glyph-name="three" unicode="3" horiz-adv-x="551" 
d="M210 -10q-58 0 -103.5 10.5t-84.5 28.5v85q35 -20 86 -35t103 -15q80 0 123 38.5t43 103.5q0 62 -37.5 94t-106.5 32h-64l15 73h65q50 0 92.5 17.5t68 51.5t25.5 81q0 46 -28.5 70.5t-73.5 24.5q-46 0 -84.5 -16t-75.5 -42l-41 62q41 30 91.5 50t117.5 20q90 0 137 -44
t47 -114q0 -76 -49 -129t-136 -69v-4q57 -10 93.5 -50t36.5 -104q0 -56 -27 -106.5t-84 -82t-149 -31.5z" />
    <glyph glyph-name="four" unicode="4" horiz-adv-x="551" 
d="M288 0l35 162h-317l15 80l403 472h101l-99 -474h110l-17 -78h-111l-35 -162h-85zM111 240h229l36 171q8 37 18.5 77.5t21 76.5t16.5 59h-4q-8 -13 -21 -31t-26 -35t-21 -27z" />
    <glyph glyph-name="five" unicode="5" horiz-adv-x="551" 
d="M200 -10q-97 0 -163 39v85q36 -22 77.5 -36t85.5 -14q70 0 113 24t62.5 63.5t19.5 85.5q0 61 -36 95.5t-98 34.5q-30 0 -56 -5t-58 -13l-37 29l97 336h329l-17 -80h-253l-60 -207q18 4 39 7t48 3q89 0 141.5 -50.5t52.5 -138.5q0 -45 -14.5 -90.5t-47 -83.5t-88 -61
t-137.5 -23z" />
    <glyph glyph-name="six" unicode="6" horiz-adv-x="551" 
d="M251 -10q-84 0 -136 53.5t-52 165.5q0 69 16 148t50 151t87 124q43 44 102 68t136 24q54 0 92 -11l-18 -76q-16 5 -36.5 8.5t-47.5 3.5q-95 0 -167.5 -66t-107.5 -217h4q29 38 71 60.5t94 22.5q74 0 118 -47t44 -133q0 -50 -15 -99.5t-45.5 -90t-77.5 -65t-111 -24.5z
M260 64q49 0 83 28t52 73t18 96q0 56 -26 86.5t-79 30.5q-36 0 -66 -16t-51 -39t-29 -44q-7 -16 -9.5 -36t-2.5 -40q0 -36 11 -67.5t35 -51.5t64 -20z" />
    <glyph glyph-name="seven" unicode="7" horiz-adv-x="551" 
d="M81 0l373 636h-347l16 78h439l-13 -70l-373 -644h-95z" />
    <glyph glyph-name="eight" unicode="8" horiz-adv-x="551" 
d="M246 -10q-69 0 -113.5 24.5t-66 65t-21.5 89.5q0 77 50 129t139 86q-38 28 -61.5 63t-23.5 90q0 59 28 101t76.5 64.5t107.5 22.5q65 0 105.5 -22.5t58.5 -58.5t18 -77q0 -53 -23.5 -89.5t-61.5 -62t-82 -43.5q52 -32 82.5 -73t30.5 -106q0 -53 -25.5 -99.5t-79.5 -75
t-138 -28.5zM315 412q68 26 103.5 59.5t35.5 86.5q0 43 -27 68t-73 25q-53 0 -85.5 -30.5t-32.5 -83.5q0 -45 22 -74t57 -51zM255 63q50 0 82 18.5t47 48t15 61.5q0 48 -25.5 83.5t-77.5 64.5q-45 -15 -81.5 -35t-57.5 -51.5t-21 -78.5q0 -52 33 -81.5t86 -29.5z" />
    <glyph glyph-name="nine" unicode="9" horiz-adv-x="551" 
d="M165 -10q-30 0 -61.5 4.5t-56.5 12.5v81q27 -9 56 -15.5t64 -6.5q100 0 159.5 69t89.5 208h-5q-25 -35 -64.5 -56.5t-87.5 -21.5q-83 0 -127.5 48.5t-44.5 140.5q0 72 30 133.5t86 99t133 37.5q88 0 137 -55.5t49 -164.5q0 -52 -9 -110.5t-26 -116t-42 -107.5t-56 -85
q-46 -51 -102.5 -73t-121.5 -22zM277 336q47 0 85 25t59 71q14 34 14 84q0 59 -27 96.5t-77 37.5t-85 -26t-53.5 -70t-18.5 -96q0 -58 26 -90t77 -32z" />
    <glyph glyph-name="colon" unicode=":" horiz-adv-x="256" 
d="M151 415q-52 0 -52 51q0 34 18.5 59t58.5 25q22 0 35.5 -13t13.5 -40q0 -31 -18.5 -56.5t-55.5 -25.5zM72 -14q-52 0 -52 52q0 33 18.5 58t58.5 25q22 0 35.5 -13.5t13.5 -39.5q0 -31 -18 -56.5t-56 -25.5z" />
    <glyph glyph-name="semicolon" unicode=";" horiz-adv-x="256" 
d="M151 415q-52 0 -52 51q0 34 18.5 59t58.5 25q22 0 35.5 -13t13.5 -40q0 -31 -18.5 -56.5t-55.5 -25.5zM-49 -129q26 59 53 126t46 119h96l4 -11q-25 -53 -61 -116t-71 -118h-67z" />
    <glyph glyph-name="less" unicode="&#x3c;" horiz-adv-x="572" 
d="M541 116l-471 207v50l471 235v-78l-377 -178l377 -158v-78z" />
    <glyph glyph-name="equal" unicode="=" horiz-adv-x="572" 
d="M76 416v71h458v-71h-458zM76 217v71h458v-71h-458z" />
    <glyph glyph-name="greater" unicode="&#x3e;" horiz-adv-x="572" 
d="M70 194l377 157l-377 179v78l471 -235v-50l-471 -207v78z" />
    <glyph glyph-name="question" unicode="?" horiz-adv-x="430" 
d="M127 201q7 43 20.5 75t37 59t59.5 56q32 25 59.5 48t44.5 51t17 66q0 44 -24 68t-70 24q-38 0 -74.5 -12.5t-69.5 -28.5l-32 67q41 22 90 36t96 14q79 0 126 -39t47 -118q0 -67 -36.5 -117t-106.5 -102q-39 -28 -60.5 -48t-33 -42t-19.5 -57h-71zM129 -14q-52 0 -52 52
q0 33 18.5 58t58.5 25q22 0 35.5 -13.5t13.5 -39.5q0 -31 -18.5 -56.5t-55.5 -25.5z" />
    <glyph glyph-name="at" unicode="@" horiz-adv-x="848" 
d="M385 -91q-101 0 -175.5 40t-115.5 115.5t-41 181.5q0 91 32 175t93 149.5t147.5 104t194.5 38.5q106 0 172.5 -41.5t98 -109.5t31.5 -147q0 -89 -27.5 -159t-76 -110t-109.5 -40q-56 0 -78.5 27t-26.5 62h-4q-22 -37 -56 -63t-84 -26q-56 0 -88.5 36t-32.5 104
q0 81 34.5 142.5t92 95.5t125.5 34q48 0 80 -9t58 -20l-47 -179q-8 -30 -12 -49.5t-4 -36.5q0 -31 14 -43t34 -12q31 0 56 21t42.5 55.5t27 77t9.5 85.5q0 66 -23.5 120t-76.5 86.5t-142 32.5q-86 0 -155.5 -30.5t-119.5 -85t-77 -126.5t-27 -155q0 -127 68 -200.5
t200 -73.5q54 0 108 12.5t98 29.5v-65q-52 -21 -108 -32.5t-109 -11.5zM378 169q48 0 79.5 42.5t50.5 109.5l33 124q-10 4 -25.5 7.5t-34.5 3.5q-47 0 -84.5 -27t-59.5 -73t-22 -103q0 -44 16 -64t47 -20z" />
    <glyph glyph-name="A" unicode="A" horiz-adv-x="562" 
d="M-57 0l388 714h94l88 -714h-88l-27 222h-241l-116 -222h-98zM200 302h189l-16 150q-4 38 -7.5 84t-4.5 81h-3q-16 -38 -37 -81.5t-44 -87.5z" />
    <glyph glyph-name="B" unicode="B" horiz-adv-x="600" 
d="M41 0l151 714h185q99 0 155.5 -39t56.5 -125q0 -73 -44 -118.5t-117 -59.5v-5q49 -13 82 -49t33 -96q0 -73 -35.5 -122.5t-97.5 -74.5t-141 -25h-228zM217 410h117q44 0 81 14t59 42.5t22 72.5q0 47 -30 72.5t-100 25.5h-101zM146 76h126q85 0 131 38t46 108q0 48 -31 81
t-105 33h-112z" />
    <glyph glyph-name="C" unicode="C" horiz-adv-x="587" 
d="M326 -10q-119 0 -186.5 73t-67.5 200q0 64 15 130t45.5 125t77 105.5t108.5 73.5t140 27q100 0 174 -40l-36 -74q-27 14 -60.5 24.5t-77.5 10.5q-75 0 -129.5 -33.5t-90.5 -89t-53.5 -123t-17.5 -134.5q0 -91 46.5 -143.5t128.5 -52.5q41 0 80.5 8t77.5 21v-78
q-39 -14 -78.5 -22t-95.5 -8z" />
    <glyph glyph-name="D" unicode="D" horiz-adv-x="667" 
d="M41 0l151 714h169q129 0 202 -70t73 -215q0 -124 -48.5 -221t-142 -152.5t-228.5 -55.5h-176zM146 77h76q104 0 175 47t108 126.5t37 179.5q0 110 -52.5 158.5t-139.5 48.5h-85z" />
    <glyph glyph-name="E" unicode="E" horiz-adv-x="514" 
d="M41 0l151 714h362l-17 -79h-273l-47 -223h255l-15 -78h-256l-55 -255h274l-17 -79h-362z" />
    <glyph glyph-name="F" unicode="F" horiz-adv-x="477" 
d="M41 0l151 714h362l-16 -79h-274l-53 -254h256l-17 -79h-256l-64 -302h-89z" />
    <glyph glyph-name="G" unicode="G" horiz-adv-x="678" 
d="M343 -10q-127 0 -199 71t-72 198q0 98 27.5 182.5t79 148t122 99t156.5 35.5q65 0 114 -11t93 -31l-34 -78q-38 16 -80.5 28.5t-93.5 12.5q-82 0 -147.5 -49t-103.5 -134.5t-38 -196.5q0 -55 19.5 -99.5t60.5 -70.5t105 -26q38 0 69.5 5.5t53.5 12.5l46 211h-140l17 78
h229l-76 -349q-45 -16 -95 -26.5t-113 -10.5z" />
    <glyph glyph-name="H" unicode="H" horiz-adv-x="680" 
d="M42 0l151 714h89l-64 -302h314l64 302h88l-151 -714h-88l70 333h-314l-70 -333h-89z" />
    <glyph glyph-name="I" unicode="I" horiz-adv-x="324" 
d="M-20 0l10 49l85 20l122 576l-76 19l10 50h250l-10 -50l-86 -19l-122 -576l77 -20l-10 -49h-250z" />
    <glyph glyph-name="J" unicode="J" horiz-adv-x="273" 
d="M-80 -190q-50 0 -76 12l3 77q15 -5 33 -7.5t38 -2.5q44 0 78 27.5t47 92.5l150 705h89l-151 -715q-22 -101 -76.5 -145t-134.5 -44z" />
    <glyph glyph-name="K" unicode="K" horiz-adv-x="562" 
d="M41 0l151 714h89l-74 -347l62 66l274 281h108l-310 -314l169 -400h-98l-139 346l-83 -61l-60 -285h-89z" />
    <glyph glyph-name="L" unicode="L" horiz-adv-x="478" 
d="M41 0l151 714h89l-135 -634h274l-17 -80h-362z" />
    <glyph glyph-name="M" unicode="M" horiz-adv-x="841" 
d="M40 0l151 714h126l69 -583h4l317 583h137l-148 -714h-90l90 424q14 65 26.5 118t21.5 85h-2l-344 -627h-71l-76 626h-4q-2 -20 -7 -53.5t-11.5 -71t-13.5 -72.5l-91 -429h-84z" />
    <glyph glyph-name="N" unicode="N" horiz-adv-x="707" 
d="M40 0l151 714h95l219 -590h3q4 36 14 91.5t21 105.5l84 393h85l-151 -714h-95l-221 592h-3q-2 -21 -7.5 -55t-13 -73.5t-15.5 -75.5l-82 -388h-84z" />
    <glyph glyph-name="O" unicode="O" horiz-adv-x="721" 
d="M337 -10q-128 0 -196.5 74.5t-68.5 202.5q0 92 24.5 175t71.5 146.5t114 100t151 36.5q121 0 189 -75.5t68 -205.5q0 -93 -22.5 -175t-67 -144.5t-110.5 -98.5t-153 -36zM340 69q60 0 107 30t80 82.5t50.5 120.5t17.5 144q0 95 -45 147.5t-123 52.5q-60 0 -108 -29.5
t-82 -81t-52 -120t-18 -146.5q0 -95 46 -147.5t127 -52.5z" />
    <glyph glyph-name="P" unicode="P" horiz-adv-x="567" 
d="M41 0l151 714h161q115 0 164.5 -51.5t49.5 -134.5q0 -121 -80 -185t-234 -64h-64l-59 -279h-89zM205 354h62q96 0 152.5 41t56.5 130q0 59 -33.5 85.5t-101.5 26.5h-76z" />
    <glyph glyph-name="Q" unicode="Q" horiz-adv-x="721" 
d="M461 -170l-108 161q-5 -1 -8.5 -1h-7.5q-128 0 -196.5 74.5t-68.5 202.5q0 92 24.5 175t71.5 146.5t114 100t151 36.5q121 0 189 -75.5t68 -205.5q0 -103 -29 -192.5t-85 -153.5t-135 -91l134 -177h-114zM340 69q61 0 108.5 30t80 82.5t49.5 120.5t17 144q0 95 -45 147.5
t-123 52.5q-60 0 -108 -29.5t-82 -81t-52 -120t-18 -146.5q0 -95 46 -147.5t127 -52.5z" />
    <glyph glyph-name="R" unicode="R" horiz-adv-x="573" 
d="M41 0l151 714h157q220 0 220 -181q0 -77 -40.5 -134t-137.5 -84l118 -315h-98l-102 295h-117l-62 -295h-89zM208 371h78q100 0 145.5 43.5t45.5 112.5q0 61 -34.5 85t-101.5 24h-76z" />
    <glyph glyph-name="S" unicode="S" horiz-adv-x="505" 
d="M185 -10q-52 0 -91.5 8t-74.5 24v88q30 -16 71.5 -29t95.5 -13q45 0 83 14t61 43t23 75q0 40 -26.5 68.5t-91.5 65.5q-38 22 -67.5 47t-46 57t-16.5 79q0 66 32 112.5t85.5 70.5t117.5 24q56 0 98.5 -11t80.5 -31l-34 -76q-26 14 -65 26.5t-80 12.5q-62 0 -101 -32
t-39 -90q0 -31 11 -51t34 -37t57 -37q43 -26 75.5 -51t51 -58t18.5 -82q0 -107 -71.5 -162t-190.5 -55z" />
    <glyph glyph-name="T" unicode="T" horiz-adv-x="501" 
d="M152 0l134 635h-196l17 79h482l-16 -79h-196l-135 -635h-90z" />
    <glyph glyph-name="U" unicode="U" horiz-adv-x="677" 
d="M300 -10q-112 0 -166.5 51.5t-54.5 146.5q0 17 3 41.5t9 53.5l92 431h89l-93 -436q-5 -23 -8 -48t-3 -41q0 -56 34.5 -88t102.5 -32q89 0 132 46t63 135l99 464h89l-100 -471q-16 -78 -50.5 -135t-92.5 -87.5t-145 -30.5z" />
    <glyph glyph-name="V" unicode="V" horiz-adv-x="552" 
d="M169 0l-77 714h88l45 -452q5 -41 7.5 -83t1.5 -78h2q15 36 34 75.5t43 86.5l232 451h99l-380 -714h-95z" />
    <glyph glyph-name="W" unicode="W" horiz-adv-x="856" 
d="M137 0l-30 714h88l14 -435q1 -41 -0.5 -85t-3.5 -84h3q14 39 34 89.5t41 94.5l196 420h91l20 -418q3 -47 4 -98t0 -88h3q13 38 29 83t35 89l187 432h95l-324 -714h-91l-22 460q-2 33 -3 70.5t-1 68.5h-3q-10 -30 -23.5 -61.5t-35.5 -80.5l-211 -457h-92z" />
    <glyph glyph-name="X" unicode="X" horiz-adv-x="527" 
d="M-52 0l291 378l-127 336h90l97 -273l212 273h98l-270 -340l135 -374h-94l-102 309l-232 -309h-98z" />
    <glyph glyph-name="Y" unicode="Y" horiz-adv-x="509" 
d="M150 0l58 268l-116 446h89l85 -358l234 358h101l-306 -449l-55 -265h-90z" />
    <glyph glyph-name="Z" unicode="Z" horiz-adv-x="531" 
d="M-10 0l14 70l445 564h-315l17 80h422l-13 -71l-445 -563h335l-16 -80h-444z" />
    <glyph glyph-name="bracketleft" unicode="[" horiz-adv-x="290" 
d="M-9 -158l186 872h193l-16 -72h-110l-154 -728h110l-16 -72h-193z" />
    <glyph glyph-name="backslash" unicode="\" horiz-adv-x="356" 
d="M214 0l-106 714h80l106 -714h-80z" />
    <glyph glyph-name="bracketright" unicode="]" horiz-adv-x="290" 
d="M-72 -158l15 72h110l154 728h-110l16 72h193l-186 -872h-192z" />
    <glyph glyph-name="asciicircum" unicode="^" horiz-adv-x="572" 
d="M38 267l212 452h50l234 -452h-78l-180 359l-160 -359h-78z" />
    <glyph glyph-name="underscore" unicode="_" horiz-adv-x="395" 
d="M-92 -158l15 68h397l-15 -68h-397z" />
    <glyph glyph-name="grave" unicode="`" horiz-adv-x="278" 
d="M256 606q-19 19 -40.5 46t-40.5 55t-29 49v10h94q11 -37 30.5 -75.5t39.5 -72.5v-12h-54z" />
    <glyph glyph-name="a" unicode="a" horiz-adv-x="568" 
d="M193 -10q-65 0 -105 46.5t-40 136.5q0 75 19.5 142.5t54.5 119t83 81.5t106 30q53 0 86 -28t49 -65h5l32 83h67l-114 -536h-70l13 99h-4q-35 -44 -80.5 -76.5t-101.5 -32.5zM222 63q36 0 72 27t64.5 72.5t44.5 103.5q7 28 10 53t3 46q0 47 -26 77t-70 30q-39 0 -72 -24.5
t-58 -67t-38.5 -96.5t-13.5 -113q0 -54 22 -81t62 -27z" />
    <glyph glyph-name="b" unicode="b" horiz-adv-x="579" 
d="M269 -10q-54 0 -87.5 27.5t-49.5 64.5h-5l-33 -82h-66l161 760h88l-38 -180q-7 -34 -15.5 -67t-14.5 -54t-7 -23h4q36 44 78.5 76.5t98.5 32.5q66 0 106.5 -46t40.5 -136q0 -73 -18 -140t-52 -119.5t-82 -83t-109 -30.5zM262 63q40 0 73 25.5t56.5 68.5t36 97t12.5 110
q0 108 -85 108q-33 0 -67.5 -24.5t-63.5 -67t-46.5 -96.5t-17.5 -113q0 -48 25 -78t77 -30z" />
    <glyph glyph-name="c" unicode="c" horiz-adv-x="453" 
d="M247 -10q-89 0 -144 50t-55 150q0 72 19.5 136.5t56 113.5t88.5 77.5t116 28.5q35 0 69.5 -7t63.5 -19l-25 -73q-20 9 -47.5 17t-59.5 8q-57 0 -100 -38.5t-67 -102.5t-24 -140q0 -61 31 -94.5t87 -33.5q35 0 66.5 9.5t62.5 23.5v-74q-28 -14 -62.5 -23t-75.5 -9z" />
    <glyph glyph-name="d" unicode="d" horiz-adv-x="579" 
d="M193 -10q-65 0 -105 46t-40 137q0 73 18 140t52.5 119.5t83 82.5t109.5 30q54 0 86.5 -27.5t48.5 -64.5h5q5 34 9.5 65t12.5 67l37 175h87l-161 -760h-72l11 99h-4q-36 -45 -79 -77t-99 -32zM223 63q33 0 67 24.5t63 66.5t46.5 96t17.5 114q0 48 -23.5 78t-76.5 30
q-40 0 -72.5 -25.5t-56.5 -68.5t-37 -97t-13 -110q0 -108 85 -108z" />
    <glyph glyph-name="e" unicode="e" horiz-adv-x="499" 
d="M242 -10q-93 0 -143.5 54.5t-50.5 147.5q0 64 18.5 126.5t53.5 114t84.5 82.5t111.5 31q76 0 114.5 -33t38.5 -92q0 -53 -32.5 -95.5t-101.5 -68t-179 -25.5h-17q-1 -9 -1.5 -19t-0.5 -18q0 -61 29.5 -96.5t91.5 -35.5q38 0 72 10.5t74 30.5v-75q-38 -17 -74.5 -28
t-87.5 -11zM152 303h7q60 0 111 10.5t82 35t31 65.5q0 26 -17.5 42.5t-54.5 16.5q-48 0 -92.5 -44.5t-66.5 -125.5z" />
    <glyph glyph-name="f" unicode="f" horiz-adv-x="318" 
d="M-48 -240q-20 0 -35.5 3t-28.5 7v74q14 -4 27 -7.5t29 -3.5q36 0 56 29.5t32 84.5l110 522h-93l7 37l100 33l11 48q15 69 39 107.5t59 54.5t84 16q25 0 51 -5.5t43 -13.5l-23 -67q-14 5 -31 9.5t-36 4.5q-39 0 -62 -22t-36 -84l-12 -51h115l-13 -67h-115l-112 -532
q-18 -83 -56 -130t-110 -47z" />
    <glyph glyph-name="g" unicode="g" horiz-adv-x="579" 
d="M186 -240q-49 0 -90.5 9.5t-70.5 24.5v81q26 -16 70.5 -29t87.5 -13q62 0 101.5 30t56.5 100l9 38q4 21 10 43.5t10.5 38.5l4.5 16h-4q-35 -44 -78 -76.5t-99 -32.5q-65 0 -105.5 46.5t-40.5 136.5q0 73 18 140t52.5 119.5t83 83t109.5 30.5q54 0 86.5 -28t49.5 -65h4
l33 83h67l-122 -567q-24 -113 -85.5 -161t-157.5 -48zM223 63q34 0 68 25t62.5 67.5t45.5 96.5t17 112q0 48 -22.5 78t-75.5 30q-40 0 -73 -25.5t-57 -68.5t-37 -97t-13 -110q0 -108 85 -108z" />
    <glyph glyph-name="h" unicode="h" horiz-adv-x="579" 
d="M28 0l161 760h88l-43 -197q-6 -30 -15 -62.5t-17 -64.5h5q19 25 45 50t59.5 42t76.5 17q62 0 98.5 -34.5t36.5 -102.5q0 -20 -3.5 -40t-7.5 -42l-70 -326h-88l71 336q9 45 9 66q0 33 -16.5 51.5t-53.5 18.5q-34 0 -73.5 -23.5t-73 -76.5t-52.5 -141l-49 -231h-88z" />
    <glyph glyph-name="i" unicode="i" horiz-adv-x="258" 
d="M213 625q-21 0 -34.5 12.5t-13.5 34.5q0 26 15.5 45t43.5 19q46 0 46 -45q0 -31 -18 -48.5t-39 -17.5zM28 0l114 536h88l-114 -536h-88z" />
    <glyph glyph-name="j" unicode="j" horiz-adv-x="258" 
d="M212 625q-20 0 -33.5 12.5t-13.5 34.5q0 26 15.5 45t43.5 19q45 0 45 -45q0 -31 -18 -48.5t-39 -17.5zM-64 -240q-37 0 -62 10v74q12 -4 27 -7.5t31 -3.5q61 0 82 98l128 605h87l-130 -613q-16 -75 -52.5 -119t-110.5 -44z" />
    <glyph glyph-name="k" unicode="k" horiz-adv-x="495" 
d="M27 0l161 760h89l-65 -302q-17 -80 -29.5 -123.5t-17.5 -57.5h2l254 259h104l-230 -230l143 -306h-97l-113 251l-72 -57l-40 -194h-89z" />
    <glyph glyph-name="l" unicode="l" horiz-adv-x="258" 
d="M27 0l162 760h88l-162 -760h-88z" />
    <glyph glyph-name="m" unicode="m" horiz-adv-x="875" 
d="M28 0l114 536h72l-11 -99h5q18 25 42.5 50t56.5 42t73 17q55 0 85 -32t36 -87h4q20 29 47.5 56.5t61.5 45t75 17.5q62 0 96 -34t34 -98q0 -24 -3 -45t-8 -43l-69 -326h-89l72 336q4 22 6.5 38.5t2.5 31.5q0 30 -16.5 48t-51.5 18q-33 0 -69 -24t-67.5 -75t-48.5 -131
l-51 -242h-88l71 336q9 45 9 66q0 33 -15 51.5t-50 18.5q-32 0 -69 -23.5t-69 -76.5t-51 -141l-49 -231h-88z" />
    <glyph glyph-name="n" unicode="n" horiz-adv-x="579" 
d="M24 -3l115 542h78l-11 -99q19 24 45 49.5t59.5 42.5t77.5 17q64 0 101 -35.5t37 -99.5q0 -23 -3.5 -47t-7.5 -42l-71 -328h-94l72 340q4 23 7 38.5t3 29.5q0 64 -68 64q-34 0 -72.5 -23.5t-72 -75.5t-51.5 -140l-50 -233h-94z" />
    <glyph glyph-name="o" unicode="o" horiz-adv-x="563" 
d="M248 -8q-93 0 -146.5 55.5t-53.5 150.5q0 62 17 123t50.5 111t84 80.5t116.5 30.5q94 0 147 -55.5t53 -151.5q0 -61 -17 -122t-50.5 -111t-83.5 -80.5t-117 -30.5zM253 65q47 0 86.5 33.5t63 96.5t23.5 151q0 30 -10.5 58.5t-34.5 47t-64 18.5q-55 0 -95.5 -37.5
t-62.5 -100t-22 -137.5q0 -62 30.5 -96t85.5 -34z" />
    <glyph glyph-name="p" unicode="p" horiz-adv-x="579" 
d="M-22 -240l164 776h72l-12 -100h4q35 44 79 76.5t100 32.5q65 0 105 -46t40 -137q0 -74 -18 -140.5t-52 -119t-82.5 -82.5t-108.5 -30q-54 0 -87 27.5t-50 64.5h-5q-1 -16 -5 -44.5t-8 -46.5l-49 -231h-87zM262 63q40 0 73 25.5t56.5 68.5t36 97t12.5 110q0 108 -85 108
q-33 0 -67.5 -24.5t-63.5 -66.5t-46.5 -96t-17.5 -114q0 -48 25 -78t77 -30z" />
    <glyph glyph-name="q" unicode="q" horiz-adv-x="579" 
d="M298 -240l48 228q4 17 11 43.5t12.5 47l5.5 20.5h-4q-35 -44 -78 -76.5t-99 -32.5q-65 0 -105.5 46t-40.5 137q0 73 18 140t52.5 119.5t83.5 83t110 30.5q53 0 85.5 -28t48.5 -65h5l33 83h66l-165 -776h-87zM223 63q33 0 67 25t62.5 67.5t46 96.5t17.5 112q0 44 -23 76
t-75 32q-40 0 -73 -25.5t-57 -68.5t-37 -97t-13 -110q0 -108 85 -108z" />
    <glyph glyph-name="r" unicode="r" horiz-adv-x="398" 
d="M28 0l114 536h72l-11 -99h5q21 27 44 52t52 41t67 16q14 0 29.5 -1.5t28.5 -5.5l-19 -79q-27 6 -51 6q-50 0 -89 -33t-65 -84t-37 -104l-52 -245h-88z" />
    <glyph glyph-name="s" unicode="s" horiz-adv-x="432" 
d="M155 -10q-49 0 -85.5 9.5t-64.5 24.5v81q25 -16 65 -29.5t82 -13.5q59 0 90 23t31 61q0 29 -19 48.5t-71 48.5q-57 32 -86 66t-29 85q0 68 49.5 110t132.5 42q49 0 90.5 -11.5t71.5 -25.5l-28 -70q-26 12 -58 22.5t-76 10.5t-69 -20.5t-25 -52.5q0 -26 17.5 -45.5
t70.5 -48.5q34 -20 61 -40t42.5 -46.5t15.5 -63.5q0 -81 -56.5 -123t-151.5 -42z" />
    <glyph glyph-name="t" unicode="t" horiz-adv-x="332" 
d="M185 -10q-54 0 -91 26t-37 91q0 32 9 71l61 291h-83l8 40l90 38l62 111h52l-27 -122h135l-14 -67h-134l-62 -292q-3 -13 -6 -29.5t-3 -30.5q0 -23 12.5 -39t40.5 -16q18 0 35 3.5t36 9.5v-67q-12 -6 -37 -12t-47 -6z" />
    <glyph glyph-name="u" unicode="u" horiz-adv-x="579" 
d="M189 -10q-61 0 -97.5 34t-36.5 99q0 23 3.5 43t7.5 43l70 327h89l-72 -337q-9 -43 -9 -67q0 -32 16 -50.5t54 -18.5q34 0 73 24t73.5 77t53.5 141l49 231h87l-114 -536h-72l11 99h-5q-19 -25 -44.5 -50t-59.5 -42t-77 -17z" />
    <glyph glyph-name="v" unicode="v" horiz-adv-x="467" 
d="M110 0l-62 536h88l30 -298q3 -26 5.5 -61t4 -65.5t1.5 -44.5h3q11 25 26 57t30.5 64t26.5 53l158 295h94l-290 -536h-115z" />
    <glyph glyph-name="w" unicode="w" horiz-adv-x="723" 
d="M79 0l-22 536h86l8 -286q1 -55 -0.5 -99.5t-3.5 -73.5h4q7 21 18.5 49.5t24 57t22.5 49.5l141 303h95l17 -287q1 -37 2 -85.5t-1 -86.5h4q13 38 33 89.5t44 106.5l117 263h93l-248 -536h-106l-15 290q-2 40 -1.5 77t0.5 84h-4q-13 -37 -26.5 -68.5t-37.5 -82.5l-140 -300
h-104z" />
    <glyph glyph-name="x" unicode="x" horiz-adv-x="483" 
d="M-37 0l232 276l-116 260h89l83 -198l157 198h102l-223 -264l123 -272h-89l-91 208l-165 -208h-102z" />
    <glyph glyph-name="y" unicode="y" horiz-adv-x="467" 
d="M-25 -240q-24 0 -39.5 3t-29.5 7v71q14 -4 30 -6.5t34 -2.5q40 0 69 25t55 73l35 62l-81 544h88l35 -265q5 -33 7.5 -71t4 -72.5t1.5 -55.5h3q7 16 20.5 48t29.5 66t28 56l156 294h94l-340 -626q-41 -75 -85 -112.5t-115 -37.5z" />
    <glyph glyph-name="z" unicode="z" horiz-adv-x="445" 
d="M-15 0l12 60l333 410h-230l14 66h325l-14 -71l-327 -399h255l-13 -66h-355z" />
    <glyph glyph-name="braceleft" unicode="{" horiz-adv-x="350" 
d="M217 -158q-71 0 -108 26.5t-37 83.5q0 16 3 32.5t7 35.5l24 105q3 16 5 29t2 25q0 70 -102 70l17 73q58 0 93 21t45 72l33 157q17 79 58.5 110.5t124.5 31.5h18l-15 -73q-44 0 -69.5 -15t-35.5 -62l-35 -156q-11 -51 -40 -84t-87 -43v-2q39 -11 57 -38t18 -66
q0 -13 -2.5 -30t-6.5 -33l-22 -102q-3 -13 -5 -24.5t-2 -21.5q0 -29 20.5 -39t54.5 -10v-73h-13z" />
    <glyph glyph-name="bar" unicode="|" horiz-adv-x="551" 
d="M260 -241v1001h72v-1001h-72z" />
    <glyph glyph-name="braceright" unicode="}" horiz-adv-x="350" 
d="M-37 -158v73q48 0 75.5 15t38.5 62l35 156q11 51 39.5 83.5t87.5 42.5v3q-39 11 -56.5 37.5t-17.5 65.5q0 14 2.5 30.5t6.5 32.5l23 103q3 13 5 24.5t2 21.5q0 29 -23 39t-64 10l15 73h6q72 0 109.5 -26.5t37.5 -83.5q0 -16 -2.5 -32.5t-7.5 -35.5l-24 -106
q-3 -16 -5.5 -28.5t-2.5 -24.5q0 -70 102 -70l-16 -73q-58 0 -92.5 -21t-45.5 -72l-33 -157q-12 -56 -35 -87t-60 -43t-93 -12h-7z" />
    <glyph glyph-name="asciitilde" unicode="~" horiz-adv-x="572" 
d="M289 319q-36 16 -59.5 21.5t-45.5 5.5q-28 0 -59 -17t-55 -42v78q48 53 120 53q28 0 57 -6t75 -26q36 -16 59.5 -21.5t44.5 -5.5q29 0 60 17t55 42v-77q-49 -54 -120 -54q-29 0 -58 6.5t-74 25.5z" />
    <glyph glyph-name="uni00A0" unicode="&#xa0;" horiz-adv-x="260" 
 />
    <glyph glyph-name="exclamdown" unicode="&#xa1;" horiz-adv-x="261" 
d="M172 411q-52 0 -52 52q0 33 18.5 58t57.5 25q22 0 35.5 -14t13.5 -40q0 -29 -17.5 -55t-55.5 -26zM-10 -182l134 513h58l-85 -513h-107z" />
    <glyph glyph-name="cent" unicode="&#xa2;" horiz-adv-x="551" 
d="M220 -10l21 105q-61 16 -97.5 64.5t-36.5 128.5q0 90 30 166t85.5 126t130.5 62l16 82h63l-18 -82q61 -5 107 -24l-25 -73q-20 9 -47.5 17t-59.5 8q-57 0 -100.5 -38.5t-67.5 -102.5t-24 -140q0 -61 31.5 -95t87.5 -34q35 0 66.5 10t61.5 24v-75q-27 -13 -61.5 -22
t-78.5 -10l-20 -97h-64z" />
    <glyph glyph-name="sterling" unicode="&#xa3;" horiz-adv-x="551" 
d="M-11 0l14 74q43 10 77.5 42t48.5 98l22 102h-98l14 66h98l35 167q21 96 78.5 135t133.5 39q52 0 94 -12.5t72 -29.5l-34 -69q-24 13 -58 25.5t-76 12.5q-40 0 -75.5 -23t-49.5 -90l-33 -155h178l-14 -66h-178l-22 -101q-13 -61 -38.5 -90t-55.5 -45h351l-17 -80h-467z
" />
    <glyph glyph-name="currency" unicode="&#xa4;" horiz-adv-x="551" 
d="M461 139l-63 62q-22 -15 -48.5 -23.5t-55.5 -8.5t-56 9t-49 24l-62 -62l-46 47l62 62q-16 22 -24.5 48t-8.5 56q0 57 33 104l-63 63l47 48l62 -63q23 15 49.5 24t55.5 9t55.5 -9t48.5 -24l63 63l48 -47l-63 -63q14 -22 23.5 -49t9.5 -56q0 -30 -9 -56.5t-24 -48.5l62 -62
zM294 236q50 0 85 34t35 83q0 50 -35 84.5t-85 34.5q-49 0 -83 -34.5t-34 -84.5q0 -49 34 -83t83 -34z" />
    <glyph glyph-name="yen" unicode="&#xa5;" horiz-adv-x="551" 
d="M174 0l27 128h-141l15 67h140l16 77h-141l15 67h109l-99 375h86l84 -358l235 358h96l-258 -375h111l-14 -67h-143l-16 -77h143l-14 -67h-142l-28 -128h-81z" />
    <glyph glyph-name="brokenbar" unicode="&#xa6;" horiz-adv-x="551" 
d="M260 379v381h72v-381h-72zM260 -241v381h72v-381h-72z" />
    <glyph glyph-name="section" unicode="&#xa7;" horiz-adv-x="486" 
d="M173 -5q-50 0 -86.5 9.5t-59.5 21.5v75q25 -14 65 -26.5t81 -12.5q63 0 96.5 21.5t33.5 61.5q0 23 -21.5 41.5t-75.5 43.5q-56 25 -89 57.5t-33 88.5q0 57 34 92.5t80 56.5q-25 16 -41 40t-16 59q0 58 48.5 99.5t140.5 41.5q47 0 87 -9t71 -25l-27 -63q-33 14 -65 22
t-66 8q-26 0 -50 -7t-39.5 -23t-15.5 -41q0 -26 21.5 -43.5t74.5 -40.5q53 -24 87.5 -55.5t34.5 -85.5q0 -51 -31.5 -90.5t-80.5 -64.5q23 -15 39 -37t16 -56q0 -70 -53.5 -114.5t-159.5 -44.5zM281 277q31 17 56.5 46t25.5 67q0 31 -25.5 53.5t-86.5 47.5
q-31 -10 -60 -37.5t-29 -67.5q0 -34 25.5 -56.5t93.5 -52.5z" />
    <glyph glyph-name="dieresis" unicode="&#xa8;" horiz-adv-x="554" 
d="M442 631q-18 0 -30 11t-12 31q0 23 14 40t39 17q20 0 30 -11t10 -29q0 -28 -16 -43.5t-35 -15.5zM263 631q-19 0 -31 11t-12 31q0 23 14 40t39 17q21 0 30.5 -11t9.5 -29q0 -28 -15.5 -43.5t-34.5 -15.5z" />
    <glyph glyph-name="copyright" unicode="&#xa9;" horiz-adv-x="832" 
d="M416 -10q-80 0 -147 27t-116.5 76.5t-76.5 116.5t-27 147t27 147t76.5 116.5t116.5 76.5t147 27q76 0 142.5 -27t117 -76.5t79 -116.5t28.5 -147t-27 -147t-76.5 -116.5t-116.5 -76.5t-147 -27zM416 43q64 0 120 23t99 65.5t67 99.5t24 126q0 65 -23 122t-64.5 100
t-98 67.5t-124.5 24.5q-90 0 -160.5 -40.5t-110.5 -111.5t-40 -162q0 -65 23 -122t64.5 -100t98.5 -67.5t125 -24.5zM431 133q-99 0 -148 61.5t-49 162.5q0 65 23 115.5t68 79t110 28.5t123 -30l-29 -61q-50 26 -93 26q-59 0 -91.5 -42.5t-32.5 -115.5q0 -77 28.5 -118
t94.5 -41q23 0 51.5 6.5t53.5 16.5v-64q-24 -11 -49 -17.5t-60 -6.5z" />
    <glyph glyph-name="ordfeminine" unicode="&#xaa;" horiz-adv-x="339" 
d="M170 383q-37 0 -62.5 28.5t-25.5 83.5q0 57 18.5 109t54 85t88.5 33q31 0 49 -15t26 -35h4l18 44h45l-69 -327h-47l7 56h-3q-19 -26 -43 -44t-60 -18zM189 436q28 0 48.5 17.5t34.5 44t21 56t7 53.5q0 29 -13.5 46t-41.5 17q-32 0 -55.5 -25t-36 -64t-12.5 -79
q0 -34 12.5 -50t35.5 -16z" />
    <glyph glyph-name="guillemotleft" unicode="&#xab;" horiz-adv-x="477" 
d="M154 54l-112 217v13l192 187l43 -43l-144 -160l82 -188zM344 54l-105 197v14l181 201l47 -38l-138 -177l76 -171z" />
    <glyph glyph-name="logicalnot" unicode="&#xac;" horiz-adv-x="572" 
d="M540 388v-260h-71v189h-399v71h470z" />
    <glyph glyph-name="uni00AD" unicode="&#xad;" horiz-adv-x="313" 
d="M26 227l18 81h236l-18 -81h-236z" />
    <glyph glyph-name="registered" unicode="&#xae;" horiz-adv-x="832" 
d="M416 -10q-80 0 -147 27t-116.5 76.5t-76.5 116.5t-27 147t27 147t76.5 116.5t116.5 76.5t147 27q76 0 142.5 -27t117 -76.5t79 -116.5t28.5 -147t-27 -147t-76.5 -116.5t-116.5 -76.5t-147 -27zM416 43q64 0 120 23t99 65.5t67 99.5t24 126q0 65 -23 122t-64.5 100
t-98 67.5t-124.5 24.5q-90 0 -160.5 -40.5t-110.5 -111.5t-40 -162q0 -65 23 -122t64.5 -100t98.5 -67.5t125 -24.5zM279 138v437h128q82 0 120 -32.5t38 -96.5q0 -47 -24 -74.5t-54 -39.5l116 -194h-86l-100 173h-62v-173h-76zM355 373h50q39 0 61 19.5t22 51.5
q0 35 -20 51t-64 16h-49v-138z" />
    <glyph glyph-name="overscore" unicode="&#xaf;" horiz-adv-x="393" 
d="M101 760l16 67h395l-17 -67h-394z" />
    <glyph glyph-name="degree" unicode="&#xb0;" horiz-adv-x="428" 
d="M214 417q-72 0 -115.5 42.5t-43.5 110.5t42.5 111t116.5 43q70 0 114.5 -43t44.5 -111t-44.5 -110.5t-114.5 -42.5zM215 476q48 0 70.5 26t22.5 68q0 44 -23.5 70t-69.5 26q-49 0 -72 -26t-23 -70q0 -42 23 -68t72 -26z" />
    <glyph glyph-name="plusminus" unicode="&#xb1;" horiz-adv-x="572" 
d="M341 391h199v-71h-199v-206h-72v206h-199v71h199v207h72v-207zM70 0v71h471v-71h-471z" />
    <glyph glyph-name="uni00B2" unicode="&#xb2;" horiz-adv-x="353" 
d="M71 416l12 55l129 110q60 52 88 86t28 73q0 25 -14.5 40t-42.5 15q-47 0 -95 -39l-31 47q31 25 64.5 37.5t73.5 12.5q41 0 66.5 -15t37 -38.5t11.5 -48.5q0 -33 -11.5 -61t-38.5 -58t-73 -68l-104 -87h191l-13 -61h-278z" />
    <glyph glyph-name="uni00B3" unicode="&#xb3;" horiz-adv-x="353" 
d="M196 409q-33 0 -62.5 7.5t-52.5 19.5v65q26 -15 57 -25t60 -10q50 0 74.5 22t24.5 59q0 64 -84 64h-46l12 55h46q46 0 74 19t28 54q0 59 -64 57q-26 -1 -48.5 -9.5t-43.5 -23.5l-28 48q23 18 57 30.5t76 12.5q60 0 90 -29t30 -72q0 -45 -27 -72.5t-75 -40.5v-4
q34 -8 53 -32.5t19 -58.5q0 -58 -41.5 -97t-128.5 -39z" />
    <glyph glyph-name="acute" unicode="&#xb4;" horiz-adv-x="263" 
d="M115 606v13q17 19 38 45t40 53t34 49h100v-10q-14 -18 -41.5 -46.5t-58.5 -57t-57 -46.5h-55z" />
    <glyph glyph-name="uni03BC" unicode="&#x3bc;" horiz-adv-x="585" 
d="M-22 -240l164 776h88l-71 -337q-9 -43 -9 -65q0 -34 16.5 -52.5t53.5 -18.5q34 0 72.5 23.5t73 76.5t53.5 140l51 233h86l-114 -536h-72l11 99h-5q-20 -25 -45 -50.5t-58 -42t-74 -16.5q-55 0 -79 46h-4q-2 -14 -6 -38t-8 -47t-6 -37l-32 -154h-86z" />
    <glyph glyph-name="paragraph" unicode="&#xb6;" horiz-adv-x="655" 
d="M371 -127v400q-30 -9 -71 -9q-62 0 -108 23t-71.5 77t-25.5 145q0 95 27.5 150t77 78t115.5 23h274v-887h-58v809h-102v-809h-58z" />
    <glyph glyph-name="periodcentered" unicode="&#xb7;" horiz-adv-x="256" 
d="M133 285q-52 0 -52 52q0 33 18.5 58t58.5 25q22 0 35.5 -13.5t13.5 -39.5q0 -31 -18 -56.5t-56 -25.5z" />
    <glyph glyph-name="cedilla" unicode="&#xb8;" horiz-adv-x="205" 
d="M-40 -240q-27 0 -45 5v52q10 -2 19.5 -3t16.5 -1q82 0 82 53q0 22 -18.5 32t-48.5 14l48 88h56l-29 -57q23 -7 43.5 -23.5t20.5 -53.5q0 -45 -37.5 -75.5t-107.5 -30.5z" />
    <glyph glyph-name="uni00B9" unicode="&#xb9;" horiz-adv-x="353" 
d="M190 415l53 251q5 25 13.5 56.5t14.5 52.5q-8 -7 -19.5 -17.5t-23.5 -19.5l-52 -34l-28 47l142 92h62l-91 -428h-71z" />
    <glyph glyph-name="ordmasculine" unicode="&#xba;" horiz-adv-x="339" 
d="M208 383q-52 0 -87 32.5t-35 98.5q0 52 18.5 99.5t55 78t91.5 30.5q63 0 91.5 -36t28.5 -92q0 -52 -17 -100t-52.5 -79.5t-93.5 -31.5zM213 435q33 0 55.5 22.5t33.5 58.5t11 75q0 41 -17.5 59.5t-46.5 18.5q-35 0 -58 -21.5t-34.5 -56.5t-11.5 -75t18 -60.5t50 -20.5z
" />
    <glyph glyph-name="guillemotright" unicode="&#xbb;" horiz-adv-x="477" 
d="M243 54l-43 43l144 159l-82 189l61 26l112 -218v-14zM57 60l-47 37l138 175l-76 173l61 26l105 -198v-15z" />
    <glyph glyph-name="onequarter" unicode="&#xbc;" horiz-adv-x="732" 
d="M86 0l530 714h79l-530 -714h-79zM159 286l53 251q5 25 13.5 56.5t14.5 52.5q-8 -7 -19.5 -17.5t-23.5 -19.5l-52 -34l-28 47l142 92h62l-91 -428h-71zM536 1l20 97h-178l11 52l235 282h71l-59 -275h61l-11 -59h-63l-20 -97h-67zM461 157h108l20 92q6 26 11 49.5t12 47.5
q-4 -7 -13.5 -20.5t-20.5 -27.5t-19 -23z" />
    <glyph glyph-name="onehalf" unicode="&#xbd;" horiz-adv-x="805" 
d="M88 0l530 714h79l-530 -714h-79zM159 286l53 251q5 25 13.5 56.5t14.5 52.5q-8 -7 -19.5 -17.5t-23.5 -19.5l-52 -34l-28 47l142 92h62l-91 -428h-71zM435 1l12 55l129 110q60 52 88 86t28 73q0 25 -14.5 40t-42.5 15q-47 0 -95 -39l-31 47q31 25 64.5 37.5t73.5 12.5
q41 0 66.5 -15t37 -38.5t11.5 -48.5q0 -33 -11.5 -61t-38.5 -58t-73 -68l-104 -87h191l-13 -61h-278z" />
    <glyph glyph-name="threequarters" unicode="&#xbe;" horiz-adv-x="793" 
d="M170 279q-33 0 -62.5 7.5t-52.5 19.5v65q26 -15 57 -25t60 -10q50 0 74.5 22t24.5 59q0 64 -84 64h-46l12 55h46q46 0 74 19t28 54q0 59 -64 57q-26 -1 -48.5 -9.5t-43.5 -23.5l-28 48q23 18 57 30.5t76 12.5q60 0 90 -29t30 -72q0 -45 -27 -72.5t-75 -40.5v-4
q34 -8 53 -32.5t19 -58.5q0 -58 -41.5 -97t-128.5 -39zM150 0l530 714h79l-530 -714h-79zM597 0l20 97h-178l11 52l235 282h71l-59 -275h61l-11 -59h-63l-20 -97h-67zM522 156h108l20 92q6 26 11 49.5t12 47.5q-4 -7 -13.5 -20.5t-20.5 -27.5t-19 -23z" />
    <glyph glyph-name="questiondown" unicode="&#xbf;" horiz-adv-x="430" 
d="M306 330q-7 -43 -20.5 -75t-37 -59t-59.5 -56q-32 -25 -59.5 -48t-44.5 -51t-17 -66q0 -44 24 -68t70 -24q38 0 74.5 12.5t69.5 28.5l32 -67q-41 -22 -90 -36t-96 -14q-79 0 -126 39t-47 118q0 67 36.5 117t106.5 102q39 28 60.5 48t33 42t19.5 57h71zM304 545
q52 0 52 -52q0 -33 -18.5 -58t-58.5 -25q-22 0 -35.5 13.5t-13.5 39.5q0 31 18.5 56.5t55.5 25.5z" />
    <glyph glyph-name="Agrave" unicode="&#xc0;" horiz-adv-x="562" 
d="M-57 0l388 714h94l88 -714h-88l-27 222h-241l-116 -222h-98zM200 302h189l-16 150q-4 38 -7.5 84t-4.5 81h-3q-16 -38 -37 -81.5t-44 -87.5zM394 784q-19 19 -40.5 46t-40.5 55t-29 49v10h94q11 -37 30.5 -75.5t39.5 -72.5v-12h-54z" />
    <glyph glyph-name="Aacute" unicode="&#xc1;" horiz-adv-x="562" 
d="M-57 0l388 714h94l88 -714h-88l-27 222h-241l-116 -222h-98zM200 302h189l-16 150q-4 38 -7.5 84t-4.5 81h-3q-16 -38 -37 -81.5t-44 -87.5zM338 784v13q17 19 38 45t40 53t34 49h100v-10q-14 -18 -41.5 -46.5t-58.5 -57t-57 -46.5h-55z" />
    <glyph glyph-name="Acircumflex" unicode="&#xc2;" horiz-adv-x="562" 
d="M-57 0l388 714h94l88 -714h-88l-27 222h-241l-116 -222h-98zM200 302h189l-16 150q-4 38 -7.5 84t-4.5 81h-3q-16 -38 -37 -81.5t-44 -87.5zM227 784v13q17 15 45 41.5t54.5 55t40.5 50.5h85q15 -39 40 -78.5t44 -68.5v-13h-55q-18 16 -38.5 40t-40.5 51
q-30 -27 -60.5 -50.5t-56.5 -40.5h-58z" />
    <glyph glyph-name="Atilde" unicode="&#xc3;" horiz-adv-x="562" 
d="M-57 0l388 714h94l88 -714h-88l-27 222h-241l-116 -222h-98zM200 302h189l-16 150q-4 38 -7.5 84t-4.5 81h-3q-16 -38 -37 -81.5t-44 -87.5zM221 784q14 62 43 95t72 33q29 0 54 -14t46 -27.5t38 -13.5q22 0 34 13t24 43h53q-16 -62 -45 -95t-72 -33q-27 0 -50.5 13.5
t-45 27.5t-43.5 14q-21 0 -33.5 -14t-22.5 -42h-52z" />
    <glyph glyph-name="Adieresis" unicode="&#xc4;" horiz-adv-x="562" 
d="M-57 0l388 714h94l88 -714h-88l-27 222h-241l-116 -222h-98zM200 302h189l-16 150q-4 38 -7.5 84t-4.5 81h-3q-16 -38 -37 -81.5t-44 -87.5zM487 809q-18 0 -30 11t-12 31q0 23 14 40t39 17q20 0 30 -11t10 -29q0 -28 -16 -43.5t-35 -15.5zM308 809q-19 0 -31 11t-12 31
q0 23 14 40t39 17q21 0 30.5 -11t9.5 -29q0 -28 -15.5 -43.5t-34.5 -15.5z" />
    <glyph glyph-name="Aring" unicode="&#xc5;" horiz-adv-x="562" 
d="M-57 0l388 714h94l88 -714h-88l-27 222h-241l-116 -222h-98zM200 302h189l-16 150q-4 38 -7.5 84t-4.5 81h-3q-16 -38 -37 -81.5t-44 -87.5zM396 784q-48 0 -78 27.5t-30 77.5q0 49 32 76.5t76 27.5q48 0 78.5 -27t30.5 -76q0 -51 -31 -78.5t-78 -27.5zM396 834
q25 0 40.5 15t15.5 40t-15.5 40t-40.5 15q-23 0 -39 -15t-16 -40t14.5 -40t40.5 -15z" />
    <glyph glyph-name="AE" unicode="&#xc6;" horiz-adv-x="824" 
d="M-58 0l457 714h465l-16 -79h-274l-48 -223h256l-15 -78h-256l-54 -255h273l-17 -79h-363l47 222h-214l-139 -222h-102zM234 302h179l71 333h-41z" />
    <glyph glyph-name="Ccedilla" unicode="&#xc7;" horiz-adv-x="587" 
d="M326 -10q-119 0 -186.5 73t-67.5 200q0 64 15 130t45.5 125t77 105.5t108.5 73.5t140 27q100 0 174 -40l-36 -74q-27 14 -60.5 24.5t-77.5 10.5q-75 0 -129.5 -33.5t-90.5 -89t-53.5 -123t-17.5 -134.5q0 -91 46.5 -143.5t128.5 -52.5q41 0 80.5 8t77.5 21v-78
q-39 -14 -78.5 -22t-95.5 -8zM234 -240q-27 0 -45 5v52q10 -2 19.5 -3t16.5 -1q82 0 82 53q0 22 -18.5 32t-48.5 14l48 88h56l-29 -57q23 -7 43.5 -23.5t20.5 -53.5q0 -45 -37.5 -75.5t-107.5 -30.5z" />
    <glyph glyph-name="Egrave" unicode="&#xc8;" horiz-adv-x="514" 
d="M41 0l151 714h362l-17 -79h-273l-47 -223h255l-15 -78h-256l-55 -255h274l-17 -79h-362zM388 784q-19 19 -40.5 46t-40.5 55t-29 49v10h94q11 -37 30.5 -75.5t39.5 -72.5v-12h-54z" />
    <glyph glyph-name="Eacute" unicode="&#xc9;" horiz-adv-x="514" 
d="M41 0l151 714h362l-17 -79h-273l-47 -223h255l-15 -78h-256l-55 -255h274l-17 -79h-362zM332 784v13q17 19 38 45t40 53t34 49h100v-10q-14 -18 -41.5 -46.5t-58.5 -57t-57 -46.5h-55z" />
    <glyph glyph-name="Ecircumflex" unicode="&#xca;" horiz-adv-x="514" 
d="M41 0l151 714h362l-17 -79h-273l-47 -223h255l-15 -78h-256l-55 -255h274l-17 -79h-362zM221 784v13q17 15 45 41.5t54.5 55t40.5 50.5h85q15 -39 40 -78.5t44 -68.5v-13h-55q-18 16 -38.5 40t-40.5 51q-30 -27 -60.5 -50.5t-56.5 -40.5h-58z" />
    <glyph glyph-name="Edieresis" unicode="&#xcb;" horiz-adv-x="514" 
d="M41 0l151 714h362l-17 -79h-273l-47 -223h255l-15 -78h-256l-55 -255h274l-17 -79h-362zM481 809q-18 0 -30 11t-12 31q0 23 14 40t39 17q20 0 30 -11t10 -29q0 -28 -16 -43.5t-35 -15.5zM302 809q-19 0 -31 11t-12 31q0 23 14 40t39 17q21 0 30.5 -11t9.5 -29
q0 -28 -15.5 -43.5t-34.5 -15.5z" />
    <glyph glyph-name="Igrave" unicode="&#xcc;" horiz-adv-x="324" 
d="M-20 0l10 49l85 20l122 576l-76 19l10 50h250l-10 -50l-86 -19l-122 -576l77 -20l-10 -49h-250zM275 784q-19 19 -40.5 46t-40.5 55t-29 49v10h94q11 -37 30.5 -75.5t39.5 -72.5v-12h-54z" />
    <glyph glyph-name="Iacute" unicode="&#xcd;" horiz-adv-x="324" 
d="M-20 0l10 49l85 20l122 576l-76 19l10 50h250l-10 -50l-86 -19l-122 -576l77 -20l-10 -49h-250zM219 784v13q17 19 38 45t40 53t34 49h100v-10q-14 -18 -41.5 -46.5t-58.5 -57t-57 -46.5h-55z" />
    <glyph glyph-name="Icircumflex" unicode="&#xce;" horiz-adv-x="324" 
d="M-20 0l10 49l85 20l122 576l-76 19l10 50h250l-10 -50l-86 -19l-122 -576l77 -20l-10 -49h-250zM108 784v13q17 15 45 41.5t54.5 55t40.5 50.5h85q15 -39 40 -78.5t44 -68.5v-13h-55q-18 16 -38.5 40t-40.5 51q-30 -27 -60.5 -50.5t-56.5 -40.5h-58z" />
    <glyph glyph-name="Idieresis" unicode="&#xcf;" horiz-adv-x="324" 
d="M-20 0l10 49l85 20l122 576l-76 19l10 50h250l-10 -50l-86 -19l-122 -576l77 -20l-10 -49h-250zM368 809q-18 0 -30 11t-12 31q0 23 14 40t39 17q20 0 30 -11t10 -29q0 -28 -16 -43.5t-35 -15.5zM189 809q-19 0 -31 11t-12 31q0 23 14 40t39 17q21 0 30.5 -11t9.5 -29
q0 -28 -15.5 -43.5t-34.5 -15.5z" />
    <glyph glyph-name="Eth" unicode="&#xd0;" horiz-adv-x="667" 
d="M41 0l65 315h-73l17 77h73l69 322h169q129 0 202 -70t73 -215q0 -124 -48.5 -221t-142 -152.5t-228.5 -55.5h-176zM146 77h76q104 0 175 47t108 126.5t37 179.5q0 110 -52.5 158.5t-139.5 48.5h-85l-52 -245h157l-17 -77h-157z" />
    <glyph glyph-name="Ntilde" unicode="&#xd1;" horiz-adv-x="707" 
d="M40 0l151 714h95l219 -590h3q4 36 14 91.5t21 105.5l84 393h85l-151 -714h-95l-221 592h-3q-2 -21 -7.5 -55t-13 -73.5t-15.5 -75.5l-82 -388h-84zM299 784q14 62 43 95t72 33q29 0 54 -14t46 -27.5t38 -13.5q22 0 34 13t24 43h53q-16 -62 -45 -95t-72 -33
q-27 0 -50.5 13.5t-45 27.5t-43.5 14q-21 0 -33.5 -14t-22.5 -42h-52z" />
    <glyph glyph-name="Ograve" unicode="&#xd2;" horiz-adv-x="721" 
d="M337 -10q-128 0 -196.5 74.5t-68.5 202.5q0 92 24.5 175t71.5 146.5t114 100t151 36.5q121 0 189 -75.5t68 -205.5q0 -93 -22.5 -175t-67 -144.5t-110.5 -98.5t-153 -36zM340 69q60 0 107 30t80 82.5t50.5 120.5t17.5 144q0 95 -45 147.5t-123 52.5q-60 0 -108 -29.5
t-82 -81t-52 -120t-18 -146.5q0 -95 46 -147.5t127 -52.5zM474 784q-19 19 -40.5 46t-40.5 55t-29 49v10h94q11 -37 30.5 -75.5t39.5 -72.5v-12h-54z" />
    <glyph glyph-name="Oacute" unicode="&#xd3;" horiz-adv-x="721" 
d="M337 -10q-128 0 -196.5 74.5t-68.5 202.5q0 92 24.5 175t71.5 146.5t114 100t151 36.5q121 0 189 -75.5t68 -205.5q0 -93 -22.5 -175t-67 -144.5t-110.5 -98.5t-153 -36zM340 69q60 0 107 30t80 82.5t50.5 120.5t17.5 144q0 95 -45 147.5t-123 52.5q-60 0 -108 -29.5
t-82 -81t-52 -120t-18 -146.5q0 -95 46 -147.5t127 -52.5zM418 784v13q17 19 38 45t40 53t34 49h100v-10q-14 -18 -41.5 -46.5t-58.5 -57t-57 -46.5h-55z" />
    <glyph glyph-name="Ocircumflex" unicode="&#xd4;" horiz-adv-x="721" 
d="M337 -10q-128 0 -196.5 74.5t-68.5 202.5q0 92 24.5 175t71.5 146.5t114 100t151 36.5q121 0 189 -75.5t68 -205.5q0 -93 -22.5 -175t-67 -144.5t-110.5 -98.5t-153 -36zM340 69q60 0 107 30t80 82.5t50.5 120.5t17.5 144q0 95 -45 147.5t-123 52.5q-60 0 -108 -29.5
t-82 -81t-52 -120t-18 -146.5q0 -95 46 -147.5t127 -52.5zM307 784v13q17 15 45 41.5t54.5 55t40.5 50.5h85q15 -39 40 -78.5t44 -68.5v-13h-55q-18 16 -38.5 40t-40.5 51q-30 -27 -60.5 -50.5t-56.5 -40.5h-58z" />
    <glyph glyph-name="Otilde" unicode="&#xd5;" horiz-adv-x="721" 
d="M337 -10q-128 0 -196.5 74.5t-68.5 202.5q0 92 24.5 175t71.5 146.5t114 100t151 36.5q121 0 189 -75.5t68 -205.5q0 -93 -22.5 -175t-67 -144.5t-110.5 -98.5t-153 -36zM340 69q60 0 107 30t80 82.5t50.5 120.5t17.5 144q0 95 -45 147.5t-123 52.5q-60 0 -108 -29.5
t-82 -81t-52 -120t-18 -146.5q0 -95 46 -147.5t127 -52.5zM301 784q14 62 43 95t72 33q29 0 54 -14t46 -27.5t38 -13.5q22 0 34 13t24 43h53q-16 -62 -45 -95t-72 -33q-27 0 -50.5 13.5t-45 27.5t-43.5 14q-21 0 -33.5 -14t-22.5 -42h-52z" />
    <glyph glyph-name="Odieresis" unicode="&#xd6;" horiz-adv-x="721" 
d="M337 -10q-128 0 -196.5 74.5t-68.5 202.5q0 92 24.5 175t71.5 146.5t114 100t151 36.5q121 0 189 -75.5t68 -205.5q0 -93 -22.5 -175t-67 -144.5t-110.5 -98.5t-153 -36zM340 69q60 0 107 30t80 82.5t50.5 120.5t17.5 144q0 95 -45 147.5t-123 52.5q-60 0 -108 -29.5
t-82 -81t-52 -120t-18 -146.5q0 -95 46 -147.5t127 -52.5zM567 809q-18 0 -30 11t-12 31q0 23 14 40t39 17q20 0 30 -11t10 -29q0 -28 -16 -43.5t-35 -15.5zM388 809q-19 0 -31 11t-12 31q0 23 14 40t39 17q21 0 30.5 -11t9.5 -29q0 -28 -15.5 -43.5t-34.5 -15.5z" />
    <glyph glyph-name="multiply" unicode="&#xd7;" horiz-adv-x="572" 
d="M476 574l50 -51l-170 -170l169 -170l-50 -51l-171 169l-167 -169l-52 51l169 170l-170 169l52 52l169 -171z" />
    <glyph glyph-name="Oslash" unicode="&#xd8;" horiz-adv-x="721" 
d="M114 -41l-57 46l66 82q-26 35 -38.5 81t-12.5 99q0 92 24.5 175t71.5 146.5t114 100t151 36.5q93 0 160 -52l63 79l58 -46l-72 -88q23 -31 35.5 -76.5t12.5 -97.5q0 -93 -22.5 -175t-67 -144.5t-110.5 -98.5t-153 -36q-96 0 -161 46zM185 164l353 442q-21 20 -48.5 30.5
t-62.5 10.5q-60 0 -108 -29.5t-82.5 -81.5t-52.5 -120.5t-18 -146.5q0 -61 19 -105zM340 69q60 0 107.5 30t80.5 82.5t50.5 120.5t17.5 144q0 27 -4 51t-11 43l-352 -437q20 -16 48.5 -25t62.5 -9z" />
    <glyph glyph-name="Ugrave" unicode="&#xd9;" horiz-adv-x="677" 
d="M300 -10q-112 0 -166.5 51.5t-54.5 146.5q0 17 3 41.5t9 53.5l92 431h89l-93 -436q-5 -23 -8 -48t-3 -41q0 -56 34.5 -88t102.5 -32q89 0 132 46t63 135l99 464h89l-100 -471q-16 -78 -50.5 -135t-92.5 -87.5t-145 -30.5zM452 784q-19 19 -40.5 46t-40.5 55t-29 49v10h94
q11 -37 30.5 -75.5t39.5 -72.5v-12h-54z" />
    <glyph glyph-name="Uacute" unicode="&#xda;" horiz-adv-x="677" 
d="M300 -10q-112 0 -166.5 51.5t-54.5 146.5q0 17 3 41.5t9 53.5l92 431h89l-93 -436q-5 -23 -8 -48t-3 -41q0 -56 34.5 -88t102.5 -32q89 0 132 46t63 135l99 464h89l-100 -471q-16 -78 -50.5 -135t-92.5 -87.5t-145 -30.5zM396 784v13q17 19 38 45t40 53t34 49h100v-10
q-14 -18 -41.5 -46.5t-58.5 -57t-57 -46.5h-55z" />
    <glyph glyph-name="Ucircumflex" unicode="&#xdb;" horiz-adv-x="677" 
d="M300 -10q-112 0 -166.5 51.5t-54.5 146.5q0 17 3 41.5t9 53.5l92 431h89l-93 -436q-5 -23 -8 -48t-3 -41q0 -56 34.5 -88t102.5 -32q89 0 132 46t63 135l99 464h89l-100 -471q-16 -78 -50.5 -135t-92.5 -87.5t-145 -30.5zM285 784v13q17 15 45 41.5t54.5 55t40.5 50.5h85
q15 -39 40 -78.5t44 -68.5v-13h-55q-18 16 -38.5 40t-40.5 51q-30 -27 -60.5 -50.5t-56.5 -40.5h-58z" />
    <glyph glyph-name="Udieresis" unicode="&#xdc;" horiz-adv-x="677" 
d="M300 -10q-112 0 -166.5 51.5t-54.5 146.5q0 17 3 41.5t9 53.5l92 431h89l-93 -436q-5 -23 -8 -48t-3 -41q0 -56 34.5 -88t102.5 -32q89 0 132 46t63 135l99 464h89l-100 -471q-16 -78 -50.5 -135t-92.5 -87.5t-145 -30.5zM545 809q-18 0 -30 11t-12 31q0 23 14 40t39 17
q20 0 30 -11t10 -29q0 -28 -16 -43.5t-35 -15.5zM366 809q-19 0 -31 11t-12 31q0 23 14 40t39 17q21 0 30.5 -11t9.5 -29q0 -28 -15.5 -43.5t-34.5 -15.5z" />
    <glyph glyph-name="Yacute" unicode="&#xdd;" horiz-adv-x="509" 
d="M150 0l58 268l-116 446h89l85 -358l234 358h101l-306 -449l-55 -265h-90zM312 784v13q17 19 38 45t40 53t34 49h100v-10q-14 -18 -41.5 -46.5t-58.5 -57t-57 -46.5h-55z" />
    <glyph glyph-name="Thorn" unicode="&#xde;" horiz-adv-x="567" 
d="M41 0l151 714h89l-26 -124h72q115 0 165 -51t50 -135q0 -121 -81 -185t-235 -64h-63l-33 -155h-89zM178 231h63q95 0 152 40.5t57 129.5q0 60 -33.5 86t-101.5 26h-77z" />
    <glyph glyph-name="germandbls" unicode="&#xdf;" horiz-adv-x="584" 
d="M-64 -240q-36 0 -61 10v75q25 -11 54 -11q31 0 52 23t32 75l136 638q21 98 77 146.5t153 48.5q78 0 125 -34.5t47 -98.5q0 -52 -30 -87t-67 -63q-32 -23 -57.5 -45t-25.5 -49q0 -15 11.5 -28.5t26.5 -24.5t25 -19q38 -32 61 -64t23 -79q0 -64 -28 -104.5t-73 -59.5
t-98 -19q-45 0 -78 9.5t-54 25.5v81q21 -16 54 -30t67 -14q60 0 90 29.5t30 71.5q0 33 -15 54t-50 49q-42 32 -60 59t-18 58q0 34 14 58.5t35.5 42.5t45.5 35q33 23 59 47.5t26 59.5q0 32 -26 49.5t-68 17.5q-58 0 -90 -31t-45 -92l-133 -632q-18 -83 -55.5 -130.5
t-111.5 -47.5z" />
    <glyph glyph-name="agrave" unicode="&#xe0;" horiz-adv-x="568" 
d="M193 -10q-65 0 -105 46.5t-40 136.5q0 75 19.5 142.5t54.5 119t83 81.5t106 30q53 0 86 -28t49 -65h5l32 83h67l-114 -536h-70l13 99h-4q-35 -44 -80.5 -76.5t-101.5 -32.5zM222 63q36 0 72 27t64.5 72.5t44.5 103.5q7 28 10 53t3 46q0 47 -26 77t-70 30q-39 0 -72 -24.5
t-58 -67t-38.5 -96.5t-13.5 -113q0 -54 22 -81t62 -27zM359 606q-19 19 -40.5 46t-40.5 55t-29 49v10h94q11 -37 30.5 -75.5t39.5 -72.5v-12h-54z" />
    <glyph glyph-name="aacute" unicode="&#xe1;" horiz-adv-x="568" 
d="M193 -10q-65 0 -105 46.5t-40 136.5q0 75 19.5 142.5t54.5 119t83 81.5t106 30q53 0 86 -28t49 -65h5l32 83h67l-114 -536h-70l13 99h-4q-35 -44 -80.5 -76.5t-101.5 -32.5zM222 63q36 0 72 27t64.5 72.5t44.5 103.5q7 28 10 53t3 46q0 47 -26 77t-70 30q-39 0 -72 -24.5
t-58 -67t-38.5 -96.5t-13.5 -113q0 -54 22 -81t62 -27zM303 606v13q17 19 38 45t40 53t34 49h100v-10q-14 -18 -41.5 -46.5t-58.5 -57t-57 -46.5h-55z" />
    <glyph glyph-name="acircumflex" unicode="&#xe2;" horiz-adv-x="568" 
d="M193 -10q-65 0 -105 46.5t-40 136.5q0 75 19.5 142.5t54.5 119t83 81.5t106 30q53 0 86 -28t49 -65h5l32 83h67l-114 -536h-70l13 99h-4q-35 -44 -80.5 -76.5t-101.5 -32.5zM222 63q36 0 72 27t64.5 72.5t44.5 103.5q7 28 10 53t3 46q0 47 -26 77t-70 30q-39 0 -72 -24.5
t-58 -67t-38.5 -96.5t-13.5 -113q0 -54 22 -81t62 -27zM192 606v13q17 15 45 41.5t54.5 55t40.5 50.5h85q15 -39 40 -78.5t44 -68.5v-13h-55q-18 16 -38.5 40t-40.5 51q-30 -27 -60.5 -50.5t-56.5 -40.5h-58z" />
    <glyph glyph-name="atilde" unicode="&#xe3;" horiz-adv-x="568" 
d="M193 -10q-65 0 -105 46.5t-40 136.5q0 75 19.5 142.5t54.5 119t83 81.5t106 30q53 0 86 -28t49 -65h5l32 83h67l-114 -536h-70l13 99h-4q-35 -44 -80.5 -76.5t-101.5 -32.5zM222 63q36 0 72 27t64.5 72.5t44.5 103.5q7 28 10 53t3 46q0 47 -26 77t-70 30q-39 0 -72 -24.5
t-58 -67t-38.5 -96.5t-13.5 -113q0 -54 22 -81t62 -27zM186 606q14 62 43 95t72 33q29 0 54 -14t46 -27.5t38 -13.5q22 0 34 13t24 43h53q-16 -62 -45 -95t-72 -33q-27 0 -50.5 13.5t-45 27.5t-43.5 14q-21 0 -33.5 -14t-22.5 -42h-52z" />
    <glyph glyph-name="adieresis" unicode="&#xe4;" horiz-adv-x="568" 
d="M193 -10q-65 0 -105 46.5t-40 136.5q0 75 19.5 142.5t54.5 119t83 81.5t106 30q53 0 86 -28t49 -65h5l32 83h67l-114 -536h-70l13 99h-4q-35 -44 -80.5 -76.5t-101.5 -32.5zM222 63q36 0 72 27t64.5 72.5t44.5 103.5q7 28 10 53t3 46q0 47 -26 77t-70 30q-39 0 -72 -24.5
t-58 -67t-38.5 -96.5t-13.5 -113q0 -54 22 -81t62 -27zM452 631q-18 0 -30 11t-12 31q0 23 14 40t39 17q20 0 30 -11t10 -29q0 -28 -16 -43.5t-35 -15.5zM273 631q-19 0 -31 11t-12 31q0 23 14 40t39 17q21 0 30.5 -11t9.5 -29q0 -28 -15.5 -43.5t-34.5 -15.5z" />
    <glyph glyph-name="aring" unicode="&#xe5;" horiz-adv-x="568" 
d="M193 -10q-65 0 -105 46.5t-40 136.5q0 75 19.5 142.5t54.5 119t83 81.5t106 30q53 0 86 -28t49 -65h5l32 83h67l-114 -536h-70l13 99h-4q-35 -44 -80.5 -76.5t-101.5 -32.5zM222 63q36 0 72 27t64.5 72.5t44.5 103.5q7 28 10 53t3 46q0 47 -26 77t-70 30q-39 0 -72 -24.5
t-58 -67t-38.5 -96.5t-13.5 -113q0 -54 22 -81t62 -27zM361 606q-48 0 -78 27.5t-30 77.5q0 49 32 76.5t76 27.5q48 0 78.5 -27t30.5 -76q0 -51 -31 -78.5t-78 -27.5zM361 656q25 0 40.5 15t15.5 40t-15.5 40t-40.5 15q-23 0 -39 -15t-16 -40t14.5 -40t40.5 -15z" />
    <glyph glyph-name="ae" unicode="&#xe6;" horiz-adv-x="820" 
d="M177 -10q-58 0 -93.5 47t-35.5 135q0 76 19.5 143.5t54 119.5t81 81.5t100.5 29.5q48 0 77 -28t45 -65h5l33 83h56l-14 -69q25 35 65.5 57t94.5 22q53 0 93 -30.5t40 -94.5q0 -53 -32 -95.5t-101 -68t-179 -25.5h-20q-1 -9 -1.5 -19t-0.5 -18q0 -61 30 -96.5t93 -35.5
q37 0 71.5 12t73.5 29v-77q-40 -18 -79 -27.5t-82 -9.5q-53 0 -92.5 19t-59.5 57l-14 -66h-59l12 99h-4q-40 -49 -81 -79t-96 -30zM479 303h9q60 0 111 10.5t81.5 34.5t30.5 64q0 32 -18.5 46.5t-44.5 14.5q-55 0 -100.5 -44.5t-68.5 -125.5zM206 63q36 0 70.5 27t62.5 73
t44 104q7 28 10 52.5t3 45.5q0 47 -21.5 77t-59.5 30q-37 0 -69 -24.5t-56.5 -66.5t-38 -96t-13.5 -113q0 -55 18 -82t50 -27z" />
    <glyph glyph-name="ccedilla" unicode="&#xe7;" horiz-adv-x="453" 
d="M247 -10q-89 0 -144 50t-55 150q0 72 19.5 136.5t56 113.5t88.5 77.5t116 28.5q35 0 69.5 -7t63.5 -19l-25 -73q-20 9 -47.5 17t-59.5 8q-57 0 -100 -38.5t-67 -102.5t-24 -140q0 -61 31 -94.5t87 -33.5q35 0 66.5 9.5t62.5 23.5v-74q-28 -14 -62.5 -23t-75.5 -9z
M138 -240q-27 0 -45 5v52q10 -2 19.5 -3t16.5 -1q82 0 82 53q0 22 -18.5 32t-48.5 14l48 88h56l-29 -57q23 -7 43.5 -23.5t20.5 -53.5q0 -45 -37.5 -75.5t-107.5 -30.5z" />
    <glyph glyph-name="egrave" unicode="&#xe8;" horiz-adv-x="499" 
d="M242 -10q-93 0 -143.5 54.5t-50.5 147.5q0 64 18.5 126.5t53.5 114t84.5 82.5t111.5 31q76 0 114.5 -33t38.5 -92q0 -53 -32.5 -95.5t-101.5 -68t-179 -25.5h-17q-1 -9 -1.5 -19t-0.5 -18q0 -61 29.5 -96.5t91.5 -35.5q38 0 72 10.5t74 30.5v-75q-38 -17 -74.5 -28
t-87.5 -11zM152 303h7q60 0 111 10.5t82 35t31 65.5q0 26 -17.5 42.5t-54.5 16.5q-48 0 -92.5 -44.5t-66.5 -125.5zM332 606q-19 19 -40.5 46t-40.5 55t-29 49v10h94q11 -37 30.5 -75.5t39.5 -72.5v-12h-54z" />
    <glyph glyph-name="eacute" unicode="&#xe9;" horiz-adv-x="499" 
d="M242 -10q-93 0 -143.5 54.5t-50.5 147.5q0 64 18.5 126.5t53.5 114t84.5 82.5t111.5 31q76 0 114.5 -33t38.5 -92q0 -53 -32.5 -95.5t-101.5 -68t-179 -25.5h-17q-1 -9 -1.5 -19t-0.5 -18q0 -61 29.5 -96.5t91.5 -35.5q38 0 72 10.5t74 30.5v-75q-38 -17 -74.5 -28
t-87.5 -11zM152 303h7q60 0 111 10.5t82 35t31 65.5q0 26 -17.5 42.5t-54.5 16.5q-48 0 -92.5 -44.5t-66.5 -125.5zM276 606v13q17 19 38 45t40 53t34 49h100v-10q-14 -18 -41.5 -46.5t-58.5 -57t-57 -46.5h-55z" />
    <glyph glyph-name="ecircumflex" unicode="&#xea;" horiz-adv-x="499" 
d="M242 -10q-93 0 -143.5 54.5t-50.5 147.5q0 64 18.5 126.5t53.5 114t84.5 82.5t111.5 31q76 0 114.5 -33t38.5 -92q0 -53 -32.5 -95.5t-101.5 -68t-179 -25.5h-17q-1 -9 -1.5 -19t-0.5 -18q0 -61 29.5 -96.5t91.5 -35.5q38 0 72 10.5t74 30.5v-75q-38 -17 -74.5 -28
t-87.5 -11zM152 303h7q60 0 111 10.5t82 35t31 65.5q0 26 -17.5 42.5t-54.5 16.5q-48 0 -92.5 -44.5t-66.5 -125.5zM165 606v13q17 15 45 41.5t54.5 55t40.5 50.5h85q15 -39 40 -78.5t44 -68.5v-13h-55q-18 16 -38.5 40t-40.5 51q-30 -27 -60.5 -50.5t-56.5 -40.5h-58z" />
    <glyph glyph-name="edieresis" unicode="&#xeb;" horiz-adv-x="499" 
d="M242 -10q-93 0 -143.5 54.5t-50.5 147.5q0 64 18.5 126.5t53.5 114t84.5 82.5t111.5 31q76 0 114.5 -33t38.5 -92q0 -53 -32.5 -95.5t-101.5 -68t-179 -25.5h-17q-1 -9 -1.5 -19t-0.5 -18q0 -61 29.5 -96.5t91.5 -35.5q38 0 72 10.5t74 30.5v-75q-38 -17 -74.5 -28
t-87.5 -11zM152 303h7q60 0 111 10.5t82 35t31 65.5q0 26 -17.5 42.5t-54.5 16.5q-48 0 -92.5 -44.5t-66.5 -125.5zM425 631q-18 0 -30 11t-12 31q0 23 14 40t39 17q20 0 30 -11t10 -29q0 -28 -16 -43.5t-35 -15.5zM246 631q-19 0 -31 11t-12 31q0 23 14 40t39 17
q21 0 30.5 -11t9.5 -29q0 -28 -15.5 -43.5t-34.5 -15.5z" />
    <glyph glyph-name="igrave" unicode="&#xec;" horiz-adv-x="258" 
d="M28 0l114 536h88l-114 -536h-88zM204 606q-19 19 -40.5 46t-40.5 55t-29 49v10h94q11 -37 30.5 -75.5t39.5 -72.5v-12h-54z" />
    <glyph glyph-name="iacute" unicode="&#xed;" horiz-adv-x="258" 
d="M28 0l114 536h88l-114 -536h-88zM148 606v13q17 19 38 45t40 53t34 49h100v-10q-14 -18 -41.5 -46.5t-58.5 -57t-57 -46.5h-55z" />
    <glyph glyph-name="icircumflex" unicode="&#xee;" horiz-adv-x="258" 
d="M28 0l114 536h88l-114 -536h-88zM37 606v13q17 15 45 41.5t54.5 55t40.5 50.5h85q15 -39 40 -78.5t44 -68.5v-13h-55q-18 16 -38.5 40t-40.5 51q-30 -27 -60.5 -50.5t-56.5 -40.5h-58z" />
    <glyph glyph-name="idieresis" unicode="&#xef;" horiz-adv-x="258" 
d="M28 0l114 536h88l-114 -536h-88zM297 631q-18 0 -30 11t-12 31q0 23 14 40t39 17q20 0 30 -11t10 -29q0 -28 -16 -43.5t-35 -15.5zM118 631q-19 0 -31 11t-12 31q0 23 14 40t39 17q21 0 30.5 -11t9.5 -29q0 -28 -15.5 -43.5t-34.5 -15.5z" />
    <glyph glyph-name="eth" unicode="&#xf0;" horiz-adv-x="570" 
d="M235 -10q-89 0 -140.5 50.5t-51.5 142.5q0 77 31.5 143t88.5 106.5t135 40.5q58 0 92 -24.5t49 -56.5l3 1q1 56 -13 108.5t-57 104.5l-130 -72l-29 54l114 63q-15 13 -32.5 27t-37.5 27l47 60q23 -16 47.5 -33.5t46.5 -40.5l126 70l32 -53l-115 -64q35 -45 57.5 -104
t22.5 -142q0 -72 -14.5 -144t-47.5 -132t-88 -96t-136 -36zM240 63q50 0 84 22.5t54.5 57.5t29.5 72t9 65q0 29 -11 57t-36.5 46t-67.5 18q-60 0 -97 -32t-54.5 -82t-17.5 -103q0 -52 24.5 -86.5t82.5 -34.5z" />
    <glyph glyph-name="ntilde" unicode="&#xf1;" horiz-adv-x="579" 
d="M24 -3l115 542h78l-11 -99q19 24 45 49.5t59.5 42.5t77.5 17q64 0 101 -35.5t37 -99.5q0 -23 -3.5 -47t-7.5 -42l-71 -328h-94l72 340q4 23 7 38.5t3 29.5q0 64 -68 64q-34 0 -72.5 -23.5t-72 -75.5t-51.5 -140l-50 -233h-94zM194 606q14 62 43 95t72 33q29 0 54 -14
t46 -27.5t38 -13.5q22 0 34 13t24 43h53q-16 -62 -45 -95t-72 -33q-27 0 -50.5 13.5t-45 27.5t-43.5 14q-21 0 -33.5 -14t-22.5 -42h-52z" />
    <glyph glyph-name="ograve" unicode="&#xf2;" horiz-adv-x="563" 
d="M248 -8q-93 0 -146.5 55.5t-53.5 150.5q0 62 17 123t50.5 111t84 80.5t116.5 30.5q94 0 147 -55.5t53 -151.5q0 -61 -17 -122t-50.5 -111t-83.5 -80.5t-117 -30.5zM253 65q47 0 86.5 33.5t63 96.5t23.5 151q0 30 -10.5 58.5t-34.5 47t-64 18.5q-55 0 -95.5 -37.5
t-62.5 -100t-22 -137.5q0 -62 30.5 -96t85.5 -34zM340 606q-19 19 -40.5 46t-40.5 55t-29 49v10h94q11 -37 30.5 -75.5t39.5 -72.5v-12h-54z" />
    <glyph glyph-name="oacute" unicode="&#xf3;" horiz-adv-x="563" 
d="M248 -8q-93 0 -146.5 55.5t-53.5 150.5q0 62 17 123t50.5 111t84 80.5t116.5 30.5q94 0 147 -55.5t53 -151.5q0 -61 -17 -122t-50.5 -111t-83.5 -80.5t-117 -30.5zM253 65q47 0 86.5 33.5t63 96.5t23.5 151q0 30 -10.5 58.5t-34.5 47t-64 18.5q-55 0 -95.5 -37.5
t-62.5 -100t-22 -137.5q0 -62 30.5 -96t85.5 -34zM284 606v13q17 19 38 45t40 53t34 49h100v-10q-14 -18 -41.5 -46.5t-58.5 -57t-57 -46.5h-55z" />
    <glyph glyph-name="ocircumflex" unicode="&#xf4;" horiz-adv-x="563" 
d="M248 -8q-93 0 -146.5 55.5t-53.5 150.5q0 62 17 123t50.5 111t84 80.5t116.5 30.5q94 0 147 -55.5t53 -151.5q0 -61 -17 -122t-50.5 -111t-83.5 -80.5t-117 -30.5zM253 65q47 0 86.5 33.5t63 96.5t23.5 151q0 30 -10.5 58.5t-34.5 47t-64 18.5q-55 0 -95.5 -37.5
t-62.5 -100t-22 -137.5q0 -62 30.5 -96t85.5 -34zM173 606v13q17 15 45 41.5t54.5 55t40.5 50.5h85q15 -39 40 -78.5t44 -68.5v-13h-55q-18 16 -38.5 40t-40.5 51q-30 -27 -60.5 -50.5t-56.5 -40.5h-58z" />
    <glyph glyph-name="otilde" unicode="&#xf5;" horiz-adv-x="563" 
d="M248 -8q-93 0 -146.5 55.5t-53.5 150.5q0 62 17 123t50.5 111t84 80.5t116.5 30.5q94 0 147 -55.5t53 -151.5q0 -61 -17 -122t-50.5 -111t-83.5 -80.5t-117 -30.5zM253 65q47 0 86.5 33.5t63 96.5t23.5 151q0 30 -10.5 58.5t-34.5 47t-64 18.5q-55 0 -95.5 -37.5
t-62.5 -100t-22 -137.5q0 -62 30.5 -96t85.5 -34zM167 606q14 62 43 95t72 33q29 0 54 -14t46 -27.5t38 -13.5q22 0 34 13t24 43h53q-16 -62 -45 -95t-72 -33q-27 0 -50.5 13.5t-45 27.5t-43.5 14q-21 0 -33.5 -14t-22.5 -42h-52z" />
    <glyph glyph-name="odieresis" unicode="&#xf6;" horiz-adv-x="563" 
d="M248 -8q-93 0 -146.5 55.5t-53.5 150.5q0 62 17 123t50.5 111t84 80.5t116.5 30.5q94 0 147 -55.5t53 -151.5q0 -61 -17 -122t-50.5 -111t-83.5 -80.5t-117 -30.5zM253 65q47 0 86.5 33.5t63 96.5t23.5 151q0 30 -10.5 58.5t-34.5 47t-64 18.5q-55 0 -95.5 -37.5
t-62.5 -100t-22 -137.5q0 -62 30.5 -96t85.5 -34zM433 631q-18 0 -30 11t-12 31q0 23 14 40t39 17q20 0 30 -11t10 -29q0 -28 -16 -43.5t-35 -15.5zM254 631q-19 0 -31 11t-12 31q0 23 14 40t39 17q21 0 30.5 -11t9.5 -29q0 -28 -15.5 -43.5t-34.5 -15.5z" />
    <glyph glyph-name="divide" unicode="&#xf7;" horiz-adv-x="572" 
d="M305 462q-23 0 -39.5 14.5t-16.5 46.5q0 34 16.5 47t39.5 13t39 -13t16 -47q0 -32 -16 -46.5t-39 -14.5zM70 317v71h471v-71h-471zM305 121q-23 0 -39.5 14.5t-16.5 46.5q0 34 16.5 47t39.5 13t39 -13t16 -47q0 -32 -16 -46.5t-39 -14.5z" />
    <glyph glyph-name="oslash" unicode="&#xf8;" horiz-adv-x="563" 
d="M82 -38l-53 41l54 67q-34 50 -34 128q0 62 17 123t50.5 111t83.5 80.5t116 30.5q73 0 122 -32l49 61l53 -40l-56 -62q16 -24 23 -58t7 -68q0 -62 -16.5 -124t-49.5 -113.5t-83 -83t-116 -31.5q-69 0 -119 31zM142 143l246 306q-11 9 -28 15.5t-43 6.5q-55 0 -96.5 -37.5
t-64 -98.5t-22.5 -131q0 -42 8 -61zM253 63q47 0 87.5 33t64.5 94t24 145q0 17 -1.5 31t-4.5 22l-244 -304q13 -10 32.5 -15.5t41.5 -5.5z" />
    <glyph glyph-name="ugrave" unicode="&#xf9;" horiz-adv-x="579" 
d="M189 -10q-61 0 -97.5 34t-36.5 99q0 23 3.5 43t7.5 43l70 327h89l-72 -337q-9 -43 -9 -67q0 -32 16 -50.5t54 -18.5q34 0 73 24t73.5 77t53.5 141l49 231h87l-114 -536h-72l11 99h-5q-19 -25 -44.5 -50t-59.5 -42t-77 -17zM365 606q-19 19 -40.5 46t-40.5 55t-29 49v10
h94q11 -37 30.5 -75.5t39.5 -72.5v-12h-54z" />
    <glyph glyph-name="uacute" unicode="&#xfa;" horiz-adv-x="579" 
d="M189 -10q-61 0 -97.5 34t-36.5 99q0 23 3.5 43t7.5 43l70 327h89l-72 -337q-9 -43 -9 -67q0 -32 16 -50.5t54 -18.5q34 0 73 24t73.5 77t53.5 141l49 231h87l-114 -536h-72l11 99h-5q-19 -25 -44.5 -50t-59.5 -42t-77 -17zM309 606v13q17 19 38 45t40 53t34 49h100v-10
q-14 -18 -41.5 -46.5t-58.5 -57t-57 -46.5h-55z" />
    <glyph glyph-name="ucircumflex" unicode="&#xfb;" horiz-adv-x="579" 
d="M189 -10q-61 0 -97.5 34t-36.5 99q0 23 3.5 43t7.5 43l70 327h89l-72 -337q-9 -43 -9 -67q0 -32 16 -50.5t54 -18.5q34 0 73 24t73.5 77t53.5 141l49 231h87l-114 -536h-72l11 99h-5q-19 -25 -44.5 -50t-59.5 -42t-77 -17zM198 606v13q17 15 45 41.5t54.5 55t40.5 50.5
h85q15 -39 40 -78.5t44 -68.5v-13h-55q-18 16 -38.5 40t-40.5 51q-30 -27 -60.5 -50.5t-56.5 -40.5h-58z" />
    <glyph glyph-name="udieresis" unicode="&#xfc;" horiz-adv-x="579" 
d="M189 -10q-61 0 -97.5 34t-36.5 99q0 23 3.5 43t7.5 43l70 327h89l-72 -337q-9 -43 -9 -67q0 -32 16 -50.5t54 -18.5q34 0 73 24t73.5 77t53.5 141l49 231h87l-114 -536h-72l11 99h-5q-19 -25 -44.5 -50t-59.5 -42t-77 -17zM458 631q-18 0 -30 11t-12 31q0 23 14 40t39 17
q20 0 30 -11t10 -29q0 -28 -16 -43.5t-35 -15.5zM279 631q-19 0 -31 11t-12 31q0 23 14 40t39 17q21 0 30.5 -11t9.5 -29q0 -28 -15.5 -43.5t-34.5 -15.5z" />
    <glyph glyph-name="yacute" unicode="&#xfd;" horiz-adv-x="467" 
d="M-25 -240q-24 0 -39.5 3t-29.5 7v71q14 -4 30 -6.5t34 -2.5q40 0 69 25t55 73l35 62l-81 544h88l35 -265q5 -33 7.5 -71t4 -72.5t1.5 -55.5h3q7 16 20.5 48t29.5 66t28 56l156 294h94l-340 -626q-41 -75 -85 -112.5t-115 -37.5zM234 606v13q17 19 38 45t40 53t34 49h100
v-10q-14 -18 -41.5 -46.5t-58.5 -57t-57 -46.5h-55z" />
    <glyph glyph-name="thorn" unicode="&#xfe;" horiz-adv-x="579" 
d="M-22 -240l211 1000h88l-38 -179q-10 -43 -19.5 -80t-17.5 -65h4q36 44 79 76.5t99 32.5q66 0 106 -46.5t40 -136.5q0 -73 -18 -139.5t-51.5 -119t-81.5 -83t-109 -30.5q-54 0 -88 27.5t-51 64.5h-5q-1 -15 -4.5 -44t-7.5 -47l-49 -231h-87zM262 63q40 0 73 25.5
t56.5 68.5t36 97t12.5 110q0 108 -85 108q-35 0 -72 -27.5t-67 -75t-45 -107.5q-11 -46 -11 -91q0 -48 24.5 -78t77.5 -30z" />
    <glyph glyph-name="ydieresis" unicode="&#xff;" horiz-adv-x="467" 
d="M-25 -240q-24 0 -39.5 3t-29.5 7v71q14 -4 30 -6.5t34 -2.5q40 0 69 25t55 73l35 62l-81 544h88l35 -265q5 -33 7.5 -71t4 -72.5t1.5 -55.5h3q7 16 20.5 48t29.5 66t28 56l156 294h94l-340 -626q-41 -75 -85 -112.5t-115 -37.5zM383 631q-18 0 -30 11t-12 31q0 23 14 40
t39 17q20 0 30 -11t10 -29q0 -28 -16 -43.5t-35 -15.5zM204 631q-19 0 -31 11t-12 31q0 23 14 40t39 17q21 0 30.5 -11t9.5 -29q0 -28 -15.5 -43.5t-34.5 -15.5z" />
    <glyph glyph-name="Amacron" unicode="&#x100;" horiz-adv-x="562" 
d="M-57 0l388 714h94l88 -714h-88l-27 222h-241l-116 -222h-98zM200 302h189l-16 150q-4 38 -7.5 84t-4.5 81h-3q-16 -38 -37 -81.5t-44 -87.5zM252 784l15 71h269l-15 -71h-269z" />
    <glyph glyph-name="amacron" unicode="&#x101;" horiz-adv-x="568" 
d="M193 -10q-65 0 -105 46.5t-40 136.5q0 75 19.5 142.5t54.5 119t83 81.5t106 30q53 0 86 -28t49 -65h5l32 83h67l-114 -536h-70l13 99h-4q-35 -44 -80.5 -76.5t-101.5 -32.5zM222 63q36 0 72 27t64.5 72.5t44.5 103.5q7 28 10 53t3 46q0 47 -26 77t-70 30q-39 0 -72 -24.5
t-58 -67t-38.5 -96.5t-13.5 -113q0 -54 22 -81t62 -27zM217 606l15 71h269l-15 -71h-269z" />
    <glyph glyph-name="Abreve" unicode="&#x102;" horiz-adv-x="562" 
d="M-57 0l388 714h94l88 -714h-88l-27 222h-241l-116 -222h-98zM200 302h189l-16 150q-4 38 -7.5 84t-4.5 81h-3q-16 -38 -37 -81.5t-44 -87.5zM388 784q-54 0 -89 28.5t-35 83.5v10.5t1 11.5h52q0 -29 18 -45t62 -16q46 0 69 16.5t30 44.5h55q-16 -72 -58 -103t-105 -31z
" />
    <glyph glyph-name="abreve" unicode="&#x103;" horiz-adv-x="568" 
d="M193 -10q-65 0 -105 46.5t-40 136.5q0 75 19.5 142.5t54.5 119t83 81.5t106 30q53 0 86 -28t49 -65h5l32 83h67l-114 -536h-70l13 99h-4q-35 -44 -80.5 -76.5t-101.5 -32.5zM222 63q36 0 72 27t64.5 72.5t44.5 103.5q7 28 10 53t3 46q0 47 -26 77t-70 30q-39 0 -72 -24.5
t-58 -67t-38.5 -96.5t-13.5 -113q0 -54 22 -81t62 -27zM353 606q-54 0 -89 28.5t-35 83.5v10.5t1 11.5h52q0 -29 18 -45t62 -16q46 0 69 16.5t30 44.5h55q-16 -72 -58 -103t-105 -31z" />
    <glyph glyph-name="Aogonek" unicode="&#x104;" horiz-adv-x="562" 
d="M-57 0l388 714h94l88 -714h-88l-27 222h-241l-116 -222h-98zM200 302h189l-16 150q-4 38 -7.5 84t-4.5 81h-3q-16 -38 -37 -81.5t-44 -87.5zM411 -217q-38 0 -63.5 19.5t-25.5 60.5q0 47 29.5 78t74.5 59h61q-20 -16 -41.5 -35t-36.5 -42t-15 -49q0 -33 33 -33
q10 0 20.5 1.5t19.5 2.5v-55q-13 -4 -27.5 -5.5t-28.5 -1.5z" />
    <glyph glyph-name="aogonek" unicode="&#x105;" horiz-adv-x="568" 
d="M193 -10q-65 0 -105 46.5t-40 136.5q0 75 19.5 142.5t54.5 119t83 81.5t106 30q53 0 86 -28t49 -65h5l32 83h67l-114 -536h-70l13 99h-4q-35 -44 -80.5 -76.5t-101.5 -32.5zM222 63q36 0 72 27t64.5 72.5t44.5 103.5q7 28 10 53t3 46q0 47 -26 77t-70 30q-39 0 -72 -24.5
t-58 -67t-38.5 -96.5t-13.5 -113q0 -54 22 -81t62 -27zM351 -217q-38 0 -63.5 19.5t-25.5 60.5q0 47 29.5 78t74.5 59h61q-20 -16 -41.5 -35t-36.5 -42t-15 -49q0 -33 33 -33q10 0 20.5 1.5t19.5 2.5v-55q-13 -4 -27.5 -5.5t-28.5 -1.5z" />
    <glyph glyph-name="Cacute" unicode="&#x106;" horiz-adv-x="587" 
d="M326 -10q-119 0 -186.5 73t-67.5 200q0 64 15 130t45.5 125t77 105.5t108.5 73.5t140 27q100 0 174 -40l-36 -74q-27 14 -60.5 24.5t-77.5 10.5q-75 0 -129.5 -33.5t-90.5 -89t-53.5 -123t-17.5 -134.5q0 -91 46.5 -143.5t128.5 -52.5q41 0 80.5 8t77.5 21v-78
q-39 -14 -78.5 -22t-95.5 -8zM406 784v13q17 19 38 45t40 53t34 49h100v-10q-14 -18 -41.5 -46.5t-58.5 -57t-57 -46.5h-55z" />
    <glyph glyph-name="cacute" unicode="&#x107;" horiz-adv-x="453" 
d="M247 -10q-89 0 -144 50t-55 150q0 72 19.5 136.5t56 113.5t88.5 77.5t116 28.5q35 0 69.5 -7t63.5 -19l-25 -73q-20 9 -47.5 17t-59.5 8q-57 0 -100 -38.5t-67 -102.5t-24 -140q0 -61 31 -94.5t87 -33.5q35 0 66.5 9.5t62.5 23.5v-74q-28 -14 -62.5 -23t-75.5 -9z
M268 606v13q17 19 38 45t40 53t34 49h100v-10q-14 -18 -41.5 -46.5t-58.5 -57t-57 -46.5h-55z" />
    <glyph glyph-name="Ccircumflex" unicode="&#x108;" horiz-adv-x="587" 
d="M326 -10q-119 0 -186.5 73t-67.5 200q0 64 15 130t45.5 125t77 105.5t108.5 73.5t140 27q100 0 174 -40l-36 -74q-27 14 -60.5 24.5t-77.5 10.5q-75 0 -129.5 -33.5t-90.5 -89t-53.5 -123t-17.5 -134.5q0 -91 46.5 -143.5t128.5 -52.5q41 0 80.5 8t77.5 21v-78
q-39 -14 -78.5 -22t-95.5 -8zM295 784v13q17 15 45 41.5t54.5 55t40.5 50.5h85q15 -39 40 -78.5t44 -68.5v-13h-55q-18 16 -38.5 40t-40.5 51q-30 -27 -60.5 -50.5t-56.5 -40.5h-58z" />
    <glyph glyph-name="ccircumflex" unicode="&#x109;" horiz-adv-x="453" 
d="M247 -10q-89 0 -144 50t-55 150q0 72 19.5 136.5t56 113.5t88.5 77.5t116 28.5q35 0 69.5 -7t63.5 -19l-25 -73q-20 9 -47.5 17t-59.5 8q-57 0 -100 -38.5t-67 -102.5t-24 -140q0 -61 31 -94.5t87 -33.5q35 0 66.5 9.5t62.5 23.5v-74q-28 -14 -62.5 -23t-75.5 -9z
M157 606v13q17 15 45 41.5t54.5 55t40.5 50.5h85q15 -39 40 -78.5t44 -68.5v-13h-55q-18 16 -38.5 40t-40.5 51q-30 -27 -60.5 -50.5t-56.5 -40.5h-58z" />
    <glyph glyph-name="Cdot" unicode="&#x10a;" horiz-adv-x="587" 
d="M326 -10q-119 0 -186.5 73t-67.5 200q0 64 15 130t45.5 125t77 105.5t108.5 73.5t140 27q100 0 174 -40l-36 -74q-27 14 -60.5 24.5t-77.5 10.5q-75 0 -129.5 -33.5t-90.5 -89t-53.5 -123t-17.5 -134.5q0 -91 46.5 -143.5t128.5 -52.5q41 0 80.5 8t77.5 21v-78
q-39 -14 -78.5 -22t-95.5 -8zM466 803q-20 0 -34 12.5t-14 34.5q0 26 15.5 45t43.5 19q46 0 46 -45q0 -31 -18 -48.5t-39 -17.5z" />
    <glyph glyph-name="cdot" unicode="&#x10b;" horiz-adv-x="453" 
d="M247 -10q-89 0 -144 50t-55 150q0 72 19.5 136.5t56 113.5t88.5 77.5t116 28.5q35 0 69.5 -7t63.5 -19l-25 -73q-20 9 -47.5 17t-59.5 8q-57 0 -100 -38.5t-67 -102.5t-24 -140q0 -61 31 -94.5t87 -33.5q35 0 66.5 9.5t62.5 23.5v-74q-28 -14 -62.5 -23t-75.5 -9z
M328 625q-20 0 -34 12.5t-14 34.5q0 26 15.5 45t43.5 19q46 0 46 -45q0 -31 -18 -48.5t-39 -17.5z" />
    <glyph glyph-name="Ccaron" unicode="&#x10c;" horiz-adv-x="587" 
d="M326 -10q-119 0 -186.5 73t-67.5 200q0 64 15 130t45.5 125t77 105.5t108.5 73.5t140 27q100 0 174 -40l-36 -74q-27 14 -60.5 24.5t-77.5 10.5q-75 0 -129.5 -33.5t-90.5 -89t-53.5 -123t-17.5 -134.5q0 -91 46.5 -143.5t128.5 -52.5q41 0 80.5 8t77.5 21v-78
q-39 -14 -78.5 -22t-95.5 -8zM412 784q-14 38 -38.5 78t-43.5 69v13h53q19 -16 39 -40t40 -51q31 27 62 50.5t58 40.5h57v-13q-17 -15 -45 -41.5t-55 -55t-41 -50.5h-86z" />
    <glyph glyph-name="ccaron" unicode="&#x10d;" horiz-adv-x="453" 
d="M247 -10q-89 0 -144 50t-55 150q0 72 19.5 136.5t56 113.5t88.5 77.5t116 28.5q35 0 69.5 -7t63.5 -19l-25 -73q-20 9 -47.5 17t-59.5 8q-57 0 -100 -38.5t-67 -102.5t-24 -140q0 -61 31 -94.5t87 -33.5q35 0 66.5 9.5t62.5 23.5v-74q-28 -14 -62.5 -23t-75.5 -9z
M274 606q-14 38 -38.5 78t-43.5 69v13h53q19 -16 39 -40t40 -51q31 27 62 50.5t58 40.5h57v-13q-17 -15 -45 -41.5t-55 -55t-41 -50.5h-86z" />
    <glyph glyph-name="Dcaron" unicode="&#x10e;" horiz-adv-x="667" 
d="M41 0l151 714h169q129 0 202 -70t73 -215q0 -124 -48.5 -221t-142 -152.5t-228.5 -55.5h-176zM146 77h76q104 0 175 47t108 126.5t37 179.5q0 110 -52.5 158.5t-139.5 48.5h-85zM397 784q-14 38 -38.5 78t-43.5 69v13h53q19 -16 39 -40t40 -51q31 27 62 50.5t58 40.5h57
v-13q-17 -15 -45 -41.5t-55 -55t-41 -50.5h-86z" />
    <glyph glyph-name="dcaron" unicode="&#x10f;" horiz-adv-x="613" 
d="M193 -10q-65 0 -105 46t-40 137q0 73 18 140t52.5 119.5t83 82.5t109.5 30q54 0 86.5 -27.5t48.5 -64.5h5q5 34 9.5 65t12.5 67l37 175h87l-161 -760h-72l11 99h-4q-36 -45 -79 -77t-99 -32zM223 63q33 0 67 24.5t63 66.5t46.5 96t17.5 114q0 48 -23.5 78t-76.5 30
q-40 0 -72.5 -25.5t-56.5 -68.5t-37 -97t-13 -110q0 -108 85 -108zM608 600v13q11 17 24.5 43t26.5 54t21 50h83v-10q-7 -16 -24 -43t-39 -56t-43 -51h-49z" />
    <glyph glyph-name="Dcroat" unicode="&#x110;" horiz-adv-x="667" 
d="M41 0l65 315h-73l17 77h73l69 322h169q129 0 202 -70t73 -215q0 -124 -48.5 -221t-142 -152.5t-228.5 -55.5h-176zM146 77h76q104 0 175 47t108 126.5t37 179.5q0 110 -52.5 158.5t-139.5 48.5h-85l-52 -245h157l-17 -77h-157z" />
    <glyph glyph-name="dcroat" unicode="&#x111;" horiz-adv-x="579" 
d="M193 -10q-65 0 -105 46t-40 137q0 73 18 140t51.5 119.5t81.5 83t109 30.5q55 0 88.5 -27.5t49.5 -63.5h5q2 18 5.5 42.5t7.5 46.5l12 60h-178l13 66h181l18 90h87l-19 -90h73l-14 -66h-73l-128 -604h-72l11 99h-4q-36 -44 -79 -76.5t-99 -32.5zM223 63q33 0 67 24.5
t63 66.5t46.5 96t17.5 114q0 49 -24.5 79t-76.5 30q-40 0 -73 -25.5t-56.5 -69t-36 -97.5t-12.5 -110q0 -108 85 -108z" />
    <glyph glyph-name="Emacron" unicode="&#x112;" horiz-adv-x="514" 
d="M41 0l151 714h362l-17 -79h-273l-47 -223h255l-15 -78h-256l-55 -255h274l-17 -79h-362zM246 784l15 71h269l-15 -71h-269z" />
    <glyph glyph-name="emacron" unicode="&#x113;" horiz-adv-x="499" 
d="M242 -10q-93 0 -143.5 54.5t-50.5 147.5q0 64 18.5 126.5t53.5 114t84.5 82.5t111.5 31q76 0 114.5 -33t38.5 -92q0 -53 -32.5 -95.5t-101.5 -68t-179 -25.5h-17q-1 -9 -1.5 -19t-0.5 -18q0 -61 29.5 -96.5t91.5 -35.5q38 0 72 10.5t74 30.5v-75q-38 -17 -74.5 -28
t-87.5 -11zM152 303h7q60 0 111 10.5t82 35t31 65.5q0 26 -17.5 42.5t-54.5 16.5q-48 0 -92.5 -44.5t-66.5 -125.5zM190 606l15 71h269l-15 -71h-269z" />
    <glyph glyph-name="Ebreve" unicode="&#x114;" horiz-adv-x="514" 
d="M41 0l151 714h362l-17 -79h-273l-47 -223h255l-15 -78h-256l-55 -255h274l-17 -79h-362zM382 784q-54 0 -89 28.5t-35 83.5v10.5t1 11.5h52q0 -29 18 -45t62 -16q46 0 69 16.5t30 44.5h55q-16 -72 -58 -103t-105 -31z" />
    <glyph glyph-name="ebreve" unicode="&#x115;" horiz-adv-x="499" 
d="M242 -10q-93 0 -143.5 54.5t-50.5 147.5q0 64 18.5 126.5t53.5 114t84.5 82.5t111.5 31q76 0 114.5 -33t38.5 -92q0 -53 -32.5 -95.5t-101.5 -68t-179 -25.5h-17q-1 -9 -1.5 -19t-0.5 -18q0 -61 29.5 -96.5t91.5 -35.5q38 0 72 10.5t74 30.5v-75q-38 -17 -74.5 -28
t-87.5 -11zM152 303h7q60 0 111 10.5t82 35t31 65.5q0 26 -17.5 42.5t-54.5 16.5q-48 0 -92.5 -44.5t-66.5 -125.5zM326 606q-54 0 -89 28.5t-35 83.5v10.5t1 11.5h52q0 -29 18 -45t62 -16q46 0 69 16.5t30 44.5h55q-16 -72 -58 -103t-105 -31z" />
    <glyph glyph-name="Edotaccent" unicode="&#x116;" horiz-adv-x="514" 
d="M41 0l151 714h362l-17 -79h-273l-47 -223h255l-15 -78h-256l-55 -255h274l-17 -79h-362zM392 803q-20 0 -34 12.5t-14 34.5q0 26 15.5 45t43.5 19q46 0 46 -45q0 -31 -18 -48.5t-39 -17.5z" />
    <glyph glyph-name="edotaccent" unicode="&#x117;" horiz-adv-x="499" 
d="M242 -10q-93 0 -143.5 54.5t-50.5 147.5q0 64 18.5 126.5t53.5 114t84.5 82.5t111.5 31q76 0 114.5 -33t38.5 -92q0 -53 -32.5 -95.5t-101.5 -68t-179 -25.5h-17q-1 -9 -1.5 -19t-0.5 -18q0 -61 29.5 -96.5t91.5 -35.5q38 0 72 10.5t74 30.5v-75q-38 -17 -74.5 -28
t-87.5 -11zM152 303h7q60 0 111 10.5t82 35t31 65.5q0 26 -17.5 42.5t-54.5 16.5q-48 0 -92.5 -44.5t-66.5 -125.5zM336 625q-20 0 -34 12.5t-14 34.5q0 26 15.5 45t43.5 19q46 0 46 -45q0 -31 -18 -48.5t-39 -17.5z" />
    <glyph glyph-name="Eogonek" unicode="&#x118;" horiz-adv-x="514" 
d="M41 0l151 714h362l-17 -79h-273l-47 -223h255l-15 -78h-256l-55 -255h274l-17 -79h-362zM299 -217q-38 0 -63.5 19.5t-25.5 60.5q0 47 29.5 78t74.5 59h61q-20 -16 -41.5 -35t-36.5 -42t-15 -49q0 -33 33 -33q10 0 20.5 1.5t19.5 2.5v-55q-13 -4 -27.5 -5.5t-28.5 -1.5z
" />
    <glyph glyph-name="eogonek" unicode="&#x119;" horiz-adv-x="499" 
d="M242 -10q-93 0 -143.5 54.5t-50.5 147.5q0 64 18.5 126.5t53.5 114t84.5 82.5t111.5 31q76 0 114.5 -33t38.5 -92q0 -53 -32.5 -95.5t-101.5 -68t-179 -25.5h-17q-1 -9 -1.5 -19t-0.5 -18q0 -61 29.5 -96.5t91.5 -35.5q38 0 72 10.5t74 30.5v-75q-7 -3 -14.5 -6.5
t-14.5 -6.5q-41 -33 -74.5 -68.5t-33.5 -73.5q0 -33 33 -33q10 0 20.5 1.5t19.5 2.5v-55q-13 -4 -27.5 -5.5t-28.5 -1.5q-38 0 -63.5 19.5t-25.5 60.5q0 43 26 73.5t66 56.5q-21 -3 -45 -3zM152 303h7q60 0 111 10.5t82 35t31 65.5q0 26 -17.5 42.5t-54.5 16.5
q-48 0 -92.5 -44.5t-66.5 -125.5z" />
    <glyph glyph-name="Ecaron" unicode="&#x11a;" horiz-adv-x="514" 
d="M41 0l151 714h362l-17 -79h-273l-47 -223h255l-15 -78h-256l-55 -255h274l-17 -79h-362zM338 784q-14 38 -38.5 78t-43.5 69v13h53q19 -16 39 -40t40 -51q31 27 62 50.5t58 40.5h57v-13q-17 -15 -45 -41.5t-55 -55t-41 -50.5h-86z" />
    <glyph glyph-name="ecaron" unicode="&#x11b;" horiz-adv-x="499" 
d="M242 -10q-93 0 -143.5 54.5t-50.5 147.5q0 64 18.5 126.5t53.5 114t84.5 82.5t111.5 31q76 0 114.5 -33t38.5 -92q0 -53 -32.5 -95.5t-101.5 -68t-179 -25.5h-17q-1 -9 -1.5 -19t-0.5 -18q0 -61 29.5 -96.5t91.5 -35.5q38 0 72 10.5t74 30.5v-75q-38 -17 -74.5 -28
t-87.5 -11zM152 303h7q60 0 111 10.5t82 35t31 65.5q0 26 -17.5 42.5t-54.5 16.5q-48 0 -92.5 -44.5t-66.5 -125.5zM282 606q-14 38 -38.5 78t-43.5 69v13h53q19 -16 39 -40t40 -51q31 27 62 50.5t58 40.5h57v-13q-17 -15 -45 -41.5t-55 -55t-41 -50.5h-86z" />
    <glyph glyph-name="Gcircumflex" unicode="&#x11c;" horiz-adv-x="678" 
d="M343 -10q-127 0 -199 71t-72 198q0 98 27.5 182.5t79 148t122 99t156.5 35.5q65 0 114 -11t93 -31l-34 -78q-38 16 -80.5 28.5t-93.5 12.5q-82 0 -147.5 -49t-103.5 -134.5t-38 -196.5q0 -55 19.5 -99.5t60.5 -70.5t105 -26q38 0 69.5 5.5t53.5 12.5l46 211h-140l17 78
h229l-76 -349q-45 -16 -95 -26.5t-113 -10.5zM315 784v13q17 15 45 41.5t54.5 55t40.5 50.5h85q15 -39 40 -78.5t44 -68.5v-13h-55q-18 16 -38.5 40t-40.5 51q-30 -27 -60.5 -50.5t-56.5 -40.5h-58z" />
    <glyph glyph-name="gcircumflex" unicode="&#x11d;" horiz-adv-x="579" 
d="M186 -240q-49 0 -90.5 9.5t-70.5 24.5v81q26 -16 70.5 -29t87.5 -13q62 0 101.5 30t56.5 100l9 38q4 21 10 43.5t10.5 38.5l4.5 16h-4q-35 -44 -78 -76.5t-99 -32.5q-65 0 -105.5 46.5t-40.5 136.5q0 73 18 140t52.5 119.5t83 83t109.5 30.5q54 0 86.5 -28t49.5 -65h4
l33 83h67l-122 -567q-24 -113 -85.5 -161t-157.5 -48zM223 63q34 0 68 25t62.5 67.5t45.5 96.5t17 112q0 48 -22.5 78t-75.5 30q-40 0 -73 -25.5t-57 -68.5t-37 -97t-13 -110q0 -108 85 -108zM188 606v13q17 15 45 41.5t54.5 55t40.5 50.5h85q15 -39 40 -78.5t44 -68.5v-13
h-55q-18 16 -38.5 40t-40.5 51q-30 -27 -60.5 -50.5t-56.5 -40.5h-58z" />
    <glyph glyph-name="Gbreve" unicode="&#x11e;" horiz-adv-x="678" 
d="M343 -10q-127 0 -199 71t-72 198q0 98 27.5 182.5t79 148t122 99t156.5 35.5q65 0 114 -11t93 -31l-34 -78q-38 16 -80.5 28.5t-93.5 12.5q-82 0 -147.5 -49t-103.5 -134.5t-38 -196.5q0 -55 19.5 -99.5t60.5 -70.5t105 -26q38 0 69.5 5.5t53.5 12.5l46 211h-140l17 78
h229l-76 -349q-45 -16 -95 -26.5t-113 -10.5zM476 784q-54 0 -89 28.5t-35 83.5v10.5t1 11.5h52q0 -29 18 -45t62 -16q46 0 69 16.5t30 44.5h55q-16 -72 -58 -103t-105 -31z" />
    <glyph glyph-name="gbreve" unicode="&#x11f;" horiz-adv-x="579" 
d="M186 -240q-49 0 -90.5 9.5t-70.5 24.5v81q26 -16 70.5 -29t87.5 -13q62 0 101.5 30t56.5 100l9 38q4 21 10 43.5t10.5 38.5l4.5 16h-4q-35 -44 -78 -76.5t-99 -32.5q-65 0 -105.5 46.5t-40.5 136.5q0 73 18 140t52.5 119.5t83 83t109.5 30.5q54 0 86.5 -28t49.5 -65h4
l33 83h67l-122 -567q-24 -113 -85.5 -161t-157.5 -48zM223 63q34 0 68 25t62.5 67.5t45.5 96.5t17 112q0 48 -22.5 78t-75.5 30q-40 0 -73 -25.5t-57 -68.5t-37 -97t-13 -110q0 -108 85 -108zM349 606q-54 0 -89 28.5t-35 83.5v10.5t1 11.5h52q0 -29 18 -45t62 -16
q46 0 69 16.5t30 44.5h55q-16 -72 -58 -103t-105 -31z" />
    <glyph glyph-name="Gdot" unicode="&#x120;" horiz-adv-x="678" 
d="M343 -10q-127 0 -199 71t-72 198q0 98 27.5 182.5t79 148t122 99t156.5 35.5q65 0 114 -11t93 -31l-34 -78q-38 16 -80.5 28.5t-93.5 12.5q-82 0 -147.5 -49t-103.5 -134.5t-38 -196.5q0 -55 19.5 -99.5t60.5 -70.5t105 -26q38 0 69.5 5.5t53.5 12.5l46 211h-140l17 78
h229l-76 -349q-45 -16 -95 -26.5t-113 -10.5zM486 803q-20 0 -34 12.5t-14 34.5q0 26 15.5 45t43.5 19q46 0 46 -45q0 -31 -18 -48.5t-39 -17.5z" />
    <glyph glyph-name="gdot" unicode="&#x121;" horiz-adv-x="579" 
d="M186 -240q-49 0 -90.5 9.5t-70.5 24.5v81q26 -16 70.5 -29t87.5 -13q62 0 101.5 30t56.5 100l9 38q4 21 10 43.5t10.5 38.5l4.5 16h-4q-35 -44 -78 -76.5t-99 -32.5q-65 0 -105.5 46.5t-40.5 136.5q0 73 18 140t52.5 119.5t83 83t109.5 30.5q54 0 86.5 -28t49.5 -65h4
l33 83h67l-122 -567q-24 -113 -85.5 -161t-157.5 -48zM223 63q34 0 68 25t62.5 67.5t45.5 96.5t17 112q0 48 -22.5 78t-75.5 30q-40 0 -73 -25.5t-57 -68.5t-37 -97t-13 -110q0 -108 85 -108zM359 625q-20 0 -34 12.5t-14 34.5q0 26 15.5 45t43.5 19q46 0 46 -45
q0 -31 -18 -48.5t-39 -17.5z" />
    <glyph glyph-name="uni0122" unicode="&#x122;" horiz-adv-x="678" 
d="M343 -10q-127 0 -199 71t-72 198q0 98 27.5 182.5t79 148t122 99t156.5 35.5q65 0 114 -11t93 -31l-34 -78q-38 16 -80.5 28.5t-93.5 12.5q-82 0 -147.5 -49t-103.5 -134.5t-38 -196.5q0 -55 19.5 -99.5t60.5 -70.5t105 -26q38 0 69.5 5.5t53.5 12.5l46 211h-140l17 78
h229l-76 -349q-45 -16 -95 -26.5t-113 -10.5zM223 -221v13q10 16 24 42.5t26.5 55t20.5 49.5h83v-10q-6 -16 -23 -43t-39 -56.5t-44 -50.5h-48z" />
    <glyph glyph-name="uni0123" unicode="&#x123;" horiz-adv-x="579" 
d="M186 -240q-49 0 -90.5 9.5t-70.5 24.5v81q26 -16 70.5 -29t87.5 -13q62 0 101.5 30t56.5 100l9 38q4 21 10 43.5t10.5 38.5l4.5 16h-4q-35 -44 -78 -76.5t-99 -32.5q-65 0 -105.5 46.5t-40.5 136.5q0 73 18 140t52.5 119.5t83 83t109.5 30.5q54 0 86.5 -28t49.5 -65h4
l33 83h67l-122 -567q-24 -113 -85.5 -161t-157.5 -48zM223 63q34 0 68 25t62.5 67.5t45.5 96.5t17 112q0 48 -22.5 78t-75.5 30q-40 0 -73 -25.5t-57 -68.5t-37 -97t-13 -110q0 -108 85 -108zM301 606v10q6 16 23 43t39 56t44 51h49v-13q-11 -17 -24.5 -43t-26 -54
t-20.5 -50h-84z" />
    <glyph glyph-name="Hcircumflex" unicode="&#x124;" horiz-adv-x="680" 
d="M42 0l151 714h89l-64 -302h314l64 302h88l-151 -714h-88l70 333h-314l-70 -333h-89zM284 784v13q17 15 45 41.5t54.5 55t40.5 50.5h85q15 -39 40 -78.5t44 -68.5v-13h-55q-18 16 -38.5 40t-40.5 51q-30 -27 -60.5 -50.5t-56.5 -40.5h-58z" />
    <glyph glyph-name="hcircumflex" unicode="&#x125;" horiz-adv-x="579" 
d="M28 0l161 760h88l-43 -197q-6 -30 -15 -62.5t-17 -64.5h5q19 25 45 50t59.5 42t76.5 17q62 0 98.5 -34.5t36.5 -102.5q0 -20 -3.5 -40t-7.5 -42l-70 -326h-88l71 336q9 45 9 66q0 33 -16.5 51.5t-53.5 18.5q-34 0 -73.5 -23.5t-73 -76.5t-52.5 -141l-49 -231h-88zM83 830
v13q17 15 45 41.5t54.5 55t40.5 50.5h85q15 -39 40 -78.5t44 -68.5v-13h-55q-18 16 -38.5 40t-40.5 51q-30 -27 -60.5 -50.5t-56.5 -40.5h-58z" />
    <glyph glyph-name="Hbar" unicode="&#x126;" horiz-adv-x="680" 
d="M41 0l110 522h-91l15 72h91l26 120h89l-26 -120h314l26 120h90l-25 -120h91l-14 -72h-93l-110 -522h-90l70 333h-314l-70 -333h-89zM217 412h314l23 110h-314z" />
    <glyph glyph-name="hbar" unicode="&#x127;" horiz-adv-x="579" 
d="M28 0l129 604h-75l15 66h73l19 90h88l-20 -90h169l-15 -66h-167q-14 -57 -25.5 -103.5t-17.5 -72.5h5q18 25 44 50.5t59.5 42.5t76.5 17q63 0 99 -35.5t36 -103.5q0 -19 -3.5 -39t-7.5 -43l-68 -317h-88l70 327q9 43 9 65q0 34 -17 53.5t-54 19.5q-34 0 -73.5 -24
t-74 -77.5t-52.5 -140.5l-46 -223h-88z" />
    <glyph glyph-name="Itilde" unicode="&#x128;" horiz-adv-x="324" 
d="M-20 0l10 49l85 20l122 576l-76 19l10 50h250l-10 -50l-86 -19l-122 -576l77 -20l-10 -49h-250zM102 784q14 62 43 95t72 33q29 0 54 -14t46 -27.5t38 -13.5q22 0 34 13t24 43h53q-16 -62 -45 -95t-72 -33q-27 0 -50.5 13.5t-45 27.5t-43.5 14q-21 0 -33.5 -14t-22.5 -42
h-52z" />
    <glyph glyph-name="itilde" unicode="&#x129;" horiz-adv-x="258" 
d="M28 0l114 536h88l-114 -536h-88zM31 606q14 62 43 95t72 33q29 0 54 -14t46 -27.5t38 -13.5q22 0 34 13t24 43h53q-16 -62 -45 -95t-72 -33q-27 0 -50.5 13.5t-45 27.5t-43.5 14q-21 0 -33.5 -14t-22.5 -42h-52z" />
    <glyph glyph-name="Imacron" unicode="&#x12a;" horiz-adv-x="324" 
d="M-20 0l10 49l85 20l122 576l-76 19l10 50h250l-10 -50l-86 -19l-122 -576l77 -20l-10 -49h-250zM133 784l15 71h269l-15 -71h-269z" />
    <glyph glyph-name="imacron" unicode="&#x12b;" horiz-adv-x="258" 
d="M28 0l114 536h88l-114 -536h-88zM62 606l15 71h269l-15 -71h-269z" />
    <glyph glyph-name="Ibreve" unicode="&#x12c;" horiz-adv-x="324" 
d="M-20 0l10 49l85 20l122 576l-76 19l10 50h250l-10 -50l-86 -19l-122 -576l77 -20l-10 -49h-250zM269 784q-54 0 -89 28.5t-35 83.5v10.5t1 11.5h52q0 -29 18 -45t62 -16q46 0 69 16.5t30 44.5h55q-16 -72 -58 -103t-105 -31z" />
    <glyph glyph-name="ibreve" unicode="&#x12d;" horiz-adv-x="258" 
d="M28 0l114 536h88l-114 -536h-88zM198 606q-54 0 -89 28.5t-35 83.5v10.5t1 11.5h52q0 -29 18 -45t62 -16q46 0 69 16.5t30 44.5h55q-16 -72 -58 -103t-105 -31z" />
    <glyph glyph-name="Iogonek" unicode="&#x12e;" horiz-adv-x="324" 
d="M-20 0l10 49l85 20l122 576l-76 19l10 50h250l-10 -50l-86 -19l-122 -576l77 -20l-10 -49h-250zM103 -217q-38 0 -63.5 19.5t-25.5 60.5q0 47 29.5 78t74.5 59h61q-20 -16 -41.5 -35t-36.5 -42t-15 -49q0 -33 33 -33q10 0 20.5 1.5t19.5 2.5v-55q-13 -4 -27.5 -5.5
t-28.5 -1.5z" />
    <glyph glyph-name="iogonek" unicode="&#x12f;" horiz-adv-x="258" 
d="M213 625q-21 0 -34.5 12.5t-13.5 34.5q0 26 15.5 45t43.5 19q46 0 46 -45q0 -31 -18 -48.5t-39 -17.5zM28 0l114 536h88l-114 -536h-88zM55 -217q-38 0 -63.5 19.5t-25.5 60.5q0 47 29.5 78t74.5 59h61q-20 -16 -41.5 -35t-36.5 -42t-15 -49q0 -33 33 -33q10 0 20.5 1.5
t19.5 2.5v-55q-13 -4 -27.5 -5.5t-28.5 -1.5z" />
    <glyph glyph-name="Idotaccent" unicode="&#x130;" horiz-adv-x="324" 
d="M-20 0l10 49l85 20l122 576l-76 19l10 50h250l-10 -50l-86 -19l-122 -576l77 -20l-10 -49h-250zM279 803q-20 0 -34 12.5t-14 34.5q0 26 15.5 45t43.5 19q46 0 46 -45q0 -31 -18 -48.5t-39 -17.5z" />
    <glyph glyph-name="IJ" unicode="&#x132;" horiz-adv-x="597" 
d="M-20 0l10 49l85 20l122 576l-76 19l10 50h250l-10 -50l-86 -19l-122 -576l77 -20l-10 -49h-250zM244 -190q-50 0 -76 12l3 77q15 -5 33 -7.5t38 -2.5q44 0 78 27.5t47 92.5l150 705h89l-151 -715q-22 -101 -76.5 -145t-134.5 -44z" />
    <glyph glyph-name="ij" unicode="&#x133;" horiz-adv-x="516" 
d="M213 625q-21 0 -34.5 12.5t-13.5 34.5q0 26 15.5 45t43.5 19q46 0 46 -45q0 -31 -18 -48.5t-39 -17.5zM28 0l114 536h88l-114 -536h-88zM470 625q-20 0 -33.5 12.5t-13.5 34.5q0 26 15.5 45t43.5 19q45 0 45 -45q0 -31 -18 -48.5t-39 -17.5zM194 -240q-37 0 -62 10v74
q12 -4 27 -7.5t31 -3.5q61 0 82 98l128 605h87l-130 -613q-16 -75 -52.5 -119t-110.5 -44z" />
    <glyph glyph-name="Jcircumflex" unicode="&#x134;" horiz-adv-x="273" 
d="M-80 -190q-50 0 -76 12l3 77q15 -5 33 -7.5t38 -2.5q44 0 78 27.5t47 92.5l150 705h89l-151 -715q-22 -101 -76.5 -145t-134.5 -44zM83 784v13q17 15 45 41.5t54.5 55t40.5 50.5h85q15 -39 40 -78.5t44 -68.5v-13h-55q-18 16 -38.5 40t-40.5 51q-30 -27 -60.5 -50.5
t-56.5 -40.5h-58z" />
    <glyph glyph-name="jcircumflex" unicode="&#x135;" horiz-adv-x="258" 
d="M-64 -240q-37 0 -62 10v74q12 -4 27 -7.5t31 -3.5q61 0 82 98l128 605h87l-130 -613q-16 -75 -52.5 -119t-110.5 -44zM38 606v13q17 15 45 41.5t54.5 55t40.5 50.5h85q15 -39 40 -78.5t44 -68.5v-13h-55q-18 16 -38.5 40t-40.5 51q-30 -27 -60.5 -50.5t-56.5 -40.5h-58z
" />
    <glyph glyph-name="uni0136" unicode="&#x136;" horiz-adv-x="562" 
d="M41 0l151 714h89l-74 -347l62 66l274 281h108l-310 -314l169 -400h-98l-139 346l-83 -61l-60 -285h-89zM141 -221v13q10 16 24 42.5t26.5 55t20.5 49.5h83v-10q-6 -16 -23 -43t-39 -56.5t-44 -50.5h-48z" />
    <glyph glyph-name="uni0137" unicode="&#x137;" horiz-adv-x="495" 
d="M27 0l161 760h89l-65 -302q-17 -80 -29.5 -123.5t-17.5 -57.5h2l254 259h104l-230 -230l143 -306h-97l-113 251l-72 -57l-40 -194h-89zM114 -221v13q10 16 24 42.5t26.5 55t20.5 49.5h83v-10q-6 -16 -23 -43t-39 -56.5t-44 -50.5h-48z" />
    <glyph glyph-name="kgreenlandic" unicode="&#x138;" horiz-adv-x="495" 
d="M27 0l113 536h89l-30 -135q-7 -37 -17.5 -71t-16.5 -54h2l254 260h104l-230 -230l143 -306h-97l-113 251l-72 -57l-40 -194h-89z" />
    <glyph glyph-name="Lacute" unicode="&#x139;" horiz-adv-x="478" 
d="M41 0l151 714h89l-135 -634h274l-17 -80h-362zM214 784v13q17 19 38 45t40 53t34 49h100v-10q-14 -18 -41.5 -46.5t-58.5 -57t-57 -46.5h-55z" />
    <glyph glyph-name="lacute" unicode="&#x13a;" horiz-adv-x="258" 
d="M27 0l162 760h88l-162 -760h-88zM193 830v13q17 19 38 45t40 53t34 49h100v-10q-14 -18 -41.5 -46.5t-58.5 -57t-57 -46.5h-55z" />
    <glyph glyph-name="uni013B" unicode="&#x13b;" horiz-adv-x="478" 
d="M41 0l151 714h89l-135 -634h274l-17 -80h-362zM115 -221v13q10 16 24 42.5t26.5 55t20.5 49.5h83v-10q-6 -16 -23 -43t-39 -56.5t-44 -50.5h-48z" />
    <glyph glyph-name="uni013C" unicode="&#x13c;" horiz-adv-x="258" 
d="M27 0l162 760h88l-162 -760h-88zM-35 -221v13q10 16 24 42.5t26.5 55t20.5 49.5h83v-10q-6 -16 -23 -43t-39 -56.5t-44 -50.5h-48z" />
    <glyph glyph-name="Lcaron" unicode="&#x13d;" horiz-adv-x="478" 
d="M41 0l151 714h89l-135 -634h274l-17 -80h-362zM363 552v13q11 17 24.5 43t26.5 54t21 50h83v-10q-7 -16 -24 -43t-39 -56t-43 -51h-49z" />
    <glyph glyph-name="lcaron" unicode="&#x13e;" horiz-adv-x="288" 
d="M27 0l162 760h88l-162 -760h-88zM283 600v13q11 17 24.5 43t26.5 54t21 50h83v-10q-7 -16 -24 -43t-39 -56t-43 -51h-49z" />
    <glyph glyph-name="Ldot" unicode="&#x13f;" horiz-adv-x="478" 
d="M41 0l151 714h89l-135 -634h274l-17 -80h-362zM382 299q-20 0 -34 12.5t-14 34.5q0 26 15.5 45t43.5 19q46 0 46 -45q0 -31 -18 -48.5t-39 -17.5z" />
    <glyph glyph-name="ldot" unicode="&#x140;" horiz-adv-x="297" 
d="M27 0l162 760h88l-162 -760h-88zM294 310q-20 0 -34 12.5t-14 34.5q0 26 15.5 45t43.5 19q46 0 46 -45q0 -31 -18 -48.5t-39 -17.5z" />
    <glyph glyph-name="Lslash" unicode="&#x141;" horiz-adv-x="478" 
d="M40 0l53 246l-52 -30l-31 58l100 57l81 383h90l-70 -325l112 63l31 -56l-160 -92l-47 -224h273l-17 -80h-363z" />
    <glyph glyph-name="lslash" unicode="&#x142;" horiz-adv-x="258" 
d="M27 0l61 285l-55 -33l-30 55l102 62l84 391h88l-70 -332l58 34l28 -55l-104 -62l-74 -345h-88z" />
    <glyph glyph-name="Nacute" unicode="&#x143;" horiz-adv-x="707" 
d="M40 0l151 714h95l219 -590h3q4 36 14 91.5t21 105.5l84 393h85l-151 -714h-95l-221 592h-3q-2 -21 -7.5 -55t-13 -73.5t-15.5 -75.5l-82 -388h-84zM416 784v13q17 19 38 45t40 53t34 49h100v-10q-14 -18 -41.5 -46.5t-58.5 -57t-57 -46.5h-55z" />
    <glyph glyph-name="nacute" unicode="&#x144;" horiz-adv-x="579" 
d="M24 -3l115 542h78l-11 -99q19 24 45 49.5t59.5 42.5t77.5 17q64 0 101 -35.5t37 -99.5q0 -23 -3.5 -47t-7.5 -42l-71 -328h-94l72 340q4 23 7 38.5t3 29.5q0 64 -68 64q-34 0 -72.5 -23.5t-72 -75.5t-51.5 -140l-50 -233h-94zM311 606v13q17 19 38 45t40 53t34 49h100
v-10q-14 -18 -41.5 -46.5t-58.5 -57t-57 -46.5h-55z" />
    <glyph glyph-name="uni0145" unicode="&#x145;" horiz-adv-x="707" 
d="M40 0l151 714h95l219 -590h3q4 36 14 91.5t21 105.5l84 393h85l-151 -714h-95l-221 592h-3q-2 -21 -7.5 -55t-13 -73.5t-15.5 -75.5l-82 -388h-84zM190 -221v13q10 16 24 42.5t26.5 55t20.5 49.5h83v-10q-6 -16 -23 -43t-39 -56.5t-44 -50.5h-48z" />
    <glyph glyph-name="uni0146" unicode="&#x146;" horiz-adv-x="579" 
d="M24 -3l115 542h78l-11 -99q19 24 45 49.5t59.5 42.5t77.5 17q64 0 101 -35.5t37 -99.5q0 -23 -3.5 -47t-7.5 -42l-71 -328h-94l72 340q4 23 7 38.5t3 29.5q0 64 -68 64q-34 0 -72.5 -23.5t-72 -75.5t-51.5 -140l-50 -233h-94zM128 -221v13q10 16 24 42.5t26.5 55
t20.5 49.5h83v-10q-6 -16 -23 -43t-39 -56.5t-44 -50.5h-48z" />
    <glyph glyph-name="Ncaron" unicode="&#x147;" horiz-adv-x="707" 
d="M40 0l151 714h95l219 -590h3q4 36 14 91.5t21 105.5l84 393h85l-151 -714h-95l-221 592h-3q-2 -21 -7.5 -55t-13 -73.5t-15.5 -75.5l-82 -388h-84zM422 784q-14 38 -38.5 78t-43.5 69v13h53q19 -16 39 -40t40 -51q31 27 62 50.5t58 40.5h57v-13q-17 -15 -45 -41.5
t-55 -55t-41 -50.5h-86z" />
    <glyph glyph-name="ncaron" unicode="&#x148;" horiz-adv-x="579" 
d="M24 -3l115 542h78l-11 -99q19 24 45 49.5t59.5 42.5t77.5 17q64 0 101 -35.5t37 -99.5q0 -23 -3.5 -47t-7.5 -42l-71 -328h-94l72 340q4 23 7 38.5t3 29.5q0 64 -68 64q-34 0 -72.5 -23.5t-72 -75.5t-51.5 -140l-50 -233h-94zM317 606q-14 38 -38.5 78t-43.5 69v13h53
q19 -16 39 -40t40 -51q31 27 62 50.5t58 40.5h57v-13q-17 -15 -45 -41.5t-55 -55t-41 -50.5h-86z" />
    <glyph glyph-name="napostrophe" unicode="&#x149;" horiz-adv-x="657" 
d="M102 -3l115 542h78l-11 -99q19 24 45 49.5t59.5 42.5t77.5 17q64 0 101 -35.5t37 -99.5q0 -23 -3.5 -47t-7.5 -42l-71 -328h-94l72 340q4 23 7 38.5t3 29.5q0 64 -68 64q-34 0 -72.5 -23.5t-72 -75.5t-51.5 -140l-50 -233h-94zM41 469q26 59 54 126t45 119h96l4 -11
q-24 -53 -60 -116t-72 -118h-67z" />
    <glyph glyph-name="Eng" unicode="&#x14a;" horiz-adv-x="707" 
d="M350 -189q-23 0 -44.5 3.5t-31.5 8.5l3 77q15 -4 33 -7t39 -3q43 0 77 25t47 85l-228 592h-4q-5 -38 -14 -93.5t-21 -110.5l-82 -388h-84l151 714h95l219 -583h3q7 42 17 98.5t21 109.5l80 375h86l-151 -714q-21 -101 -76 -145t-135 -44z" />
    <glyph glyph-name="eng" unicode="&#x14b;" horiz-adv-x="579" 
d="M262 -240q-18 0 -33.5 3t-28.5 7v74q14 -4 28 -7.5t30 -3.5q60 0 81 99l86 404q5 22 7.5 38.5t2.5 30.5q0 31 -17 49t-54 18q-34 0 -73 -23.5t-73 -76.5t-53 -141l-49 -231h-88l114 536h72l-11 -99h5q19 25 44.5 50t59 42t76.5 17q62 0 98.5 -34t36.5 -98
q0 -23 -3.5 -44.5t-7.5 -43.5l-86 -404q-16 -74 -52.5 -118t-111.5 -44z" />
    <glyph glyph-name="Omacron" unicode="&#x14c;" horiz-adv-x="721" 
d="M337 -10q-128 0 -196.5 74.5t-68.5 202.5q0 92 24.5 175t71.5 146.5t114 100t151 36.5q121 0 189 -75.5t68 -205.5q0 -93 -22.5 -175t-67 -144.5t-110.5 -98.5t-153 -36zM340 69q60 0 107 30t80 82.5t50.5 120.5t17.5 144q0 95 -45 147.5t-123 52.5q-60 0 -108 -29.5
t-82 -81t-52 -120t-18 -146.5q0 -95 46 -147.5t127 -52.5zM332 784l15 71h269l-15 -71h-269z" />
    <glyph glyph-name="omacron" unicode="&#x14d;" horiz-adv-x="563" 
d="M248 -8q-93 0 -146.5 55.5t-53.5 150.5q0 62 17 123t50.5 111t84 80.5t116.5 30.5q94 0 147 -55.5t53 -151.5q0 -61 -17 -122t-50.5 -111t-83.5 -80.5t-117 -30.5zM253 65q47 0 86.5 33.5t63 96.5t23.5 151q0 30 -10.5 58.5t-34.5 47t-64 18.5q-55 0 -95.5 -37.5
t-62.5 -100t-22 -137.5q0 -62 30.5 -96t85.5 -34zM198 606l15 71h269l-15 -71h-269z" />
    <glyph glyph-name="Obreve" unicode="&#x14e;" horiz-adv-x="721" 
d="M337 -10q-128 0 -196.5 74.5t-68.5 202.5q0 92 24.5 175t71.5 146.5t114 100t151 36.5q121 0 189 -75.5t68 -205.5q0 -93 -22.5 -175t-67 -144.5t-110.5 -98.5t-153 -36zM340 69q60 0 107 30t80 82.5t50.5 120.5t17.5 144q0 95 -45 147.5t-123 52.5q-60 0 -108 -29.5
t-82 -81t-52 -120t-18 -146.5q0 -95 46 -147.5t127 -52.5zM468 784q-54 0 -89 28.5t-35 83.5v10.5t1 11.5h52q0 -29 18 -45t62 -16q46 0 69 16.5t30 44.5h55q-16 -72 -58 -103t-105 -31z" />
    <glyph glyph-name="obreve" unicode="&#x14f;" horiz-adv-x="563" 
d="M248 -8q-93 0 -146.5 55.5t-53.5 150.5q0 62 17 123t50.5 111t84 80.5t116.5 30.5q94 0 147 -55.5t53 -151.5q0 -61 -17 -122t-50.5 -111t-83.5 -80.5t-117 -30.5zM253 65q47 0 86.5 33.5t63 96.5t23.5 151q0 30 -10.5 58.5t-34.5 47t-64 18.5q-55 0 -95.5 -37.5
t-62.5 -100t-22 -137.5q0 -62 30.5 -96t85.5 -34zM334 606q-54 0 -89 28.5t-35 83.5v10.5t1 11.5h52q0 -29 18 -45t62 -16q46 0 69 16.5t30 44.5h55q-16 -72 -58 -103t-105 -31z" />
    <glyph glyph-name="Ohungarumlaut" unicode="&#x150;" horiz-adv-x="721" 
d="M337 -10q-128 0 -196.5 74.5t-68.5 202.5q0 92 24.5 175t71.5 146.5t114 100t151 36.5q121 0 189 -75.5t68 -205.5q0 -93 -22.5 -175t-67 -144.5t-110.5 -98.5t-153 -36zM340 69q60 0 107 30t80 82.5t50.5 120.5t17.5 144q0 95 -45 147.5t-123 52.5q-60 0 -108 -29.5
t-82 -81t-52 -120t-18 -146.5q0 -95 46 -147.5t127 -52.5zM520 784v13q18 19 38.5 45t40 53t33.5 49h90v-10q-14 -18 -41 -46.5t-58 -57t-57 -46.5h-46zM351 784v13q17 19 38 45t40.5 53t33.5 49h90v-10q-13 -18 -40.5 -46.5t-59 -57t-56.5 -46.5h-46z" />
    <glyph glyph-name="ohungarumlaut" unicode="&#x151;" horiz-adv-x="563" 
d="M248 -8q-93 0 -146.5 55.5t-53.5 150.5q0 62 17 123t50.5 111t84 80.5t116.5 30.5q94 0 147 -55.5t53 -151.5q0 -61 -17 -122t-50.5 -111t-83.5 -80.5t-117 -30.5zM253 65q47 0 86.5 33.5t63 96.5t23.5 151q0 30 -10.5 58.5t-34.5 47t-64 18.5q-55 0 -95.5 -37.5
t-62.5 -100t-22 -137.5q0 -62 30.5 -96t85.5 -34zM386 606v13q18 19 38.5 45t40 53t33.5 49h90v-10q-14 -18 -41 -46.5t-58 -57t-57 -46.5h-46zM217 606v13q17 19 38 45t40.5 53t33.5 49h90v-10q-13 -18 -40.5 -46.5t-59 -57t-56.5 -46.5h-46z" />
    <glyph glyph-name="OE" unicode="&#x152;" horiz-adv-x="859" 
d="M337 -10q-128 0 -196.5 74.5t-68.5 202.5q0 92 24.5 175t71.5 146.5t114 100t151 36.5q72 0 115 -11h351l-16 -79h-274l-48 -223h256l-16 -78h-256l-54 -255h274l-17 -79h-333q-18 -4 -37.5 -7t-40.5 -3zM340 69q34 0 61 9l118 557q-39 11 -92 11q-60 0 -108 -29.5
t-82 -81t-52 -120t-18 -146.5q0 -95 46 -147.5t127 -52.5z" />
    <glyph glyph-name="oe" unicode="&#x153;" horiz-adv-x="866" 
d="M243 -8q-89 0 -142 55.5t-53 150.5q0 62 17 123t51 111t85.5 80.5t119.5 30.5q73 0 113 -30.5t60 -76.5q36 52 86 81t109 29q65 0 106 -30.5t41 -94.5q0 -53 -31.5 -95.5t-99.5 -68t-178 -25.5h-21q-1 -9 -1.5 -19t-0.5 -18q0 -61 30 -96.5t91 -35.5q37 0 71 11.5
t74 29.5v-77q-40 -19 -78.5 -28t-82.5 -9q-63 0 -107.5 27t-66.5 79q-31 -47 -79 -75.5t-113 -28.5zM516 303h10q60 0 111 11t82 35.5t31 67.5q0 23 -15.5 39.5t-46.5 16.5q-56 0 -103 -42.5t-69 -127.5zM248 65q58 0 98 37t60.5 100.5t20.5 143.5q0 56 -27 90t-83 34
q-55 0 -95.5 -37.5t-62.5 -99t-22 -133.5q0 -66 29.5 -100.5t81.5 -34.5z" />
    <glyph glyph-name="Racute" unicode="&#x154;" horiz-adv-x="573" 
d="M41 0l151 714h157q220 0 220 -181q0 -77 -40.5 -134t-137.5 -84l118 -315h-98l-102 295h-117l-62 -295h-89zM208 371h78q100 0 145.5 43.5t45.5 112.5q0 61 -34.5 85t-101.5 24h-76zM344 784v13q17 19 38 45t40 53t34 49h100v-10q-14 -18 -41.5 -46.5t-58.5 -57
t-57 -46.5h-55z" />
    <glyph glyph-name="racute" unicode="&#x155;" horiz-adv-x="398" 
d="M28 0l114 536h72l-11 -99h5q21 27 44 52t52 41t67 16q14 0 29.5 -1.5t28.5 -5.5l-19 -79q-27 6 -51 6q-50 0 -89 -33t-65 -84t-37 -104l-52 -245h-88zM250 606v13q17 19 38 45t40 53t34 49h100v-10q-14 -18 -41.5 -46.5t-58.5 -57t-57 -46.5h-55z" />
    <glyph glyph-name="uni0156" unicode="&#x156;" horiz-adv-x="573" 
d="M41 0l151 714h157q220 0 220 -181q0 -77 -40.5 -134t-137.5 -84l118 -315h-98l-102 295h-117l-62 -295h-89zM208 371h78q100 0 145.5 43.5t45.5 112.5q0 61 -34.5 85t-101.5 24h-76zM143 -221v13q10 16 24 42.5t26.5 55t20.5 49.5h83v-10q-6 -16 -23 -43t-39 -56.5
t-44 -50.5h-48z" />
    <glyph glyph-name="uni0157" unicode="&#x157;" horiz-adv-x="398" 
d="M28 0l114 536h72l-11 -99h5q21 27 44 52t52 41t67 16q14 0 29.5 -1.5t28.5 -5.5l-19 -79q-27 6 -51 6q-50 0 -89 -33t-65 -84t-37 -104l-52 -245h-88zM-32 -221v13q10 16 24 42.5t26.5 55t20.5 49.5h83v-10q-6 -16 -23 -43t-39 -56.5t-44 -50.5h-48z" />
    <glyph glyph-name="Rcaron" unicode="&#x158;" horiz-adv-x="573" 
d="M41 0l151 714h157q220 0 220 -181q0 -77 -40.5 -134t-137.5 -84l118 -315h-98l-102 295h-117l-62 -295h-89zM208 371h78q100 0 145.5 43.5t45.5 112.5q0 61 -34.5 85t-101.5 24h-76zM350 784q-14 38 -38.5 78t-43.5 69v13h53q19 -16 39 -40t40 -51q31 27 62 50.5t58 40.5
h57v-13q-17 -15 -45 -41.5t-55 -55t-41 -50.5h-86z" />
    <glyph glyph-name="rcaron" unicode="&#x159;" horiz-adv-x="398" 
d="M28 0l114 536h72l-11 -99h5q21 27 44 52t52 41t67 16q14 0 29.5 -1.5t28.5 -5.5l-19 -79q-27 6 -51 6q-50 0 -89 -33t-65 -84t-37 -104l-52 -245h-88zM256 606q-14 38 -38.5 78t-43.5 69v13h53q19 -16 39 -40t40 -51q31 27 62 50.5t58 40.5h57v-13q-17 -15 -45 -41.5
t-55 -55t-41 -50.5h-86z" />
    <glyph glyph-name="Sacute" unicode="&#x15a;" horiz-adv-x="505" 
d="M185 -10q-52 0 -91.5 8t-74.5 24v88q30 -16 71.5 -29t95.5 -13q45 0 83 14t61 43t23 75q0 40 -26.5 68.5t-91.5 65.5q-38 22 -67.5 47t-46 57t-16.5 79q0 66 32 112.5t85.5 70.5t117.5 24q56 0 98.5 -11t80.5 -31l-34 -76q-26 14 -65 26.5t-80 12.5q-62 0 -101 -32
t-39 -90q0 -31 11 -51t34 -37t57 -37q43 -26 75.5 -51t51 -58t18.5 -82q0 -107 -71.5 -162t-190.5 -55zM300 784v13q17 19 38 45t40 53t34 49h100v-10q-14 -18 -41.5 -46.5t-58.5 -57t-57 -46.5h-55z" />
    <glyph glyph-name="sacute" unicode="&#x15b;" horiz-adv-x="432" 
d="M155 -10q-49 0 -85.5 9.5t-64.5 24.5v81q25 -16 65 -29.5t82 -13.5q59 0 90 23t31 61q0 29 -19 48.5t-71 48.5q-57 32 -86 66t-29 85q0 68 49.5 110t132.5 42q49 0 90.5 -11.5t71.5 -25.5l-28 -70q-26 12 -58 22.5t-76 10.5t-69 -20.5t-25 -52.5q0 -26 17.5 -45.5
t70.5 -48.5q34 -20 61 -40t42.5 -46.5t15.5 -63.5q0 -81 -56.5 -123t-151.5 -42zM224 606v13q17 19 38 45t40 53t34 49h100v-10q-14 -18 -41.5 -46.5t-58.5 -57t-57 -46.5h-55z" />
    <glyph glyph-name="Scircumflex" unicode="&#x15c;" horiz-adv-x="505" 
d="M185 -10q-52 0 -91.5 8t-74.5 24v88q30 -16 71.5 -29t95.5 -13q45 0 83 14t61 43t23 75q0 40 -26.5 68.5t-91.5 65.5q-38 22 -67.5 47t-46 57t-16.5 79q0 66 32 112.5t85.5 70.5t117.5 24q56 0 98.5 -11t80.5 -31l-34 -76q-26 14 -65 26.5t-80 12.5q-62 0 -101 -32
t-39 -90q0 -31 11 -51t34 -37t57 -37q43 -26 75.5 -51t51 -58t18.5 -82q0 -107 -71.5 -162t-190.5 -55zM189 784v13q17 15 45 41.5t54.5 55t40.5 50.5h85q15 -39 40 -78.5t44 -68.5v-13h-55q-18 16 -38.5 40t-40.5 51q-30 -27 -60.5 -50.5t-56.5 -40.5h-58z" />
    <glyph glyph-name="scircumflex" unicode="&#x15d;" horiz-adv-x="432" 
d="M155 -10q-49 0 -85.5 9.5t-64.5 24.5v81q25 -16 65 -29.5t82 -13.5q59 0 90 23t31 61q0 29 -19 48.5t-71 48.5q-57 32 -86 66t-29 85q0 68 49.5 110t132.5 42q49 0 90.5 -11.5t71.5 -25.5l-28 -70q-26 12 -58 22.5t-76 10.5t-69 -20.5t-25 -52.5q0 -26 17.5 -45.5
t70.5 -48.5q34 -20 61 -40t42.5 -46.5t15.5 -63.5q0 -81 -56.5 -123t-151.5 -42zM113 606v13q17 15 45 41.5t54.5 55t40.5 50.5h85q15 -39 40 -78.5t44 -68.5v-13h-55q-18 16 -38.5 40t-40.5 51q-30 -27 -60.5 -50.5t-56.5 -40.5h-58z" />
    <glyph glyph-name="Scedilla" unicode="&#x15e;" horiz-adv-x="505" 
d="M185 -10q-52 0 -91.5 8t-74.5 24v88q30 -16 71.5 -29t95.5 -13q45 0 83 14t61 43t23 75q0 40 -26.5 68.5t-91.5 65.5q-38 22 -67.5 47t-46 57t-16.5 79q0 66 32 112.5t85.5 70.5t117.5 24q56 0 98.5 -11t80.5 -31l-34 -76q-26 14 -65 26.5t-80 12.5q-62 0 -101 -32
t-39 -90q0 -31 11 -51t34 -37t57 -37q43 -26 75.5 -51t51 -58t18.5 -82q0 -107 -71.5 -162t-190.5 -55zM125 -240q-27 0 -45 5v52q10 -2 19.5 -3t16.5 -1q82 0 82 53q0 22 -18.5 32t-48.5 14l48 88h56l-29 -57q23 -7 43.5 -23.5t20.5 -53.5q0 -45 -37.5 -75.5t-107.5 -30.5z
" />
    <glyph glyph-name="scedilla" unicode="&#x15f;" horiz-adv-x="432" 
d="M155 -10q-49 0 -85.5 9.5t-64.5 24.5v81q25 -16 65 -29.5t82 -13.5q59 0 90 23t31 61q0 29 -19 48.5t-71 48.5q-57 32 -86 66t-29 85q0 68 49.5 110t132.5 42q49 0 90.5 -11.5t71.5 -25.5l-28 -70q-26 12 -58 22.5t-76 10.5t-69 -20.5t-25 -52.5q0 -26 17.5 -45.5
t70.5 -48.5q34 -20 61 -40t42.5 -46.5t15.5 -63.5q0 -81 -56.5 -123t-151.5 -42zM88 -240q-27 0 -45 5v52q10 -2 19.5 -3t16.5 -1q82 0 82 53q0 22 -18.5 32t-48.5 14l48 88h56l-29 -57q23 -7 43.5 -23.5t20.5 -53.5q0 -45 -37.5 -75.5t-107.5 -30.5z" />
    <glyph glyph-name="Scaron" unicode="&#x160;" horiz-adv-x="505" 
d="M185 -10q-52 0 -91.5 8t-74.5 24v88q30 -16 71.5 -29t95.5 -13q45 0 83 14t61 43t23 75q0 40 -26.5 68.5t-91.5 65.5q-38 22 -67.5 47t-46 57t-16.5 79q0 66 32 112.5t85.5 70.5t117.5 24q56 0 98.5 -11t80.5 -31l-34 -76q-26 14 -65 26.5t-80 12.5q-62 0 -101 -32
t-39 -90q0 -31 11 -51t34 -37t57 -37q43 -26 75.5 -51t51 -58t18.5 -82q0 -107 -71.5 -162t-190.5 -55zM306 784q-14 38 -38.5 78t-43.5 69v13h53q19 -16 39 -40t40 -51q31 27 62 50.5t58 40.5h57v-13q-17 -15 -45 -41.5t-55 -55t-41 -50.5h-86z" />
    <glyph glyph-name="scaron" unicode="&#x161;" horiz-adv-x="432" 
d="M155 -10q-49 0 -85.5 9.5t-64.5 24.5v81q25 -16 65 -29.5t82 -13.5q59 0 90 23t31 61q0 29 -19 48.5t-71 48.5q-57 32 -86 66t-29 85q0 68 49.5 110t132.5 42q49 0 90.5 -11.5t71.5 -25.5l-28 -70q-26 12 -58 22.5t-76 10.5t-69 -20.5t-25 -52.5q0 -26 17.5 -45.5
t70.5 -48.5q34 -20 61 -40t42.5 -46.5t15.5 -63.5q0 -81 -56.5 -123t-151.5 -42zM230 606q-14 38 -38.5 78t-43.5 69v13h53q19 -16 39 -40t40 -51q31 27 62 50.5t58 40.5h57v-13q-17 -15 -45 -41.5t-55 -55t-41 -50.5h-86z" />
    <glyph glyph-name="uni021A" unicode="&#x21a;" horiz-adv-x="501" 
d="M152 0l134 635h-196l17 79h482l-16 -79h-196l-135 -635h-90zM87 -221v13q10 16 24 42.5t26.5 55t20.5 49.5h83v-10q-6 -16 -23 -43t-39 -56.5t-44 -50.5h-48z" />
    <glyph glyph-name="uni021B" unicode="&#x21b;" horiz-adv-x="332" 
d="M185 -10q-54 0 -91 26t-37 91q0 32 9 71l61 291h-83l8 40l90 38l62 111h52l-27 -122h135l-14 -67h-134l-62 -292q-3 -13 -6 -29.5t-3 -30.5q0 -23 12.5 -39t40.5 -16q18 0 35 3.5t36 9.5v-67q-12 -6 -37 -12t-47 -6zM39 -221v13q10 16 24 42.5t26.5 55t20.5 49.5h83v-10
q-6 -16 -23 -43t-39 -56.5t-44 -50.5h-48z" />
    <glyph glyph-name="Tcaron" unicode="&#x164;" horiz-adv-x="501" 
d="M152 0l134 635h-196l17 79h482l-16 -79h-196l-135 -635h-90zM314 784q-14 38 -38.5 78t-43.5 69v13h53q19 -16 39 -40t40 -51q31 27 62 50.5t58 40.5h57v-13q-17 -15 -45 -41.5t-55 -55t-41 -50.5h-86z" />
    <glyph glyph-name="tcaron" unicode="&#x165;" horiz-adv-x="332" 
d="M185 -10q-54 0 -91 26t-37 91q0 32 9 71l61 291h-83l8 40l90 38l62 111h52l-27 -122h135l-14 -67h-134l-62 -292q-3 -13 -6 -29.5t-3 -30.5q0 -23 12.5 -39t40.5 -16q18 0 35 3.5t36 9.5v-67q-12 -6 -37 -12t-47 -6zM287 600v13q11 17 24.5 43t26.5 54t21 50h83v-10
q-7 -16 -24 -43t-39 -56t-43 -51h-49z" />
    <glyph glyph-name="Tbar" unicode="&#x166;" horiz-adv-x="501" 
d="M152 0l69 327h-138l16 73h136l51 235h-196l17 79h482l-16 -79h-196l-51 -235h141l-15 -73h-141l-69 -327h-90z" />
    <glyph glyph-name="tbar" unicode="&#x167;" horiz-adv-x="332" 
d="M185 -10q-54 0 -91 26t-37 91q0 15 2.5 33t6.5 38l21 104h-67l14 66h67l26 121h-83l8 40l90 38l62 111h52l-27 -122h135l-14 -67h-134l-26 -121h118l-13 -66h-119l-22 -105q-3 -13 -6 -29.5t-3 -30.5q0 -23 12.5 -39t40.5 -16q18 0 35 3.5t36 9.5v-67q-12 -6 -37 -12
t-47 -6z" />
    <glyph glyph-name="Utilde" unicode="&#x168;" horiz-adv-x="677" 
d="M300 -10q-112 0 -166.5 51.5t-54.5 146.5q0 17 3 41.5t9 53.5l92 431h89l-93 -436q-5 -23 -8 -48t-3 -41q0 -56 34.5 -88t102.5 -32q89 0 132 46t63 135l99 464h89l-100 -471q-16 -78 -50.5 -135t-92.5 -87.5t-145 -30.5zM279 784q14 62 43 95t72 33q29 0 54 -14
t46 -27.5t38 -13.5q22 0 34 13t24 43h53q-16 -62 -45 -95t-72 -33q-27 0 -50.5 13.5t-45 27.5t-43.5 14q-21 0 -33.5 -14t-22.5 -42h-52z" />
    <glyph glyph-name="utilde" unicode="&#x169;" horiz-adv-x="579" 
d="M189 -10q-61 0 -97.5 34t-36.5 99q0 23 3.5 43t7.5 43l70 327h89l-72 -337q-9 -43 -9 -67q0 -32 16 -50.5t54 -18.5q34 0 73 24t73.5 77t53.5 141l49 231h87l-114 -536h-72l11 99h-5q-19 -25 -44.5 -50t-59.5 -42t-77 -17zM192 606q14 62 43 95t72 33q29 0 54 -14
t46 -27.5t38 -13.5q22 0 34 13t24 43h53q-16 -62 -45 -95t-72 -33q-27 0 -50.5 13.5t-45 27.5t-43.5 14q-21 0 -33.5 -14t-22.5 -42h-52z" />
    <glyph glyph-name="Umacron" unicode="&#x16a;" horiz-adv-x="677" 
d="M300 -10q-112 0 -166.5 51.5t-54.5 146.5q0 17 3 41.5t9 53.5l92 431h89l-93 -436q-5 -23 -8 -48t-3 -41q0 -56 34.5 -88t102.5 -32q89 0 132 46t63 135l99 464h89l-100 -471q-16 -78 -50.5 -135t-92.5 -87.5t-145 -30.5zM310 784l15 71h269l-15 -71h-269z" />
    <glyph glyph-name="umacron" unicode="&#x16b;" horiz-adv-x="579" 
d="M189 -10q-61 0 -97.5 34t-36.5 99q0 23 3.5 43t7.5 43l70 327h89l-72 -337q-9 -43 -9 -67q0 -32 16 -50.5t54 -18.5q34 0 73 24t73.5 77t53.5 141l49 231h87l-114 -536h-72l11 99h-5q-19 -25 -44.5 -50t-59.5 -42t-77 -17zM223 606l15 71h269l-15 -71h-269z" />
    <glyph glyph-name="Ubreve" unicode="&#x16c;" horiz-adv-x="677" 
d="M300 -10q-112 0 -166.5 51.5t-54.5 146.5q0 17 3 41.5t9 53.5l92 431h89l-93 -436q-5 -23 -8 -48t-3 -41q0 -56 34.5 -88t102.5 -32q89 0 132 46t63 135l99 464h89l-100 -471q-16 -78 -50.5 -135t-92.5 -87.5t-145 -30.5zM446 784q-54 0 -89 28.5t-35 83.5v10.5t1 11.5
h52q0 -29 18 -45t62 -16q46 0 69 16.5t30 44.5h55q-16 -72 -58 -103t-105 -31z" />
    <glyph glyph-name="ubreve" unicode="&#x16d;" horiz-adv-x="579" 
d="M189 -10q-61 0 -97.5 34t-36.5 99q0 23 3.5 43t7.5 43l70 327h89l-72 -337q-9 -43 -9 -67q0 -32 16 -50.5t54 -18.5q34 0 73 24t73.5 77t53.5 141l49 231h87l-114 -536h-72l11 99h-5q-19 -25 -44.5 -50t-59.5 -42t-77 -17zM359 606q-54 0 -89 28.5t-35 83.5v10.5t1 11.5
h52q0 -29 18 -45t62 -16q46 0 69 16.5t30 44.5h55q-16 -72 -58 -103t-105 -31z" />
    <glyph glyph-name="Uring" unicode="&#x16e;" horiz-adv-x="677" 
d="M300 -10q-112 0 -166.5 51.5t-54.5 146.5q0 17 3 41.5t9 53.5l92 431h89l-93 -436q-5 -23 -8 -48t-3 -41q0 -56 34.5 -88t102.5 -32q89 0 132 46t63 135l99 464h89l-100 -471q-16 -78 -50.5 -135t-92.5 -87.5t-145 -30.5zM454 784q-48 0 -78 27.5t-30 77.5q0 49 32 76.5
t76 27.5q48 0 78.5 -27t30.5 -76q0 -51 -31 -78.5t-78 -27.5zM454 834q25 0 40.5 15t15.5 40t-15.5 40t-40.5 15q-23 0 -39 -15t-16 -40t14.5 -40t40.5 -15z" />
    <glyph glyph-name="uring" unicode="&#x16f;" horiz-adv-x="579" 
d="M189 -10q-61 0 -97.5 34t-36.5 99q0 23 3.5 43t7.5 43l70 327h89l-72 -337q-9 -43 -9 -67q0 -32 16 -50.5t54 -18.5q34 0 73 24t73.5 77t53.5 141l49 231h87l-114 -536h-72l11 99h-5q-19 -25 -44.5 -50t-59.5 -42t-77 -17zM367 606q-48 0 -78 27.5t-30 77.5q0 49 32 76.5
t76 27.5q48 0 78.5 -27t30.5 -76q0 -51 -31 -78.5t-78 -27.5zM367 656q25 0 40.5 15t15.5 40t-15.5 40t-40.5 15q-23 0 -39 -15t-16 -40t14.5 -40t40.5 -15z" />
    <glyph glyph-name="Uhungarumlaut" unicode="&#x170;" horiz-adv-x="677" 
d="M300 -10q-112 0 -166.5 51.5t-54.5 146.5q0 17 3 41.5t9 53.5l92 431h89l-93 -436q-5 -23 -8 -48t-3 -41q0 -56 34.5 -88t102.5 -32q89 0 132 46t63 135l99 464h89l-100 -471q-16 -78 -50.5 -135t-92.5 -87.5t-145 -30.5zM498 784v13q18 19 38.5 45t40 53t33.5 49h90v-10
q-14 -18 -41 -46.5t-58 -57t-57 -46.5h-46zM329 784v13q17 19 38 45t40.5 53t33.5 49h90v-10q-13 -18 -40.5 -46.5t-59 -57t-56.5 -46.5h-46z" />
    <glyph glyph-name="uhungarumlaut" unicode="&#x171;" horiz-adv-x="579" 
d="M189 -10q-61 0 -97.5 34t-36.5 99q0 23 3.5 43t7.5 43l70 327h89l-72 -337q-9 -43 -9 -67q0 -32 16 -50.5t54 -18.5q34 0 73 24t73.5 77t53.5 141l49 231h87l-114 -536h-72l11 99h-5q-19 -25 -44.5 -50t-59.5 -42t-77 -17zM411 606v13q18 19 38.5 45t40 53t33.5 49h90
v-10q-14 -18 -41 -46.5t-58 -57t-57 -46.5h-46zM242 606v13q17 19 38 45t40.5 53t33.5 49h90v-10q-13 -18 -40.5 -46.5t-59 -57t-56.5 -46.5h-46z" />
    <glyph glyph-name="Uogonek" unicode="&#x172;" horiz-adv-x="677" 
d="M300 -10q-112 0 -166.5 51.5t-54.5 146.5q0 17 3 41.5t9 53.5l92 431h89l-93 -436q-5 -23 -8 -48t-3 -41q0 -56 34.5 -88t102.5 -32q89 0 132 46t63 135l99 464h89l-100 -471q-16 -78 -50.5 -135t-92.5 -87.5t-145 -30.5zM290 -217q-38 0 -63.5 19.5t-25.5 60.5
q0 47 29.5 78t74.5 59h61q-20 -16 -41.5 -35t-36.5 -42t-15 -49q0 -33 33 -33q10 0 20.5 1.5t19.5 2.5v-55q-13 -4 -27.5 -5.5t-28.5 -1.5z" />
    <glyph glyph-name="uogonek" unicode="&#x173;" horiz-adv-x="579" 
d="M189 -10q-61 0 -97.5 34t-36.5 99q0 23 3.5 43t7.5 43l70 327h89l-72 -337q-9 -43 -9 -67q0 -32 16 -50.5t54 -18.5q34 0 73 24t73.5 77t53.5 141l49 231h87l-114 -536h-72l11 99h-5q-19 -25 -44.5 -50t-59.5 -42t-77 -17zM351 -217q-38 0 -63.5 19.5t-25.5 60.5
q0 47 29.5 78t74.5 59h61q-20 -16 -41.5 -35t-36.5 -42t-15 -49q0 -33 33 -33q10 0 20.5 1.5t19.5 2.5v-55q-13 -4 -27.5 -5.5t-28.5 -1.5z" />
    <glyph glyph-name="Wcircumflex" unicode="&#x174;" horiz-adv-x="856" 
d="M137 0l-30 714h88l14 -435q1 -41 -0.5 -85t-3.5 -84h3q14 39 34 89.5t41 94.5l196 420h91l20 -418q3 -47 4 -98t0 -88h3q13 38 29 83t35 89l187 432h95l-324 -714h-91l-22 460q-2 33 -3 70.5t-1 68.5h-3q-10 -30 -23.5 -61.5t-35.5 -80.5l-211 -457h-92zM374 784v13
q17 15 45 41.5t54.5 55t40.5 50.5h85q15 -39 40 -78.5t44 -68.5v-13h-55q-18 16 -38.5 40t-40.5 51q-30 -27 -60.5 -50.5t-56.5 -40.5h-58z" />
    <glyph glyph-name="wcircumflex" unicode="&#x175;" horiz-adv-x="723" 
d="M79 0l-22 536h86l8 -286q1 -55 -0.5 -99.5t-3.5 -73.5h4q7 21 18.5 49.5t24 57t22.5 49.5l141 303h95l17 -287q1 -37 2 -85.5t-1 -86.5h4q13 38 33 89.5t44 106.5l117 263h93l-248 -536h-106l-15 290q-2 40 -1.5 77t0.5 84h-4q-13 -37 -26.5 -68.5t-37.5 -82.5l-140 -300
h-104zM260 606v13q17 15 45 41.5t54.5 55t40.5 50.5h85q15 -39 40 -78.5t44 -68.5v-13h-55q-18 16 -38.5 40t-40.5 51q-30 -27 -60.5 -50.5t-56.5 -40.5h-58z" />
    <glyph glyph-name="Ycircumflex" unicode="&#x176;" horiz-adv-x="509" 
d="M150 0l58 268l-116 446h89l85 -358l234 358h101l-306 -449l-55 -265h-90zM201 784v13q17 15 45 41.5t54.5 55t40.5 50.5h85q15 -39 40 -78.5t44 -68.5v-13h-55q-18 16 -38.5 40t-40.5 51q-30 -27 -60.5 -50.5t-56.5 -40.5h-58z" />
    <glyph glyph-name="ycircumflex" unicode="&#x177;" horiz-adv-x="467" 
d="M-25 -240q-24 0 -39.5 3t-29.5 7v71q14 -4 30 -6.5t34 -2.5q40 0 69 25t55 73l35 62l-81 544h88l35 -265q5 -33 7.5 -71t4 -72.5t1.5 -55.5h3q7 16 20.5 48t29.5 66t28 56l156 294h94l-340 -626q-41 -75 -85 -112.5t-115 -37.5zM123 606v13q17 15 45 41.5t54.5 55
t40.5 50.5h85q15 -39 40 -78.5t44 -68.5v-13h-55q-18 16 -38.5 40t-40.5 51q-30 -27 -60.5 -50.5t-56.5 -40.5h-58z" />
    <glyph glyph-name="Ydieresis" unicode="&#x178;" horiz-adv-x="509" 
d="M150 0l58 268l-116 446h89l85 -358l234 358h101l-306 -449l-55 -265h-90zM461 809q-18 0 -30 11t-12 31q0 23 14 40t39 17q20 0 30 -11t10 -29q0 -28 -16 -43.5t-35 -15.5zM282 809q-19 0 -31 11t-12 31q0 23 14 40t39 17q21 0 30.5 -11t9.5 -29q0 -28 -15.5 -43.5
t-34.5 -15.5z" />
    <glyph glyph-name="Zacute" unicode="&#x179;" horiz-adv-x="531" 
d="M-10 0l14 70l445 564h-315l17 80h422l-13 -71l-445 -563h335l-16 -80h-444zM323 784v13q17 19 38 45t40 53t34 49h100v-10q-14 -18 -41.5 -46.5t-58.5 -57t-57 -46.5h-55z" />
    <glyph glyph-name="zacute" unicode="&#x17a;" horiz-adv-x="445" 
d="M-15 0l12 60l333 410h-230l14 66h325l-14 -71l-327 -399h255l-13 -66h-355zM242 606v13q17 19 38 45t40 53t34 49h100v-10q-14 -18 -41.5 -46.5t-58.5 -57t-57 -46.5h-55z" />
    <glyph glyph-name="Zdotaccent" unicode="&#x17b;" horiz-adv-x="531" 
d="M-10 0l14 70l445 564h-315l17 80h422l-13 -71l-445 -563h335l-16 -80h-444zM383 803q-20 0 -34 12.5t-14 34.5q0 26 15.5 45t43.5 19q46 0 46 -45q0 -31 -18 -48.5t-39 -17.5z" />
    <glyph glyph-name="zdotaccent" unicode="&#x17c;" horiz-adv-x="445" 
d="M-15 0l12 60l333 410h-230l14 66h325l-14 -71l-327 -399h255l-13 -66h-355zM302 625q-20 0 -34 12.5t-14 34.5q0 26 15.5 45t43.5 19q46 0 46 -45q0 -31 -18 -48.5t-39 -17.5z" />
    <glyph glyph-name="Zcaron" unicode="&#x17d;" horiz-adv-x="531" 
d="M-10 0l14 70l445 564h-315l17 80h422l-13 -71l-445 -563h335l-16 -80h-444zM329 784q-14 38 -38.5 78t-43.5 69v13h53q19 -16 39 -40t40 -51q31 27 62 50.5t58 40.5h57v-13q-17 -15 -45 -41.5t-55 -55t-41 -50.5h-86z" />
    <glyph glyph-name="zcaron" unicode="&#x17e;" horiz-adv-x="445" 
d="M-15 0l12 60l333 410h-230l14 66h325l-14 -71l-327 -399h255l-13 -66h-355zM248 606q-14 38 -38.5 78t-43.5 69v13h53q19 -16 39 -40t40 -51q31 27 62 50.5t58 40.5h57v-13q-17 -15 -45 -41.5t-55 -55t-41 -50.5h-86z" />
    <glyph glyph-name="longs" unicode="&#x17f;" horiz-adv-x="283" 
d="M-64 -240q-19 0 -34.5 3t-27.5 7v74q13 -4 26 -7.5t29 -3.5q31 0 53.5 28t33.5 86l135 640q15 69 38.5 107.5t59 54.5t84.5 16q25 0 52 -5.5t43 -13.5l-23 -67q-14 5 -31 9.5t-35 4.5q-40 0 -63 -22t-36 -84l-137 -650q-18 -83 -56 -130t-111 -47z" />
    <glyph glyph-name="florin" unicode="&#x192;" horiz-adv-x="551" 
d="M63 -240q-19 0 -35 3t-28 7v74q13 -4 26.5 -7.5t29.5 -3.5q30 0 53 28t34 86l98 461h-92l6 36l100 33l13 69q20 101 64.5 139.5t118.5 38.5q25 0 51.5 -6t42.5 -13l-23 -67q-14 5 -30.5 9.5t-35.5 4.5q-40 0 -63 -22t-36 -84l-15 -72h115l-13 -66h-116l-99 -471
q-18 -83 -55.5 -130t-110.5 -47z" />
    <glyph glyph-name="Aringacute" unicode="&#x1fa;" horiz-adv-x="562" 
d="M337 829v10q26 23 56.5 57.5t53.5 61.5h110v-9q-13 -13 -41 -35.5t-59.5 -45.5t-57.5 -39h-62zM-57 0l341 631q-21 25 -21 68q0 49 32 77t76 28q48 0 79 -27.5t31 -76.5q0 -29 -12.5 -51.5t-31.5 -36.5l76 -612h-87l-26 222h-242l-117 -222h-98zM371 644q25 0 40.5 15
t15.5 40q0 26 -15.5 41t-40.5 15q-23 0 -39 -15t-16 -41q0 -25 14.5 -40t40.5 -15zM201 302h189l-16 141q-4 38 -7.5 75t-5.5 69h-13q-16 -32 -33.5 -68.5t-38.5 -75.5z" />
    <glyph glyph-name="aringacute" unicode="&#x1fb;" horiz-adv-x="568" 
d="M323 830v9q26 24 57 58t53 61h110v-9q-13 -13 -41 -35.5t-60 -45t-58 -38.5h-61zM354 585q-49 0 -79 27.5t-30 76.5q0 50 32 77.5t77 27.5q46 0 77 -27t31 -77t-31 -77.5t-77 -27.5zM354 634q23 0 39 15t16 40q0 26 -16 40.5t-39 14.5q-25 0 -40 -14.5t-15 -40.5
q0 -25 13.5 -40t41.5 -15zM193 -10q-65 0 -105 46.5t-40 136.5q0 75 19.5 142.5t54.5 119t83 81.5t106 30q53 0 86 -28t49 -65h5l32 83h67l-114 -536h-70l13 99h-4q-35 -44 -80.5 -76.5t-101.5 -32.5zM222 63q36 0 72 27t64.5 72.5t44.5 103.5q7 28 10 53t3 46q0 47 -26 77
t-70 30q-39 0 -72 -24.5t-58 -67t-38.5 -96.5t-13.5 -113q0 -54 22 -81t62 -27z" />
    <glyph glyph-name="AEacute" unicode="&#x1fc;" horiz-adv-x="824" 
d="M-58 0l457 714h465l-16 -79h-274l-48 -223h256l-15 -78h-256l-54 -255h273l-17 -79h-363l47 222h-214l-139 -222h-102zM234 302h179l71 333h-41zM469 784v13q17 19 38 45t40 53t34 49h100v-10q-14 -18 -41.5 -46.5t-58.5 -57t-57 -46.5h-55z" />
    <glyph glyph-name="aeacute" unicode="&#x1fd;" horiz-adv-x="820" 
d="M177 -10q-58 0 -93.5 47t-35.5 135q0 76 19.5 143.5t54 119.5t81 81.5t100.5 29.5q48 0 77 -28t45 -65h5l33 83h56l-14 -69q25 35 65.5 57t94.5 22q53 0 93 -30.5t40 -94.5q0 -53 -32 -95.5t-101 -68t-179 -25.5h-20q-1 -9 -1.5 -19t-0.5 -18q0 -61 30 -96.5t93 -35.5
q37 0 71.5 12t73.5 29v-77q-40 -18 -79 -27.5t-82 -9.5q-53 0 -92.5 19t-59.5 57l-14 -66h-59l12 99h-4q-40 -49 -81 -79t-96 -30zM479 303h9q60 0 111 10.5t81.5 34.5t30.5 64q0 32 -18.5 46.5t-44.5 14.5q-55 0 -100.5 -44.5t-68.5 -125.5zM206 63q36 0 70.5 27t62.5 73
t44 104q7 28 10 52.5t3 45.5q0 47 -21.5 77t-59.5 30q-37 0 -69 -24.5t-56.5 -66.5t-38 -96t-13.5 -113q0 -55 18 -82t50 -27zM429 606v13q17 19 38 45t40 53t34 49h100v-10q-14 -18 -41.5 -46.5t-58.5 -57t-57 -46.5h-55z" />
    <glyph glyph-name="Oslashacute" unicode="&#x1fe;" horiz-adv-x="721" 
d="M114 -41l-57 46l66 82q-26 35 -38.5 81t-12.5 99q0 92 24.5 175t71.5 146.5t114 100t151 36.5q93 0 160 -52l63 79l58 -46l-72 -88q23 -31 35.5 -76.5t12.5 -97.5q0 -93 -22.5 -175t-67 -144.5t-110.5 -98.5t-153 -36q-96 0 -161 46zM185 164l353 442q-21 20 -48.5 30.5
t-62.5 10.5q-60 0 -108 -29.5t-82.5 -81.5t-52.5 -120.5t-18 -146.5q0 -61 19 -105zM340 69q60 0 107.5 30t80.5 82.5t50.5 120.5t17.5 144q0 27 -4 51t-11 43l-352 -437q20 -16 48.5 -25t62.5 -9zM425 771v13q17 19 38 45t40 53t34 49h100v-10q-14 -18 -41.5 -46.5
t-58.5 -57t-57 -46.5h-55z" />
    <glyph glyph-name="oslashacute" unicode="&#x1ff;" horiz-adv-x="563" 
d="M82 -38l-53 41l54 67q-34 50 -34 128q0 62 17 123t50.5 111t83.5 80.5t116 30.5q73 0 122 -32l49 61l53 -40l-56 -62q16 -24 23 -58t7 -68q0 -62 -16.5 -124t-49.5 -113.5t-83 -83t-116 -31.5q-69 0 -119 31zM142 143l246 306q-11 9 -28 15.5t-43 6.5q-55 0 -96.5 -37.5
t-64 -98.5t-22.5 -131q0 -42 8 -61zM253 63q47 0 87.5 33t64.5 94t24 145q0 17 -1.5 31t-4.5 22l-244 -304q13 -10 32.5 -15.5t41.5 -5.5zM318 606v13q17 19 38 45t40 53t34 49h100v-10q-14 -18 -41.5 -46.5t-58.5 -57t-57 -46.5h-55z" />
    <glyph glyph-name="uni0218" unicode="&#x218;" horiz-adv-x="505" 
d="M185 -10q-52 0 -91.5 8t-74.5 24v88q30 -16 71.5 -29t95.5 -13q45 0 83 14t61 43t23 75q0 40 -26.5 68.5t-91.5 65.5q-38 22 -67.5 47t-46 57t-16.5 79q0 66 32 112.5t85.5 70.5t117.5 24q56 0 98.5 -11t80.5 -31l-34 -76q-26 14 -65 26.5t-80 12.5q-62 0 -101 -32
t-39 -90q0 -31 11 -51t34 -37t57 -37q43 -26 75.5 -51t51 -58t18.5 -82q0 -107 -71.5 -162t-190.5 -55zM89 -221v13q10 16 24 42.5t26.5 55t20.5 49.5h83v-10q-6 -16 -23 -43t-39 -56.5t-44 -50.5h-48z" />
    <glyph glyph-name="uni0219" unicode="&#x219;" horiz-adv-x="432" 
d="M155 -10q-49 0 -85.5 9.5t-64.5 24.5v81q25 -16 65 -29.5t82 -13.5q59 0 90 23t31 61q0 29 -19 48.5t-71 48.5q-57 32 -86 66t-29 85q0 68 49.5 110t132.5 42q49 0 90.5 -11.5t71.5 -25.5l-28 -70q-26 12 -58 22.5t-76 10.5t-69 -20.5t-25 -52.5q0 -26 17.5 -45.5
t70.5 -48.5q34 -20 61 -40t42.5 -46.5t15.5 -63.5q0 -81 -56.5 -123t-151.5 -42zM52 -221v13q10 16 24 42.5t26.5 55t20.5 49.5h83v-10q-6 -16 -23 -43t-39 -56.5t-44 -50.5h-48z" />
    <glyph glyph-name="circumflex" unicode="&#x2c6;" horiz-adv-x="392" 
d="M115 606v13q17 15 45 41.5t54.5 55t40.5 50.5h85q15 -39 40 -78.5t44 -68.5v-13h-55q-18 16 -38.5 40t-40.5 51q-30 -27 -60.5 -50.5t-56.5 -40.5h-58z" />
    <glyph glyph-name="caron" unicode="&#x2c7;" horiz-adv-x="392" 
d="M228 606q-14 38 -38.5 78t-43.5 69v13h53q19 -16 39 -40t40 -51q31 27 62 50.5t58 40.5h57v-13q-17 -15 -45 -41.5t-55 -55t-41 -50.5h-86z" />
    <glyph glyph-name="macron" unicode="&#x2c9;" horiz-adv-x="349" 
d="M112 606l15 71h269l-15 -71h-269z" />
    <glyph glyph-name="breve" unicode="&#x2d8;" horiz-adv-x="366" 
d="M263 606q-54 0 -89 28.5t-35 83.5v10.5t1 11.5h52q0 -29 18 -45t62 -16q46 0 69 16.5t30 44.5h55q-16 -72 -58 -103t-105 -31z" />
    <glyph glyph-name="dotaccent" unicode="&#x2d9;" horiz-adv-x="185" 
d="M176 625q-20 0 -34 12.5t-14 34.5q0 26 15.5 45t43.5 19q46 0 46 -45q0 -31 -18 -48.5t-39 -17.5z" />
    <glyph glyph-name="ring" unicode="&#x2da;" horiz-adv-x="303" 
d="M245 606q-48 0 -78 27.5t-30 77.5q0 49 32 76.5t76 27.5q48 0 78.5 -27t30.5 -76q0 -51 -31 -78.5t-78 -27.5zM245 656q25 0 40.5 15t15.5 40t-15.5 40t-40.5 15q-23 0 -39 -15t-16 -40t14.5 -40t40.5 -15z" />
    <glyph glyph-name="ogonek" unicode="&#x2db;" horiz-adv-x="244" 
d="M46 -217q-38 0 -63.5 19.5t-25.5 60.5q0 47 29.5 78t74.5 59h61q-20 -16 -41.5 -35t-36.5 -42t-15 -49q0 -33 33 -33q10 0 20.5 1.5t19.5 2.5v-55q-13 -4 -27.5 -5.5t-28.5 -1.5z" />
    <glyph glyph-name="tilde" unicode="&#x2dc;" horiz-adv-x="417" 
d="M112 606q14 62 43 95t72 33q29 0 54 -14t46 -27.5t38 -13.5q22 0 34 13t24 43h53q-16 -62 -45 -95t-72 -33q-27 0 -50.5 13.5t-45 27.5t-43.5 14q-21 0 -33.5 -14t-22.5 -42h-52z" />
    <glyph glyph-name="hungarumlaut" unicode="&#x2dd;" horiz-adv-x="422" 
d="M284 606v13q18 19 38.5 45t40 53t33.5 49h90v-10q-14 -18 -41 -46.5t-58 -57t-57 -46.5h-46zM115 606v13q17 19 38 45t40.5 53t33.5 49h90v-10q-13 -18 -40.5 -46.5t-59 -57t-56.5 -46.5h-46z" />
    <glyph glyph-name="tonos" unicode="&#x384;" horiz-adv-x="562" 
d="M301 606v14q13 24 29 57.5t31.5 67.5t25.5 61h94v-14q-9 -20 -30 -53.5t-47 -70t-48 -62.5h-55z" />
    <glyph glyph-name="dieresistonos" unicode="&#x385;" horiz-adv-x="452" 
d="M274 678v11q16 29 38 71t37 78h98v-10q-23 -32 -59 -73.5t-74 -76.5h-40zM192 631q-18 0 -30 11t-12 31q0 23 13.5 40t38.5 17q21 0 30.5 -11t9.5 -29q0 -28 -16 -43.5t-34 -15.5zM426 631q-18 0 -30 11t-12 31q0 23 13.5 40t38.5 17q20 0 30 -11t10 -29q0 -28 -16 -43.5
t-34 -15.5z" />
    <glyph glyph-name="Alphatonos" unicode="&#x386;" horiz-adv-x="562" 
d="M-57 0l388 714h94l88 -714h-88l-27 222h-241l-116 -222h-98zM200 302h189l-16 150q-4 38 -7.5 84t-4.5 81h-3q-16 -38 -37 -81.5t-44 -87.5zM44 514v14q13 24 29 57.5t31.5 67.5t25.5 61h94v-14q-9 -20 -30 -53.5t-47 -70t-48 -62.5h-55z" />
    <glyph glyph-name="anoteleia" unicode="&#x387;" horiz-adv-x="256" 
d="M133 285q-52 0 -52 52q0 33 18.5 58t58.5 25q22 0 35.5 -13.5t13.5 -39.5q0 -31 -18 -56.5t-56 -25.5z" />
    <glyph glyph-name="Epsilontonos" unicode="&#x388;" horiz-adv-x="609" 
d="M136 0l151 714h362l-17 -79h-273l-47 -223h255l-15 -78h-256l-55 -255h274l-17 -79h-362zM48 514v14q13 24 29 57.5t31.5 67.5t25.5 61h94v-14q-9 -20 -30 -53.5t-47 -70t-48 -62.5h-55z" />
    <glyph glyph-name="Etatonos" unicode="&#x389;" horiz-adv-x="757" 
d="M119 0l151 714h89l-64 -302h314l64 302h88l-151 -714h-88l70 333h-314l-70 -333h-89zM38 514v14q13 24 29 57.5t31.5 67.5t25.5 61h94v-14q-9 -20 -30 -53.5t-47 -70t-48 -62.5h-55z" />
    <glyph glyph-name="Iotatonos" unicode="&#x38a;" horiz-adv-x="461" 
d="M117 0l10 49l85 20l122 576l-76 19l10 50h250l-10 -50l-86 -19l-122 -576l77 -20l-10 -49h-250zM38 514v14q13 24 29 57.5t31.5 67.5t25.5 61h94v-14q-9 -20 -30 -53.5t-47 -70t-48 -62.5h-55z" />
    <glyph glyph-name="Omicrontonos" unicode="&#x38c;" horiz-adv-x="776" 
d="M392 -10q-128 0 -196.5 74.5t-68.5 202.5q0 92 24.5 175t71.5 146.5t114 100t151 36.5q121 0 189 -75.5t68 -205.5q0 -93 -22.5 -175t-67 -144.5t-110.5 -98.5t-153 -36zM395 69q60 0 107 30t80 82.5t50.5 120.5t17.5 144q0 95 -45 147.5t-123 52.5q-60 0 -108 -29.5
t-82 -81t-52 -120t-18 -146.5q0 -95 46 -147.5t127 -52.5zM38 514v14q13 24 29 57.5t31.5 67.5t25.5 61h94v-14q-9 -20 -30 -53.5t-47 -70t-48 -62.5h-55z" />
    <glyph glyph-name="Upsilontonos" unicode="&#x38e;" horiz-adv-x="647" 
d="M288 0l58 268l-116 446h89l85 -358l234 358h101l-306 -449l-55 -265h-90zM22 514v14q13 24 29 57.5t31.5 67.5t25.5 61h94v-14q-9 -20 -30 -53.5t-47 -70t-48 -62.5h-55z" />
    <glyph glyph-name="Omegatonos" unicode="&#x38f;" horiz-adv-x="801" 
d="M48 514v14q13 24 29 57.5t31.5 67.5t25.5 61h94v-14q-9 -20 -30 -53.5t-47 -70t-48 -62.5h-55zM59 0l16 79h171q-37 37 -67.5 99t-30.5 158q0 78 23.5 148t68.5 124.5t110.5 85.5t148.5 31q90 0 149 -36.5t87.5 -98.5t28.5 -140q0 -84 -28 -153.5t-75.5 -124
t-107.5 -93.5h177l-16 -79h-296l14 70q67 40 121 95.5t85 126.5t31 159q0 55 -18 99.5t-57 70t-102 25.5q-81 0 -136.5 -43.5t-84 -115t-28.5 -155.5q0 -93 27.5 -154t74.5 -108l-14 -70h-272z" />
    <glyph glyph-name="iotadieresistonos" unicode="&#x390;" horiz-adv-x="311" 
d="M174 -10q-52 0 -87.5 26t-35.5 91q0 15 2.5 33.5t7.5 39.5l75 356h88l-76 -359q-3 -13 -5.5 -29t-2.5 -30q0 -24 11 -40t40 -16q17 0 33 3.5t36 9.5v-67q-13 -6 -38.5 -12t-47.5 -6zM175 678v11q16 29 38 71t37 78h98v-10q-23 -32 -59 -73.5t-74 -76.5h-40zM93 631
q-18 0 -30 11t-12 31q0 23 13.5 40t38.5 17q21 0 30.5 -11t9.5 -29q0 -28 -16 -43.5t-34 -15.5zM327 631q-18 0 -30 11t-12 31q0 23 13.5 40t38.5 17q20 0 30 -11t10 -29q0 -28 -16 -43.5t-34 -15.5z" />
    <glyph glyph-name="Alpha" unicode="&#x391;" horiz-adv-x="562" 
d="M-57 0l388 714h94l88 -714h-88l-27 222h-241l-116 -222h-98zM200 302h189l-16 150q-4 38 -7.5 84t-4.5 81h-3q-16 -38 -37 -81.5t-44 -87.5z" />
    <glyph glyph-name="Beta" unicode="&#x392;" horiz-adv-x="600" 
d="M41 0l151 714h185q99 0 155.5 -39t56.5 -125q0 -73 -44 -118.5t-117 -59.5v-5q49 -13 82 -49t33 -96q0 -73 -35.5 -122.5t-97.5 -74.5t-141 -25h-228zM217 410h117q44 0 81 14t59 42.5t22 72.5q0 47 -30 72.5t-100 25.5h-101zM146 76h126q85 0 131 38t46 108q0 48 -31 81
t-105 33h-112z" />
    <glyph glyph-name="Gamma" unicode="&#x393;" horiz-adv-x="478" 
d="M41 0l151 714h362l-16 -79h-274l-134 -635h-89z" />
    <glyph glyph-name="Epsilon" unicode="&#x395;" horiz-adv-x="514" 
d="M41 0l151 714h362l-17 -79h-273l-47 -223h255l-15 -78h-256l-55 -255h274l-17 -79h-362z" />
    <glyph glyph-name="Zeta" unicode="&#x396;" horiz-adv-x="531" 
d="M-10 0l14 70l445 564h-315l17 80h422l-13 -71l-445 -563h335l-16 -80h-444z" />
    <glyph glyph-name="Eta" unicode="&#x397;" horiz-adv-x="680" 
d="M42 0l151 714h89l-64 -302h314l64 302h88l-151 -714h-88l70 333h-314l-70 -333h-89z" />
    <glyph glyph-name="Theta" unicode="&#x398;" horiz-adv-x="722" 
d="M338 -10q-128 0 -197 74.5t-69 203.5q0 93 25 175.5t72 146t114 99.5t151 36q121 0 189 -75.5t68 -206.5q0 -93 -23 -175t-67.5 -144.5t-110.5 -98t-152 -35.5zM340 69q61 0 108.5 30.5t80.5 83.5t50 120.5t17 141.5q0 95 -45 148t-124 53q-61 0 -109 -29.5t-81.5 -81.5
t-51.5 -120t-18 -145q0 -94 46 -147.5t127 -53.5zM243 325l16 77h256l-16 -77h-256z" />
    <glyph glyph-name="Iota" unicode="&#x399;" horiz-adv-x="324" 
d="M-20 0l10 49l85 20l122 576l-76 19l10 50h250l-10 -50l-86 -19l-122 -576l77 -20l-10 -49h-250z" />
    <glyph glyph-name="Kappa" unicode="&#x39a;" horiz-adv-x="562" 
d="M41 0l151 714h89l-74 -347l62 66l274 281h108l-310 -314l169 -400h-98l-139 346l-83 -61l-60 -285h-89z" />
    <glyph glyph-name="Lambda" unicode="&#x39b;" horiz-adv-x="562" 
d="M-57 0l388 713h95l89 -713h-88l-53 452q-4 41 -7 85.5t-5 81.5q-16 -38 -37 -81t-46 -91l-238 -447h-98z" />
    <glyph glyph-name="Mu" unicode="&#x39c;" horiz-adv-x="841" 
d="M40 0l151 714h126l69 -583h4l317 583h137l-148 -714h-90l90 424q14 65 26.5 118t21.5 85h-2l-344 -627h-71l-76 626h-4q-2 -20 -7 -53.5t-11.5 -71t-13.5 -72.5l-91 -429h-84z" />
    <glyph glyph-name="Nu" unicode="&#x39d;" horiz-adv-x="707" 
d="M40 0l151 714h95l219 -590h3q4 36 14 91.5t21 105.5l84 393h85l-151 -714h-95l-221 592h-3q-2 -21 -7.5 -55t-13 -73.5t-15.5 -75.5l-82 -388h-84z" />
    <glyph glyph-name="Xi" unicode="&#x39e;" horiz-adv-x="517" 
d="M139 635l17 79h398l-17 -79h-398zM118 334l16 78h314l-16 -78h-314zM-14 0l16 79h437l-17 -79h-436z" />
    <glyph glyph-name="Omicron" unicode="&#x39f;" horiz-adv-x="721" 
d="M337 -10q-128 0 -196.5 74.5t-68.5 202.5q0 92 24.5 175t71.5 146.5t114 100t151 36.5q121 0 189 -75.5t68 -205.5q0 -93 -22.5 -175t-67 -144.5t-110.5 -98.5t-153 -36zM340 69q60 0 107 30t80 82.5t50.5 120.5t17.5 144q0 95 -45 147.5t-123 52.5q-60 0 -108 -29.5
t-82 -81t-52 -120t-18 -146.5q0 -95 46 -147.5t127 -52.5z" />
    <glyph glyph-name="Pi" unicode="&#x3a0;" horiz-adv-x="680" 
d="M41 0l151 714h493l-151 -714h-90l134 635h-314l-134 -635h-89z" />
    <glyph glyph-name="Rho" unicode="&#x3a1;" horiz-adv-x="567" 
d="M41 0l151 714h161q115 0 164.5 -51.5t49.5 -134.5q0 -121 -80 -185t-234 -64h-64l-59 -279h-89zM205 354h62q96 0 152.5 41t56.5 130q0 59 -33.5 85.5t-101.5 26.5h-76z" />
    <glyph glyph-name="Sigma" unicode="&#x3a3;" horiz-adv-x="523" 
d="M-15 0l14 73l261 296l-134 274l14 71h423l-17 -79h-324l132 -273l-249 -283h352l-17 -79h-455z" />
    <glyph glyph-name="Tau" unicode="&#x3a4;" horiz-adv-x="501" 
d="M152 0l134 635h-196l17 79h482l-16 -79h-196l-135 -635h-90z" />
    <glyph glyph-name="Upsilon" unicode="&#x3a5;" horiz-adv-x="509" 
d="M150 0l58 268l-116 446h89l85 -358l234 358h101l-306 -449l-55 -265h-90z" />
    <glyph glyph-name="Phi" unicode="&#x3a6;" horiz-adv-x="751" 
d="M270 -10l24 110q-105 8 -163.5 65t-58.5 160q0 83 34 152.5t108 112t194 46.5l18 88h91l-18 -88q103 -6 162 -62.5t59 -157.5q0 -55 -17.5 -109.5t-56.5 -100t-103 -74.5t-158 -32l-24 -110h-91zM309 176l82 383q-81 -1 -131 -32.5t-73.5 -83.5t-23.5 -113
q0 -71 38.5 -111.5t107.5 -42.5zM401 176q79 4 129.5 37t74.5 84.5t24 113.5q0 65 -36.5 105t-110.5 43z" />
    <glyph glyph-name="Chi" unicode="&#x3a7;" horiz-adv-x="527" 
d="M-52 0l291 378l-127 336h90l97 -273l212 273h98l-270 -340l135 -374h-94l-102 309l-232 -309h-98z" />
    <glyph glyph-name="Psi" unicode="&#x3a8;" horiz-adv-x="742" 
d="M273 0l46 218h-7q-81 0 -128.5 28.5t-67.5 73.5t-20 95q0 45 12 100l41 199h93l-44 -209q-6 -29 -8.5 -50t-2.5 -36q0 -125 139 -125h8l90 420h90l-89 -420h7q68 0 111 23t67 64.5t36 96.5l50 236h93l-51 -244q-14 -72 -49 -129t-98.5 -90t-163.5 -33h-18l-46 -218h-90z
" />
    <glyph glyph-name="Iotadieresis" unicode="&#x3aa;" horiz-adv-x="324" 
d="M-20 0l10 49l85 20l122 576l-76 19l10 50h250l-10 -50l-86 -19l-122 -576l77 -20l-10 -49h-250zM368 809q-18 0 -30 11t-12 31q0 23 14 40t39 17q20 0 30 -11t10 -29q0 -28 -16 -43.5t-35 -15.5zM189 809q-19 0 -31 11t-12 31q0 23 14 40t39 17q21 0 30.5 -11t9.5 -29
q0 -28 -15.5 -43.5t-34.5 -15.5z" />
    <glyph glyph-name="Upsilondieresis" unicode="&#x3ab;" horiz-adv-x="509" 
d="M150 0l58 268l-116 446h89l85 -358l234 358h101l-306 -449l-55 -265h-90zM461 809q-18 0 -30 11t-12 31q0 23 14 40t39 17q20 0 30 -11t10 -29q0 -28 -16 -43.5t-35 -15.5zM282 809q-19 0 -31 11t-12 31q0 23 14 40t39 17q21 0 30.5 -11t9.5 -29q0 -28 -15.5 -43.5
t-34.5 -15.5z" />
    <glyph glyph-name="alphatonos" unicode="&#x3ac;" horiz-adv-x="572" 
d="M193 -10q-64 0 -104.5 46t-40.5 137q0 76 19 143.5t53.5 119t82 81t104.5 29.5t89 -27t49 -65h5q8 17 21 41.5t28 40.5h72q-11 -22 -24.5 -59t-27 -82t-23.5 -89l-35 -157q-4 -16 -5.5 -29.5t-1.5 -22.5q0 -36 31 -36q15 0 32 6v-64q-8 -5 -26 -9t-35 -4q-90 0 -90 99h-3
q-34 -41 -75 -70t-95 -29zM223 63q36 0 70.5 26.5t62 71.5t43.5 103q7 28 10 54t3 47q0 47 -25.5 77t-69.5 30q-39 0 -72 -24.5t-57 -66.5t-37 -96t-13 -113q0 -55 22 -82t63 -27zM316 606v14q13 24 29 57.5t31.5 67.5t25.5 61h94v-14q-9 -20 -30 -53.5t-47 -70t-48 -62.5
h-55z" />
    <glyph glyph-name="epsilontonos" unicode="&#x3ad;" horiz-adv-x="451" 
d="M208 -10q-89 0 -133.5 39t-44.5 99q0 71 43 106.5t104 46.5v3q-31 13 -53 39t-22 69q0 54 29 88t74.5 49.5t94.5 15.5q51 0 88.5 -9.5t69.5 -26.5l-32 -68q-21 12 -53 21.5t-69 9.5q-50 0 -85 -20t-35 -67q0 -30 23 -50t72 -20h61l-15 -74h-57q-41 0 -75 -9.5t-54.5 -31
t-20.5 -58.5q0 -34 24 -57.5t80 -23.5q46 0 87.5 13.5t75.5 30.5v-74q-27 -14 -73 -27.5t-104 -13.5zM270 606v14q13 24 29 57.5t31.5 67.5t25.5 61h94v-14q-9 -20 -30 -53.5t-47 -70t-48 -62.5h-55z" />
    <glyph glyph-name="etatonos" unicode="&#x3ae;" horiz-adv-x="579" 
d="M302 -240l123 576q5 22 7.5 38.5t2.5 30.5q0 31 -17 49t-54 18q-34 0 -73 -23.5t-73 -76.5t-53 -141l-49 -231h-88l114 536h72l-11 -99h5q19 25 44.5 50t59 42t76.5 17q62 0 98.5 -34t36.5 -98q0 -23 -3.5 -46.5t-7.5 -41.5l-122 -566h-88zM319 606v14q13 24 29 57.5
t31.5 67.5t25.5 61h94v-14q-9 -20 -30 -53.5t-47 -70t-48 -62.5h-55z" />
    <glyph glyph-name="iotatonos" unicode="&#x3af;" horiz-adv-x="311" 
d="M174 -10q-52 0 -87.5 26t-35.5 91q0 15 2.5 33.5t7.5 39.5l75 356h88l-76 -359q-3 -13 -5.5 -29t-2.5 -30q0 -24 11 -40t40 -16q17 0 33 3.5t36 9.5v-67q-13 -6 -38.5 -12t-47.5 -6zM154 606v14q13 24 29 57.5t31.5 67.5t25.5 61h94v-14q-9 -20 -30 -53.5t-47 -70
t-48 -62.5h-55z" />
    <glyph glyph-name="upsilondieresistonos" unicode="&#x3b0;" horiz-adv-x="580" 
d="M249 -10q-89 0 -137 46.5t-48 129.5q0 20 3 42.5t12 64.5l55 263h88l-55 -260q-9 -42 -12 -64.5t-3 -40.5q0 -57 28 -83t75 -26q46 0 78.5 24.5t54 65.5t34 92t19 104.5t8.5 102.5t2 85h88q0 -71 -6 -147.5t-23.5 -147.5t-49.5 -127.5t-83.5 -90t-127.5 -33.5zM329 678
v11q16 29 38 71t37 78h98v-10q-23 -32 -59 -73.5t-74 -76.5h-40zM247 631q-18 0 -30 11t-12 31q0 23 13.5 40t38.5 17q21 0 30.5 -11t9.5 -29q0 -28 -16 -43.5t-34 -15.5zM481 631q-18 0 -30 11t-12 31q0 23 13.5 40t38.5 17q20 0 30 -11t10 -29q0 -28 -16 -43.5t-34 -15.5z
" />
    <glyph glyph-name="alpha" unicode="&#x3b1;" horiz-adv-x="572" 
d="M193 -10q-64 0 -104.5 46t-40.5 137q0 76 19 143.5t53.5 119t82 81t104.5 29.5t89 -27t49 -65h5q8 17 21 41.5t28 40.5h72q-11 -22 -24.5 -59t-27 -82t-23.5 -89l-35 -157q-4 -16 -5.5 -29.5t-1.5 -22.5q0 -36 31 -36q15 0 32 6v-64q-8 -5 -26 -9t-35 -4q-90 0 -90 99h-3
q-34 -41 -75 -70t-95 -29zM223 63q36 0 70.5 26.5t62 71.5t43.5 103q7 28 10 54t3 47q0 47 -25.5 77t-69.5 30q-39 0 -72 -24.5t-57 -66.5t-37 -96t-13 -113q0 -55 22 -82t63 -27z" />
    <glyph glyph-name="beta" unicode="&#x3b2;" horiz-adv-x="581" 
d="M-23 -240l165 775q14 63 40 115t74.5 83.5t128.5 31.5q85 0 133 -44.5t48 -124.5q0 -162 -172 -200q52 -11 88.5 -50.5t36.5 -114.5q0 -69 -28 -123.5t-81.5 -86t-130.5 -31.5q-58 0 -93 17.5t-60 36.5l-61 -284h-88zM272 62q54 0 90 24t53.5 61.5t17.5 79.5q0 60 -32 97
t-110 37h-32l16 74h35q88 0 127 44t39 111q0 44 -24.5 73.5t-75.5 29.5q-48 0 -76.5 -22.5t-44.5 -59.5t-25 -79l-91 -428q24 -19 59.5 -30.5t73.5 -11.5z" />
    <glyph glyph-name="gamma" unicode="&#x3b3;" horiz-adv-x="464" 
d="M40 -240q11 62 34.5 123.5t55.5 122.5l-82 530h89l37 -285q5 -37 8.5 -84t3.5 -88h2q17 43 39.5 91.5t38.5 78.5l152 287h94l-284 -522q-33 -61 -57.5 -123.5t-38.5 -130.5h-92z" />
    <glyph glyph-name="delta" unicode="&#x3b4;" horiz-adv-x="556" 
d="M234 -10q-66 0 -110 26t-66.5 69.5t-22.5 95.5q0 113 69 182t184 99q-34 27 -60 63t-26 86q0 67 48.5 110.5t131.5 43.5q58 0 102 -18.5t72 -37.5l-35 -63q-26 16 -61.5 32t-78.5 16q-49 0 -72 -23t-23 -60q0 -38 23 -63t63 -57q52 -42 88 -94.5t36 -131.5
q0 -73 -29.5 -135.5t-88 -101t-144.5 -38.5zM243 63q51 0 88 27t56.5 72.5t19.5 101.5q0 59 -21 95.5t-48 59.5q-58 -14 -106.5 -42.5t-77.5 -74t-29 -109.5q0 -61 30 -95.5t88 -34.5z" />
    <glyph glyph-name="epsilon" unicode="&#x3b5;" horiz-adv-x="451" 
d="M208 -10q-89 0 -133.5 39t-44.5 99q0 71 43 106.5t104 46.5v3q-31 13 -53 39t-22 69q0 54 29 88t74.5 49.5t94.5 15.5q51 0 88.5 -9.5t69.5 -26.5l-32 -68q-21 12 -53 21.5t-69 9.5q-50 0 -85 -20t-35 -67q0 -30 23 -50t72 -20h61l-15 -74h-57q-41 0 -75 -9.5t-54.5 -31
t-20.5 -58.5q0 -34 24 -57.5t80 -23.5q46 0 87.5 13.5t75.5 30.5v-74q-27 -14 -73 -27.5t-104 -13.5z" />
    <glyph glyph-name="zeta" unicode="&#x3b6;" horiz-adv-x="454" 
d="M185 -202q47 40 69 69.5t22 59.5q0 28 -24 42.5t-67 32.5q-72 30 -104.5 71t-32.5 117q0 84 47 166t129 165t187 171q-47 -6 -125 -6h-102l16 74h328l-14 -67q-67 -59 -133.5 -119t-121.5 -121.5t-88 -124t-33 -125.5q0 -53 22 -80.5t77 -51.5q58 -25 91 -52t33 -80
q0 -44 -25.5 -79t-58.5 -62h-92z" />
    <glyph glyph-name="eta" unicode="&#x3b7;" horiz-adv-x="579" 
d="M302 -240l123 576q5 22 7.5 38.5t2.5 30.5q0 31 -17 49t-54 18q-34 0 -73 -23.5t-73 -76.5t-53 -141l-49 -231h-88l114 536h72l-11 -99h5q19 25 44.5 50t59 42t76.5 17q62 0 98.5 -34t36.5 -98q0 -23 -3.5 -46.5t-7.5 -41.5l-122 -566h-88z" />
    <glyph glyph-name="theta" unicode="&#x3b8;" horiz-adv-x="547" 
d="M212 -10q-80 0 -122 51t-42 155q0 44 5 93t16 95q27 120 65.5 205.5t95 130.5t135.5 45q73 0 117.5 -49t44.5 -166q0 -37 -5.5 -86t-17.5 -105q-24 -113 -63 -195.5t-95 -128t-134 -45.5zM165 426h261q7 34 10.5 68.5t3.5 62.5q0 135 -85 135q-67 0 -112.5 -70
t-77.5 -196zM222 63q68 0 112 72.5t78 215.5h-263q-8 -41 -11.5 -77.5t-3.5 -69.5q0 -74 21.5 -107.5t66.5 -33.5z" />
    <glyph glyph-name="iota" unicode="&#x3b9;" horiz-adv-x="311" 
d="M174 -10q-52 0 -87.5 26t-35.5 91q0 15 2.5 33.5t7.5 39.5l75 356h88l-76 -359q-3 -13 -5.5 -29t-2.5 -30q0 -24 11 -40t40 -16q17 0 33 3.5t36 9.5v-67q-13 -6 -38.5 -12t-47.5 -6z" />
    <glyph glyph-name="kappa" unicode="&#x3ba;" horiz-adv-x="495" 
d="M27 0l113 536h89l-30 -135q-7 -37 -17.5 -71t-16.5 -54h2l254 260h104l-230 -230l143 -306h-97l-113 251l-72 -57l-40 -194h-89z" />
    <glyph glyph-name="lambda" unicode="&#x3bb;" horiz-adv-x="491" 
d="M389 -10q-42 0 -64.5 22.5t-29.5 80.5l-20 189q-4 32 -6.5 72t-2.5 78q-14 -34 -28 -65.5t-30 -61.5l-171 -305h-93l304 525l-9 70q-5 44 -20 71t-53 27q-14 0 -27 -1.5t-23 -3.5l-11 70q13 3 32 5.5t37 2.5q76 0 106.5 -38t39.5 -115l57 -499q3 -25 11 -39t25 -14
q6 0 15.5 1.5t17.5 4.5v-66q-10 -5 -26.5 -8t-30.5 -3z" />
    <glyph glyph-name="nu" unicode="&#x3bd;" horiz-adv-x="495" 
d="M114 0l-66 536h88l35 -306q5 -40 8 -78t5 -75q95 89 148.5 203.5t84.5 255.5h87q-22 -110 -58.5 -203t-94.5 -175t-145 -158h-92z" />
    <glyph glyph-name="xi" unicode="&#x3be;" horiz-adv-x="447" 
d="M178 -202q44 39 67 67.5t23 60.5q0 29 -23.5 44.5t-70.5 33.5q-68 26 -101 66.5t-33 108.5q0 81 53 140t154 81v3q-46 13 -75.5 43.5t-29.5 81.5q0 41 21.5 74t58 56t81.5 34q-25 -2 -47 -4t-54 -2h-28l16 74h303l-15 -68h-4q-43 0 -86.5 -10t-79.5 -29.5t-58 -49
t-22 -68.5q0 -49 34 -76t110 -27h46l-15 -68h-38q-59 0 -113 -18.5t-88 -57t-34 -98.5q0 -46 23.5 -72t82.5 -49q30 -11 57.5 -27t45 -41t17.5 -61q0 -46 -26 -80.5t-57 -61.5h-95z" />
    <glyph glyph-name="omicron" unicode="&#x3bf;" horiz-adv-x="563" 
d="M248 -8q-93 0 -146.5 55.5t-53.5 150.5q0 62 17 123t50.5 111t84 80.5t116.5 30.5q94 0 147 -55.5t53 -151.5q0 -61 -17 -122t-50.5 -111t-83.5 -80.5t-117 -30.5zM253 65q47 0 86.5 33.5t63 96.5t23.5 151q0 30 -10.5 58.5t-34.5 47t-64 18.5q-55 0 -95.5 -37.5
t-62.5 -100t-22 -137.5q0 -62 30.5 -96t85.5 -34z" />
    <glyph glyph-name="pi" unicode="&#x3c0;" horiz-adv-x="610" 
d="M444 -10q-46 0 -70.5 24t-24.5 64q0 22 9 69l65 314h-187l-100 -461h-89l100 461h-109l7 36l96 39h489l-15 -75h-104l-66 -321q-3 -14 -4.5 -26t-1.5 -20q0 -32 32 -32q12 0 23.5 2.5t19.5 5.5v-68q-14 -4 -32 -8t-38 -4z" />
    <glyph glyph-name="rho" unicode="&#x3c1;" horiz-adv-x="573" 
d="M-22 -240l117 555q13 59 39 112t74 85.5t126 32.5q92 0 141.5 -54.5t49.5 -156.5q0 -57 -15 -117t-46 -111.5t-79.5 -83.5t-115.5 -32q-49 0 -83.5 17t-62.5 45q-6 -39 -12.5 -73.5t-15.5 -76.5l-30 -142h-87zM260 63q44 0 77 24.5t55 65t33 88t11 94.5q0 63 -25.5 100
t-81.5 37q-66 0 -99.5 -48t-50.5 -128l-39 -180q20 -21 50 -37t70 -16z" />
    <glyph glyph-name="sigma1" unicode="&#x3c2;" horiz-adv-x="454" 
d="M185 -208q45 40 68 72t23 63q0 24 -16.5 38.5t-68.5 34.5q-34 14 -67 37t-54.5 64t-21.5 106q0 60 17.5 120t53 109.5t88 79.5t122.5 30q37 0 70 -7t62 -19l-25 -73q-20 9 -48 17t-62 8q-47 0 -82.5 -24t-59 -62.5t-35 -83.5t-11.5 -86q0 -44 12 -72t36.5 -46t61.5 -32
q30 -12 56.5 -27.5t42.5 -39.5t16 -62q0 -44 -25 -79t-59 -66h-94z" />
    <glyph glyph-name="sigma" unicode="&#x3c3;" horiz-adv-x="584" 
d="M246 -8q-88 0 -143 51.5t-55 168.5q0 90 32 163.5t99 117t173 43.5h248l-14 -74h-131q17 -29 31.5 -67t14.5 -102q0 -47 -13.5 -99.5t-43.5 -98.5t-79 -74.5t-119 -28.5zM252 65q59 0 95 35t52 92t16 124q0 47 -10 84t-24 62h-33q-78 0 -124 -34t-66.5 -90.5
t-20.5 -123.5q0 -78 31 -113.5t84 -35.5z" />
    <glyph glyph-name="tau" unicode="&#x3c4;" horiz-adv-x="425" 
d="M248 -10q-54 0 -91 26t-37 91q0 17 4 42t9 49l56 263h-151l7 36l95 39h315l-16 -75h-162l-57 -265q-4 -23 -7.5 -43t-3.5 -36q0 -23 12.5 -39t40.5 -16q17 0 34 3.5t37 9.5v-67q-12 -6 -37.5 -12t-47.5 -6z" />
    <glyph glyph-name="upsilon" unicode="&#x3c5;" horiz-adv-x="580" 
d="M249 -10q-89 0 -137 46.5t-48 129.5q0 20 3 42.5t12 64.5l55 263h88l-55 -260q-9 -42 -12 -64.5t-3 -40.5q0 -57 28 -83t75 -26q46 0 78.5 24.5t54 65.5t34 92t19 104.5t8.5 102.5t2 85h88q0 -71 -6 -147.5t-23.5 -147.5t-49.5 -127.5t-83.5 -90t-127.5 -33.5z" />
    <glyph glyph-name="phi" unicode="&#x3c6;" horiz-adv-x="679" 
d="M181 -240l49 231q-52 7 -93 32t-65 70t-24 111q0 104 41.5 182.5t122.5 154.5l56 -52q-68 -65 -100.5 -130.5t-32.5 -145.5q0 -53 15.5 -84.5t40.5 -46.5t55 -19l65 308q17 80 57 127t118 47q72 0 108.5 -47.5t36.5 -133.5q0 -65 -17 -129t-54 -117.5t-97 -88t-147 -40.5
l-48 -229h-87zM333 63q60 6 100.5 36t64.5 74.5t34.5 94.5t10.5 95q0 61 -17.5 85t-44.5 24q-35 0 -54 -27.5t-30 -83.5z" />
    <glyph glyph-name="chi" unicode="&#x3c7;" horiz-adv-x="507" 
d="M-113 -240l298 409l-29 228q-4 38 -17 53.5t-35 15.5q-8 0 -16.5 -2.5t-16.5 -4.5l-16 65q13 6 32 10t36 4q57 0 81 -33.5t32 -91.5l19 -165l196 288h93l-269 -385l33 -242q6 -39 18.5 -58.5t43.5 -19.5q10 0 20.5 2t19.5 4v-66q-14 -5 -30.5 -8t-35.5 -3q-42 0 -65.5 18
t-35 49t-16.5 70l-22 177l-219 -314h-99z" />
    <glyph glyph-name="psi" unicode="&#x3c8;" horiz-adv-x="723" 
d="M209 -240l50 232q-99 10 -144.5 60.5t-45.5 129.5q0 24 3 48t9 54l53 252h88l-53 -255q-5 -25 -8 -47.5t-3 -41.5q0 -53 25.5 -87.5t90.5 -40.5l147 695h86l-147 -693q94 10 144.5 71t69.5 163t19 236h90q0 -116 -15 -213t-52 -169t-103.5 -114t-168.5 -48l-49 -232h-86z
" />
    <glyph glyph-name="omega" unicode="&#x3c9;" horiz-adv-x="738" 
d="M187 -10q-69 0 -104 50t-35 131q0 89 33 183t94 182h92q-53 -81 -91.5 -173.5t-38.5 -189.5q0 -62 20 -86t49 -24q40 0 66 34t39 97l32 149h86l-30 -137q-4 -17 -6 -35t-2 -29q0 -79 61 -79q41 0 69.5 31t46.5 79.5t26 103.5t8 103q0 87 -13 156h87q8 -36 11.5 -76.5
t3.5 -76.5q0 -43 -7 -95.5t-23.5 -105t-44.5 -96t-69.5 -70t-98.5 -26.5q-46 0 -75 24t-41 63q-27 -43 -61.5 -65t-83.5 -22z" />
    <glyph glyph-name="iotadieresis" unicode="&#x3ca;" horiz-adv-x="311" 
d="M174 -10q-52 0 -87.5 26t-35.5 91q0 15 2.5 33.5t7.5 39.5l75 356h88l-76 -359q-3 -13 -5.5 -29t-2.5 -30q0 -24 11 -40t40 -16q17 0 33 3.5t36 9.5v-67q-13 -6 -38.5 -12t-47.5 -6zM297 631q-18 0 -30 11t-12 31q0 23 14 40t39 17q20 0 30 -11t10 -29q0 -28 -16 -43.5
t-35 -15.5zM118 631q-19 0 -31 11t-12 31q0 23 14 40t39 17q21 0 30.5 -11t9.5 -29q0 -28 -15.5 -43.5t-34.5 -15.5z" />
    <glyph glyph-name="upsilondieresis" unicode="&#x3cb;" horiz-adv-x="580" 
d="M249 -10q-89 0 -137 46.5t-48 129.5q0 20 3 42.5t12 64.5l55 263h88l-55 -260q-9 -42 -12 -64.5t-3 -40.5q0 -57 28 -83t75 -26q46 0 78.5 24.5t54 65.5t34 92t19 104.5t8.5 102.5t2 85h88q0 -71 -6 -147.5t-23.5 -147.5t-49.5 -127.5t-83.5 -90t-127.5 -33.5zM451 631
q-18 0 -30 11t-12 31q0 23 14 40t39 17q20 0 30 -11t10 -29q0 -28 -16 -43.5t-35 -15.5zM272 631q-19 0 -31 11t-12 31q0 23 14 40t39 17q21 0 30.5 -11t9.5 -29q0 -28 -15.5 -43.5t-34.5 -15.5z" />
    <glyph glyph-name="omicrontonos" unicode="&#x3cc;" horiz-adv-x="563" 
d="M248 -8q-93 0 -146.5 55.5t-53.5 150.5q0 62 17 123t50.5 111t84 80.5t116.5 30.5q94 0 147 -55.5t53 -151.5q0 -61 -17 -122t-50.5 -111t-83.5 -80.5t-117 -30.5zM253 65q47 0 86.5 33.5t63 96.5t23.5 151q0 30 -10.5 58.5t-34.5 47t-64 18.5q-55 0 -95.5 -37.5
t-62.5 -100t-22 -137.5q0 -62 30.5 -96t85.5 -34zM290 606v14q13 24 29 57.5t31.5 67.5t25.5 61h94v-14q-9 -20 -30 -53.5t-47 -70t-48 -62.5h-55z" />
    <glyph glyph-name="upsilontonos" unicode="&#x3cd;" horiz-adv-x="580" 
d="M249 -10q-89 0 -137 46.5t-48 129.5q0 20 3 42.5t12 64.5l55 263h88l-55 -260q-9 -42 -12 -64.5t-3 -40.5q0 -57 28 -83t75 -26q46 0 78.5 24.5t54 65.5t34 92t19 104.5t8.5 102.5t2 85h88q0 -71 -6 -147.5t-23.5 -147.5t-49.5 -127.5t-83.5 -90t-127.5 -33.5zM308 606
v14q13 24 29 57.5t31.5 67.5t25.5 61h94v-14q-9 -20 -30 -53.5t-47 -70t-48 -62.5h-55z" />
    <glyph glyph-name="omegatonos" unicode="&#x3ce;" horiz-adv-x="738" 
d="M187 -10q-69 0 -104 50t-35 131q0 89 33 183t94 182h92q-53 -81 -91.5 -173.5t-38.5 -189.5q0 -62 20 -86t49 -24q40 0 66 34t39 97l32 149h86l-30 -137q-4 -17 -6 -35t-2 -29q0 -79 61 -79q41 0 69.5 31t46.5 79.5t26 103.5t8 103q0 87 -13 156h87q8 -36 11.5 -76.5
t3.5 -76.5q0 -43 -7 -95.5t-23.5 -105t-44.5 -96t-69.5 -70t-98.5 -26.5q-46 0 -75 24t-41 63q-27 -43 -61.5 -65t-83.5 -22zM390 606v14q13 24 29 57.5t31.5 67.5t25.5 61h94v-14q-9 -20 -30 -53.5t-47 -70t-48 -62.5h-55z" />
    <glyph glyph-name="afii10023" unicode="&#x401;" horiz-adv-x="514" 
d="M41 0l151 714h362l-17 -79h-273l-47 -223h255l-15 -78h-256l-55 -255h274l-17 -79h-362zM481 809q-18 0 -30 11t-12 31q0 23 14 40t39 17q20 0 30 -11t10 -29q0 -28 -16 -43.5t-35 -15.5zM302 809q-19 0 -31 11t-12 31q0 23 14 40t39 17q21 0 30.5 -11t9.5 -29
q0 -28 -15.5 -43.5t-34.5 -15.5z" />
    <glyph glyph-name="afii10051" unicode="&#x402;" horiz-adv-x="674" 
d="M399 -10q-21 0 -40 3.5t-30 7.5v78q27 -10 63 -10q50 0 73.5 27.5t33.5 79.5l7 36q3 16 5 33t2 33q0 81 -100 81h-134l-76 -359h-89l135 635h-159l17 79h445l-17 -79h-197l-42 -197h125q91 0 136 -39t45 -112q0 -18 -2 -42.5t-6 -43.5l-8 -37q-18 -90 -63 -132t-124 -42z
" />
    <glyph glyph-name="afii10052" unicode="&#x403;" horiz-adv-x="478" 
d="M41 0l151 714h362l-16 -79h-274l-134 -635h-89zM340 784v13q17 19 38 45t40 53t34 49h100v-10q-14 -18 -41.5 -46.5t-58.5 -57t-57 -46.5h-55z" />
    <glyph glyph-name="afii10053" unicode="&#x404;" horiz-adv-x="587" 
d="M326 -10q-84 0 -140.5 34t-85 95.5t-28.5 143.5q0 64 15 130t45.5 125t77 105.5t108.5 73.5t140 27q100 0 174 -40l-36 -74q-27 14 -60.5 24.5t-77.5 10.5q-72 0 -126 -31.5t-90 -84.5t-54 -116h300l-16 -79h-301q-3 -16 -3.5 -34t-0.5 -36q0 -93 45.5 -144t129.5 -51
q41 0 80.5 8t77.5 21v-78q-40 -15 -80 -22.5t-94 -7.5z" />
    <glyph glyph-name="afii10054" unicode="&#x405;" horiz-adv-x="505" 
d="M185 -10q-52 0 -91.5 8t-74.5 24v88q30 -16 71.5 -29t95.5 -13q45 0 83 14t61 43t23 75q0 40 -26.5 68.5t-91.5 65.5q-38 22 -67.5 47t-46 57t-16.5 79q0 66 32 112.5t85.5 70.5t117.5 24q56 0 98.5 -11t80.5 -31l-34 -76q-26 14 -65 26.5t-80 12.5q-62 0 -101 -32
t-39 -90q0 -31 11 -51t34 -37t57 -37q43 -26 75.5 -51t51 -58t18.5 -82q0 -107 -71.5 -162t-190.5 -55z" />
    <glyph glyph-name="afii10055" unicode="&#x406;" horiz-adv-x="324" 
d="M-20 0l10 49l85 20l122 576l-76 19l10 50h250l-10 -50l-86 -19l-122 -576l77 -20l-10 -49h-250z" />
    <glyph glyph-name="afii10056" unicode="&#x407;" horiz-adv-x="324" 
d="M-20 0l10 49l85 20l122 576l-76 19l10 50h250l-10 -50l-86 -19l-122 -576l77 -20l-10 -49h-250zM368 809q-18 0 -30 11t-12 31q0 23 14 40t39 17q20 0 30 -11t10 -29q0 -28 -16 -43.5t-35 -15.5zM189 809q-19 0 -31 11t-12 31q0 23 14 40t39 17q21 0 30.5 -11t9.5 -29
q0 -28 -15.5 -43.5t-34.5 -15.5z" />
    <glyph glyph-name="afii10057" unicode="&#x408;" horiz-adv-x="273" 
d="M-80 -190q-50 0 -76 12l3 77q15 -5 33 -7.5t38 -2.5q44 0 78 27.5t47 92.5l150 705h89l-151 -715q-22 -101 -76.5 -145t-134.5 -44z" />
    <glyph glyph-name="afii10058" unicode="&#x409;" horiz-adv-x="895" 
d="M30 -11q-21 0 -36.5 3.5t-25.5 7.5v78q10 -4 23 -7t27 -3q30 0 52.5 12.5t43 45t41.5 92.5q16 46 34.5 106t37.5 127.5t37.5 135t34.5 127.5h333l-63 -302h51q84 0 131 -24t66.5 -64t19.5 -88q0 -82 -36 -134t-99.5 -77t-146.5 -25h-163l134 634h-161q-13 -49 -29 -107.5
t-33 -119t-33.5 -116t-31.5 -98.5q-22 -63 -48 -109t-64 -70.5t-96 -24.5zM497 76h72q176 0 176 152q0 59 -33 83t-92 24h-67z" />
    <glyph glyph-name="afii10059" unicode="&#x40a;" horiz-adv-x="905" 
d="M41 0l151 714h89l-64 -301h272l64 301h89l-64 -301h53q83 0 130 -24t66.5 -64.5t19.5 -88.5q0 -82 -36 -134t-99.5 -77t-145.5 -25h-164l70 334h-272l-70 -334h-89zM507 76h72q176 0 176 152q0 59 -33 82.5t-92 23.5h-67z" />
    <glyph glyph-name="afii10060" unicode="&#x40b;" horiz-adv-x="674" 
d="M114 0l135 635h-159l17 79h445l-17 -79h-197l-42 -197h131q90 0 132.5 -39t42.5 -115q0 -17 -3 -38t-8 -45l-42 -201h-90l45 205q9 39 9 73q0 81 -101 81h-133l-76 -359h-89z" />
    <glyph glyph-name="afii10061" unicode="&#x40c;" horiz-adv-x="562" 
d="M41 0l151 714h89l-74 -347l337 347h108l-353 -357l223 -357h-102l-216 354l-74 -354h-89zM360 784v13q17 19 38 45t40 53t34 49h100v-10q-14 -18 -41.5 -46.5t-58.5 -57t-57 -46.5h-55z" />
    <glyph glyph-name="afii10062" unicode="&#x40e;" horiz-adv-x="574" 
d="M83 -10q-23 0 -46 4.5t-37 9.5v87q17 -8 38 -13.5t43 -5.5q54 0 91.5 31.5t80.5 101.5l-150 509h90l86 -313q9 -35 17.5 -68.5t14.5 -66.5q13 29 27.5 57.5t31.5 57.5l195 333h101l-329 -536q-43 -69 -81.5 -110.5t-80 -59.5t-92.5 -18zM389 784q-85 0 -121.5 33.5
t-36.5 87.5q0 19 4 33h77q-3 -16 -3 -28q0 -28 19.5 -45.5t65.5 -17.5t77 18.5t41 72.5h84q-14 -70 -62 -112t-145 -42z" />
    <glyph glyph-name="afii10145" unicode="&#x40f;" horiz-adv-x="680" 
d="M205 -188l41 188h-205l151 714h90l-135 -635h315l134 635h89l-151 -714h-204l-39 -188h-86z" />
    <glyph glyph-name="afii10017" unicode="&#x410;" horiz-adv-x="562" 
d="M-57 0l388 714h94l88 -714h-88l-27 222h-241l-116 -222h-98zM200 302h189l-16 150q-4 38 -7.5 84t-4.5 81h-3q-16 -38 -37 -81.5t-44 -87.5z" />
    <glyph glyph-name="afii10018" unicode="&#x411;" horiz-adv-x="567" 
d="M42 0l151 714h361l-17 -79h-271l-47 -223h70q83 0 130.5 -24t67 -64t19.5 -89q0 -81 -36 -133t-99.5 -77t-146.5 -25h-182zM147 76h90q177 0 177 152q0 59 -33 83t-92 24h-86z" />
    <glyph glyph-name="afii10019" unicode="&#x412;" horiz-adv-x="600" 
d="M41 0l151 714h185q99 0 155.5 -39t56.5 -125q0 -73 -44 -118.5t-117 -59.5v-5q49 -13 82 -49t33 -96q0 -73 -35.5 -122.5t-97.5 -74.5t-141 -25h-228zM217 410h117q44 0 81 14t59 42.5t22 72.5q0 47 -30 72.5t-100 25.5h-101zM146 76h126q85 0 131 38t46 108q0 48 -31 81
t-105 33h-112z" />
    <glyph glyph-name="afii10020" unicode="&#x413;" horiz-adv-x="478" 
d="M41 0l151 714h362l-16 -79h-274l-134 -635h-89z" />
    <glyph glyph-name="afii10021" unicode="&#x414;" horiz-adv-x="630" 
d="M-84 -187l56 267h51q45 62 91.5 141t89 165.5t76 170.5t51.5 157h291l-134 -634h91l-57 -267h-85l39 187h-437l-40 -187h-83zM124 80h273l118 553h-120q-17 -56 -47.5 -129.5t-68 -151t-78 -149t-77.5 -123.5z" />
    <glyph glyph-name="afii10022" unicode="&#x415;" horiz-adv-x="514" 
d="M41 0l151 714h362l-17 -79h-273l-47 -223h255l-15 -78h-256l-55 -255h274l-17 -79h-362z" />
    <glyph glyph-name="afii10024" unicode="&#x416;" horiz-adv-x="784" 
d="M-50 0l331 376l-174 338h96l172 -340l72 340h86l-72 -340l307 340h106l-325 -358l180 -356h-99l-173 356l-75 -356h-86l75 356l-313 -356h-108z" />
    <glyph glyph-name="afii10025" unicode="&#x417;" horiz-adv-x="538" 
d="M192 -10q-114 0 -193 39v85q36 -21 89.5 -35.5t108.5 -14.5q66 0 107.5 21t61.5 55t20 74q0 62 -41 90t-116 28h-102l15 73h95q49 0 93.5 14.5t73.5 46.5t29 87q0 49 -30 73t-80 24q-45 0 -88.5 -16t-84.5 -42l-36 64q51 34 104.5 51t122.5 17q86 0 135 -43.5t49 -115.5
q0 -76 -49.5 -127.5t-134.5 -68.5v-2q60 -9 99.5 -48t39.5 -109q0 -60 -32 -110t-96 -80t-160 -30z" />
    <glyph glyph-name="afii10026" unicode="&#x418;" horiz-adv-x="702" 
d="M41 0l151 714h85l-84 -393q-7 -30 -15.5 -68t-16 -72.5t-12.5 -51.5h2l452 585h104l-151 -714h-84l84 397q8 34 16 71.5t15.5 71t13.5 55.5h-2l-454 -595h-104z" />
    <glyph glyph-name="afii10027" unicode="&#x419;" horiz-adv-x="702" 
d="M41 0l151 714h85l-84 -393q-7 -30 -15.5 -68t-16 -72.5t-12.5 -51.5h2l452 585h104l-151 -714h-84l84 397q8 34 16 71.5t15.5 71t13.5 55.5h-2l-454 -595h-104zM459 784q-85 0 -121.5 33.5t-36.5 87.5q0 19 4 33h77q-3 -16 -3 -28q0 -28 19.5 -45.5t65.5 -17.5t77 18.5
t41 72.5h84q-14 -70 -62 -112t-145 -42z" />
    <glyph glyph-name="afii10028" unicode="&#x41a;" horiz-adv-x="562" 
d="M41 0l151 714h89l-74 -347l337 347h108l-353 -357l223 -357h-102l-216 354l-74 -354h-89z" />
    <glyph glyph-name="afii10029" unicode="&#x41b;" horiz-adv-x="649" 
d="M30 -11q-21 0 -36.5 3.5t-25.5 7.5v78q10 -4 23 -7t27 -3q30 0 52.5 12.5t43 45t41.5 92.5q16 46 34.5 106t37.5 127.5t37.5 135t34.5 127.5h355l-152 -714h-90l135 634h-182q-13 -49 -29 -107.5t-33 -119t-33.5 -116t-31.5 -98.5q-22 -63 -48 -109t-64 -70.5t-96 -24.5z
" />
    <glyph glyph-name="afii10030" unicode="&#x41c;" horiz-adv-x="841" 
d="M40 0l151 714h126l69 -583h4l317 583h137l-148 -714h-90l90 424q14 65 26.5 118t21.5 85h-2l-344 -627h-71l-76 626h-4q-2 -20 -7 -53.5t-11.5 -71t-13.5 -72.5l-91 -429h-84z" />
    <glyph glyph-name="afii10031" unicode="&#x41d;" horiz-adv-x="680" 
d="M42 0l151 714h89l-64 -302h314l64 302h88l-151 -714h-88l70 333h-314l-70 -333h-89z" />
    <glyph glyph-name="afii10032" unicode="&#x41e;" horiz-adv-x="721" 
d="M337 -10q-128 0 -196.5 74.5t-68.5 202.5q0 92 24.5 175t71.5 146.5t114 100t151 36.5q121 0 189 -75.5t68 -205.5q0 -93 -22.5 -175t-67 -144.5t-110.5 -98.5t-153 -36zM340 69q60 0 107 30t80 82.5t50.5 120.5t17.5 144q0 95 -45 147.5t-123 52.5q-60 0 -108 -29.5
t-82 -81t-52 -120t-18 -146.5q0 -95 46 -147.5t127 -52.5z" />
    <glyph glyph-name="afii10033" unicode="&#x41f;" horiz-adv-x="680" 
d="M41 0l151 714h493l-151 -714h-90l134 635h-314l-134 -635h-89z" />
    <glyph glyph-name="afii10034" unicode="&#x420;" horiz-adv-x="567" 
d="M41 0l151 714h161q115 0 164.5 -51.5t49.5 -134.5q0 -121 -80 -185t-234 -64h-64l-59 -279h-89zM205 354h62q96 0 152.5 41t56.5 130q0 59 -33.5 85.5t-101.5 26.5h-76z" />
    <glyph glyph-name="afii10035" unicode="&#x421;" horiz-adv-x="587" 
d="M326 -10q-119 0 -186.5 73t-67.5 200q0 64 15 130t45.5 125t77 105.5t108.5 73.5t140 27q100 0 174 -40l-36 -74q-27 14 -60.5 24.5t-77.5 10.5q-75 0 -129.5 -33.5t-90.5 -89t-53.5 -123t-17.5 -134.5q0 -91 46.5 -143.5t128.5 -52.5q41 0 80.5 8t77.5 21v-78
q-39 -14 -78.5 -22t-95.5 -8z" />
    <glyph glyph-name="afii10036" unicode="&#x422;" horiz-adv-x="501" 
d="M152 0l134 635h-196l17 79h482l-16 -79h-196l-135 -635h-90z" />
    <glyph glyph-name="afii10037" unicode="&#x423;" horiz-adv-x="574" 
d="M83 -10q-23 0 -46 4.5t-37 9.5v87q17 -8 38 -13.5t43 -5.5q54 0 91.5 31.5t80.5 101.5l-150 509h90l86 -313q9 -35 17.5 -68.5t14.5 -66.5q13 29 27.5 57.5t31.5 57.5l195 333h101l-329 -536q-43 -69 -81.5 -110.5t-80 -59.5t-92.5 -18z" />
    <glyph glyph-name="afii10038" unicode="&#x424;" horiz-adv-x="751" 
d="M270 -10l24 110q-105 8 -163.5 65t-58.5 160q0 83 34 152.5t108 112t194 46.5l18 88h91l-18 -88q103 -6 162 -62.5t59 -157.5q0 -55 -17.5 -109.5t-56.5 -100t-103 -74.5t-158 -32l-24 -110h-91zM309 176l82 383q-81 -1 -131 -32.5t-73.5 -83.5t-23.5 -113
q0 -71 38.5 -111.5t107.5 -42.5zM401 176q79 4 129.5 37t74.5 84.5t24 113.5q0 65 -36.5 105t-110.5 43z" />
    <glyph glyph-name="afii10039" unicode="&#x425;" horiz-adv-x="527" 
d="M-52 0l291 378l-127 336h90l97 -273l212 273h98l-270 -340l135 -374h-94l-102 309l-232 -309h-98z" />
    <glyph glyph-name="afii10040" unicode="&#x426;" horiz-adv-x="671" 
d="M477 -187l40 187h-477l151 714h90l-134 -634h300l134 634h90l-134 -634h83l-58 -267h-85z" />
    <glyph glyph-name="afii10041" unicode="&#x427;" horiz-adv-x="642" 
d="M406 0l62 291q-34 -15 -84 -29t-109 -14q-75 0 -115.5 35.5t-40.5 101.5q0 21 3 39t8 41l53 249h89l-52 -247q-4 -20 -7 -36.5t-3 -27.5q0 -37 20 -56.5t68 -19.5q50 0 98.5 12.5t88.5 26.5l72 348h90l-151 -714h-90z" />
    <glyph glyph-name="afii10042" unicode="&#x428;" horiz-adv-x="959" 
d="M40 0l151 714h90l-135 -634h253l134 634h90l-134 -634h252l134 634h89l-151 -714h-773z" />
    <glyph glyph-name="afii10043" unicode="&#x429;" horiz-adv-x="965" 
d="M771 -187l39 187h-770l151 714h90l-135 -634h253l134 634h90l-134 -634h252l134 634h89l-134 -634h83l-57 -267h-85z" />
    <glyph glyph-name="afii10044" unicode="&#x42a;" horiz-adv-x="631" 
d="M115 0l134 635h-159l17 79h248l-64 -302h65q84 0 131 -24t66.5 -64t19.5 -89q0 -81 -36 -133t-99.5 -77t-146.5 -25h-176zM220 76h84q177 0 177 152q0 59 -33 83t-92 24h-81z" />
    <glyph glyph-name="afii10045" unicode="&#x42b;" horiz-adv-x="792" 
d="M41 0l151 714h89l-64 -302h64q83 0 130.5 -24t67 -64t19.5 -89q0 -81 -36 -133t-99.5 -77t-146.5 -25h-175zM557 0l151 714h89l-151 -714h-89zM146 76h83q177 0 177 152q0 59 -33 83t-92 24h-80z" />
    <glyph glyph-name="afii10046" unicode="&#x42c;" horiz-adv-x="557" 
d="M41 0l151 714h89l-64 -302h65q84 0 131 -24t66.5 -64t19.5 -89q0 -81 -36 -133t-99.5 -77t-146.5 -25h-176zM146 76h84q177 0 177 152q0 59 -33 83t-92 24h-81z" />
    <glyph glyph-name="afii10047" unicode="&#x42d;" horiz-adv-x="586" 
d="M179 -10q-95 0 -170 39v86q41 -19 80.5 -32.5t94.5 -13.5q116 0 181 72t86 193h-301l16 79h295q0 9 0.5 19t0.5 24q0 83 -41.5 136t-125.5 53q-47 0 -85 -9.5t-72 -21.5l-23 74q37 14 85 25t104 11q116 0 184 -68.5t68 -199.5q0 -89 -20 -172.5t-64 -149.5t-116.5 -105
t-176.5 -39z" />
    <glyph glyph-name="afii10048" unicode="&#x42e;" horiz-adv-x="982" 
d="M609 -10q-91 0 -147.5 38t-82 101t-25.5 138q0 33 3 66h-157l-70 -333h-89l151 714h89l-64 -302h153q20 90 66 160.5t114.5 111.5t157.5 41q112 0 177 -74t65 -207q0 -93 -22 -175t-64.5 -145t-106.5 -98.5t-148 -35.5zM613 69q61 0 107 32t76 86.5t45 121.5t15 137
q0 98 -43 149t-117 51q-57 0 -102.5 -29.5t-78 -81t-49.5 -120t-17 -146.5q0 -55 16.5 -100.5t52.5 -72.5t95 -27z" />
    <glyph glyph-name="afii10049" unicode="&#x42f;" horiz-adv-x="575" 
d="M-39 0l251 326q-40 22 -67 59t-27 101q0 83 37 133t98 72.5t134 22.5h191l-150 -714h-90l63 296h-108l-224 -296h-108zM346 372h71l57 265h-87q-50 0 -90 -13.5t-63.5 -45t-23.5 -85.5t33 -87.5t103 -33.5z" />
    <glyph glyph-name="afii10065" unicode="&#x430;" horiz-adv-x="568" 
d="M193 -10q-65 0 -105 46.5t-40 136.5q0 75 19.5 142.5t54.5 119t83 81.5t106 30q53 0 86 -28t49 -65h5l32 83h67l-114 -536h-70l13 99h-4q-35 -44 -80.5 -76.5t-101.5 -32.5zM222 63q36 0 72 27t64.5 72.5t44.5 103.5q7 28 10 53t3 46q0 47 -26 77t-70 30q-39 0 -72 -24.5
t-58 -67t-38.5 -96.5t-13.5 -113q0 -54 22 -81t62 -27z" />
    <glyph glyph-name="afii10066" unicode="&#x431;" horiz-adv-x="545" 
d="M240 -10q-92 0 -141.5 57.5t-49.5 168.5q0 45 8.5 103.5t27 120t48 117.5t72 97t99.5 58q18 6 52.5 13.5t75.5 16t78 14.5t59 9l10 -72q-28 -5 -72 -12.5t-88.5 -17t-75.5 -19.5q-64 -20 -109.5 -80t-70.5 -155l3 -1q27 32 73 61t105 29q76 0 113.5 -47.5t37.5 -132.5
q0 -61 -14.5 -119.5t-45 -105.5t-79 -75t-116.5 -28zM248 63q44 0 74 24.5t48.5 63t26.5 81t8 77.5q0 60 -21 88t-63 28q-37 0 -70.5 -18t-60 -42.5t-41.5 -46.5q-5 -27 -8 -54t-3 -51q0 -67 25 -108.5t85 -41.5z" />
    <glyph glyph-name="afii10067" unicode="&#x432;" horiz-adv-x="541" 
d="M259 -10q-110 0 -160.5 60t-50.5 161q0 94 33.5 169.5t97 120t153.5 44.5q86 0 133 -34.5t47 -101.5q0 -59 -38 -92t-97 -46v-2q43 -11 71.5 -36.5t28.5 -77.5q0 -37 -20.5 -75.5t-68.5 -64t-129 -25.5zM147 303h109q44 0 82.5 9t62 30.5t23.5 57.5q0 30 -21 51t-70 21
q-71 0 -119 -44t-67 -125zM265 62q66 0 96.5 28t30.5 66t-31 57t-98 19h-126v-24q0 -77 34.5 -111.5t93.5 -34.5z" />
    <glyph glyph-name="afii10068" unicode="&#x433;" horiz-adv-x="459" 
d="M198 -10q-46 0 -85.5 14t-63.5 44t-24 78q0 52 27 86t68 56t84 37q60 23 98.5 46.5t38.5 64.5q0 25 -16 40.5t-57 15.5q-39 0 -77.5 -11t-69.5 -24l-24 70q35 13 80 25.5t100 12.5q67 0 110 -28.5t43 -95.5q0 -47 -24.5 -78.5t-63 -53t-80.5 -36.5q-46 -17 -79 -32.5
t-51 -35.5t-18 -52t23.5 -51t73.5 -19q41 0 79 12t74 29v-77q-35 -17 -75 -27t-91 -10z" />
    <glyph glyph-name="afii10069" unicode="&#x434;" horiz-adv-x="566" 
d="M225 -10q-87 0 -132 53.5t-45 141.5q0 57 16 115t47.5 106.5t78 77.5t107.5 29q59 0 91 -25.5t49 -59.5h3q1 8 1 15.5v12.5q0 123 -33 182t-101 59q-25 0 -54 -6t-51 -16l-22 65q24 12 63 21t75 9q110 0 161 -79t51 -229q0 -61 -11 -126.5t-34.5 -127t-59.5 -111
t-86 -78.5t-114 -29zM234 64q50 0 88 38t64 99t39 131q-14 48 -44 80.5t-76 32.5q-45 0 -83.5 -35t-61.5 -93.5t-23 -130.5q0 -52 22.5 -87t74.5 -35z" />
    <glyph glyph-name="afii10070" unicode="&#x435;" horiz-adv-x="499" 
d="M242 -10q-93 0 -143.5 54.5t-50.5 147.5q0 64 18.5 126.5t53.5 114t84.5 82.5t111.5 31q76 0 114.5 -33t38.5 -92q0 -53 -32.5 -95.5t-101.5 -68t-179 -25.5h-17q-1 -9 -1.5 -19t-0.5 -18q0 -61 29.5 -96.5t91.5 -35.5q38 0 72 10.5t74 30.5v-75q-38 -17 -74.5 -28
t-87.5 -11zM152 303h7q60 0 111 10.5t82 35t31 65.5q0 26 -17.5 42.5t-54.5 16.5q-48 0 -92.5 -44.5t-66.5 -125.5z" />
    <glyph glyph-name="afii10072" unicode="&#x436;" horiz-adv-x="845" 
d="M44 -10q-14 0 -30.5 2t-29.5 6l13 72q23 -7 48 -7q43 0 76.5 25t56.5 65.5t34.5 89t11.5 95.5q0 58 -22 96t-74 38q-15 0 -28.5 -2t-27.5 -5v72q14 3 32 6t37 3q86 0 129 -54.5t43 -151.5q0 -9 -0.5 -18.5t-1.5 -17.5h82l49 232h81l-50 -232h79q9 40 28 82.5t49.5 78.5
t74 58.5t100.5 22.5q17 0 34 -2t35 -7l-16 -71q-11 3 -25 4.5t-27 1.5q-43 0 -76 -25t-55 -65.5t-33 -89t-11 -94.5q0 -58 21 -96.5t73 -38.5q17 0 29.5 2t26.5 6v-73q-13 -2 -31 -5t-37 -3q-86 0 -129 54t-43 152v20t2 21h-83l-50 -237h-80l51 237h-79q-10 -45 -30.5 -89
t-52 -80t-75 -57t-99.5 -21z" />
    <glyph glyph-name="afii10073" unicode="&#x437;" horiz-adv-x="444" 
d="M153 -10q-43 0 -84.5 9.5t-69.5 24.5v81q25 -14 66.5 -28.5t94.5 -14.5q63 0 100.5 27.5t37.5 72.5q0 35 -20.5 57t-80.5 22h-74l17 74h49q33 0 65 7t53.5 26.5t21.5 58.5q0 30 -20.5 47.5t-62.5 17.5q-35 0 -67 -8.5t-71 -25.5l-26 67q41 19 82.5 30t93.5 11
q75 0 117 -33t42 -93q0 -54 -32.5 -90t-93.5 -49v-2q43 -11 67 -39t24 -75q0 -74 -57 -124.5t-172 -50.5z" />
    <glyph glyph-name="afii10074" unicode="&#x438;" horiz-adv-x="579" 
d="M189 -10q-61 0 -97.5 34t-36.5 99q0 23 3.5 43t7.5 43l70 327h89l-72 -337q-9 -43 -9 -67q0 -32 16 -50.5t54 -18.5q34 0 73 24t73.5 77t53.5 141l49 231h87l-114 -536h-72l11 99h-5q-19 -25 -44.5 -50t-59.5 -42t-77 -17z" />
    <glyph glyph-name="afii10075" unicode="&#x439;" horiz-adv-x="579" 
d="M189 -10q-61 0 -97.5 34t-36.5 99q0 23 3.5 43t7.5 43l70 327h89l-72 -337q-9 -43 -9 -67q0 -32 16 -50.5t54 -18.5q34 0 73 24t73.5 77t53.5 141l49 231h87l-114 -536h-72l11 99h-5q-19 -25 -44.5 -50t-59.5 -42t-77 -17zM360 606q-85 0 -121.5 33.5t-36.5 87.5
q0 19 4 33h77q-3 -16 -3 -28q0 -28 19.5 -45.5t65.5 -17.5t77 18.5t41 72.5h84q-14 -70 -62 -112t-145 -42z" />
    <glyph glyph-name="afii10076" unicode="&#x43a;" horiz-adv-x="486" 
d="M28 0l113 536h87l-55 -258l250 258h110l-265 -265l179 -271h-105l-170 267l-56 -267h-88z" />
    <glyph glyph-name="afii10077" unicode="&#x43b;" horiz-adv-x="544" 
d="M-3 -7q-13 0 -24 2.5t-17 4.5v76q14 -6 33 -6q32 0 55 21t43.5 67t46.5 121q23 67 44 116t47.5 81.5t65.5 48.5t97 16q34 0 66 -4.5t58 -12.5l-112 -524h-89l101 463q-7 1 -17 2.5t-21 1.5q-42 0 -67 -19.5t-46 -66.5t-50 -132q-29 -83 -55.5 -140t-63 -86.5t-95.5 -29.5
z" />
    <glyph glyph-name="afii10078" unicode="&#x43c;" horiz-adv-x="699" 
d="M29 0l113 535h114l56 -425h2l235 425h123l-112 -535h-80l65 307q9 37 18.5 75.5t17.5 70.5h-2l-252 -453h-69l-61 452h-3q-4 -28 -11 -69t-15 -78l-62 -305h-77z" />
    <glyph glyph-name="afii10079" unicode="&#x43d;" horiz-adv-x="601" 
d="M28 0l114 536h87l-46 -223h252l48 223h88l-113 -536h-89l50 240h-252l-51 -240h-88z" />
    <glyph glyph-name="afii10080" unicode="&#x43e;" horiz-adv-x="563" 
d="M248 -8q-93 0 -146.5 55.5t-53.5 150.5q0 62 17 123t50.5 111t84 80.5t116.5 30.5q94 0 147 -55.5t53 -151.5q0 -61 -17 -122t-50.5 -111t-83.5 -80.5t-117 -30.5zM253 65q47 0 86.5 33.5t63 96.5t23.5 151q0 30 -10.5 58.5t-34.5 47t-64 18.5q-55 0 -95.5 -37.5
t-62.5 -100t-22 -137.5q0 -62 30.5 -96t85.5 -34z" />
    <glyph glyph-name="afii10081" unicode="&#x43f;" horiz-adv-x="579" 
d="M24 -3l115 542h78l-11 -99q19 24 45 49.5t59.5 42.5t77.5 17q64 0 101 -35.5t37 -99.5q0 -23 -3.5 -47t-7.5 -42l-71 -328h-94l72 340q4 23 7 38.5t3 29.5q0 64 -68 64q-34 0 -72.5 -23.5t-72 -75.5t-51.5 -140l-50 -233h-94z" />
    <glyph glyph-name="afii10082" unicode="&#x440;" horiz-adv-x="579" 
d="M-22 -240l164 776h72l-12 -100h4q35 44 79 76.5t100 32.5q65 0 105 -46t40 -137q0 -74 -18 -140.5t-52 -119t-82.5 -82.5t-108.5 -30q-54 0 -87 27.5t-50 64.5h-5q-1 -16 -5 -44.5t-8 -46.5l-49 -231h-87zM262 63q40 0 73 25.5t56.5 68.5t36 97t12.5 110q0 108 -85 108
q-33 0 -67.5 -24.5t-63.5 -66.5t-46.5 -96t-17.5 -114q0 -48 25 -78t77 -30z" />
    <glyph glyph-name="afii10083" unicode="&#x441;" horiz-adv-x="453" 
d="M247 -10q-89 0 -144 50t-55 150q0 72 19.5 136.5t56 113.5t88.5 77.5t116 28.5q35 0 69.5 -7t63.5 -19l-25 -73q-20 9 -47.5 17t-59.5 8q-57 0 -100 -38.5t-67 -102.5t-24 -140q0 -61 31 -94.5t87 -33.5q35 0 66.5 9.5t62.5 23.5v-74q-28 -14 -62.5 -23t-75.5 -9z" />
    <glyph glyph-name="afii10084" unicode="&#x442;" horiz-adv-x="875" 
d="M28 0l114 536h72l-11 -99h5q18 25 42.5 50t56.5 42t73 17q55 0 85 -32t36 -87h4q20 29 47.5 56.5t61.5 45t75 17.5q62 0 96 -34t34 -98q0 -24 -3 -45t-8 -43l-69 -326h-89l72 336q4 22 6.5 38.5t2.5 31.5q0 30 -16.5 48t-51.5 18q-33 0 -69 -24t-67.5 -75t-48.5 -131
l-51 -242h-88l71 336q9 45 9 66q0 33 -15 51.5t-50 18.5q-32 0 -69 -23.5t-69 -76.5t-51 -141l-49 -231h-88z" />
    <glyph glyph-name="afii10085" unicode="&#x443;" horiz-adv-x="467" 
d="M-25 -240q-24 0 -39.5 3t-29.5 7v71q14 -4 30 -6.5t34 -2.5q40 0 69 25t55 73l35 62l-81 544h88l35 -265q5 -33 7.5 -71t4 -72.5t1.5 -55.5h3q7 16 20.5 48t29.5 66t28 56l156 294h94l-340 -626q-41 -75 -85 -112.5t-115 -37.5z" />
    <glyph glyph-name="afii10086" unicode="&#x444;" horiz-adv-x="672" 
d="M188 -240l49 231q-91 12 -140 71t-49 157q0 84 34.5 157t103 118.5t168.5 49.5l46 216h81l-46 -216q89 -12 140 -68t51 -156q0 -90 -37.5 -164t-106.5 -118.5t-164 -45.5l-49 -232h-81zM253 65l86 406q-70 -3 -114.5 -40.5t-65.5 -93t-21 -116.5q0 -71 31.5 -111
t83.5 -45zM334 65q54 3 92.5 26t62.5 59.5t35.5 79.5t11.5 86q0 73 -32 110.5t-83 42.5z" />
    <glyph glyph-name="afii10087" unicode="&#x445;" horiz-adv-x="483" 
d="M-37 0l232 276l-116 260h89l83 -198l157 198h102l-223 -264l123 -272h-89l-91 208l-165 -208h-102z" />
    <glyph glyph-name="afii10088" unicode="&#x446;" horiz-adv-x="597" 
d="M393 -186l40 179q-30 8 -44 32.5t-14 71.5h-4q-19 -27 -45 -51.5t-59.5 -40t-76.5 -15.5q-62 0 -98.5 34t-36.5 99q0 23 3.5 43t7.5 43l70 327h89l-72 -337q-9 -43 -9 -67q0 -32 16 -50.5t54 -18.5q34 0 73 24t73.5 77t53.5 141l49 231h87l-80 -378q-4 -20 -6 -33.5
t-2 -25.5q0 -17 9 -27.5t29 -10.5q8 0 18 2t20 5l-56 -254h-89z" />
    <glyph glyph-name="afii10089" unicode="&#x447;" horiz-adv-x="559" 
d="M326 0l32 151q7 35 16.5 68t16.5 58h-4q-30 -40 -73.5 -66t-99.5 -26q-68 0 -102.5 35t-34.5 102q0 19 3.5 43t8.5 48l26 123h89l-27 -130q-6 -26 -8.5 -43.5t-2.5 -32.5q0 -40 19.5 -55.5t53.5 -15.5q35 0 71.5 19t68.5 66.5t51 135.5l12 56h88l-114 -536h-90z" />
    <glyph glyph-name="afii10090" unicode="&#x448;" horiz-adv-x="875" 
d="M185 -10q-62 0 -96 34t-34 98q0 24 3.5 45t7.5 43l69 326h89l-71 -336q-5 -22 -7.5 -38.5t-2.5 -31.5q0 -30 16.5 -48t51.5 -18q33 0 69 24t67.5 75t48.5 131l52 242h88l-72 -336q-9 -45 -9 -66q0 -33 15 -51.5t50 -18.5q33 0 70 23.5t69 76.5t50 141l49 231h88
l-114 -536h-72l11 99h-5q-18 -25 -42.5 -50t-56.5 -42t-73 -17q-55 0 -85 32t-36 87h-4q-20 -29 -47.5 -56.5t-61.5 -45t-75 -17.5z" />
    <glyph glyph-name="afii10091" unicode="&#x449;" horiz-adv-x="893" 
d="M690 -186l39 179q-30 8 -44.5 32.5t-15.5 71.5h-3q-18 -25 -42.5 -50t-57 -41t-72.5 -16q-55 0 -85 32t-36 87h-4q-20 -29 -47 -56.5t-61.5 -45t-75.5 -17.5q-62 0 -96 34t-34 98q0 24 3.5 44.5t7.5 43.5l69 326h89l-71 -337q-5 -22 -7.5 -38t-2.5 -31q0 -30 16.5 -48
t51.5 -18q32 0 68.5 23.5t68 74.5t48.5 132l52 242h88l-72 -337q-9 -43 -9 -65q0 -34 15 -52t50 -18q33 0 70 23.5t69 76.5t50 141l49 231h88l-80 -378q-3 -16 -5 -32t-2 -27q0 -38 37 -38q13 0 22.5 2.5t16.5 4.5l-57 -254h-88z" />
    <glyph glyph-name="afii10092" unicode="&#x44a;" horiz-adv-x="600" 
d="M326 -10q-80 0 -127 37.5t-47 116.5q0 20 3 46t8 48l48 223h-170l16 75h258l-50 -233q24 5 51.5 8.5t55.5 3.5q83 0 124 -37.5t41 -104.5q0 -49 -22.5 -90.5t-69 -67t-119.5 -25.5zM333 62q61 0 89 32t28 72q0 43 -25.5 60t-76.5 17q-25 0 -49.5 -2.5t-48.5 -7.5
q-6 -29 -8.5 -48t-2.5 -33q0 -41 21 -65.5t73 -24.5z" />
    <glyph glyph-name="afii10093" unicode="&#x44b;" horiz-adv-x="728" 
d="M236 -10q-80 0 -127 37.5t-47 116.5q0 20 3 46t8 48l63 298h89l-50 -233q24 5 51.5 8.5t55.5 3.5q81 0 122 -36.5t41 -104.5q0 -50 -22.5 -92t-68.5 -67t-118 -25zM498 0l113 536h88l-114 -536h-87zM241 62q61 0 89 31.5t28 72.5q0 44 -26 60.5t-75 16.5
q-25 0 -49.5 -2.5t-47.5 -7.5q-6 -29 -8.5 -47.5t-2.5 -33.5q0 -43 21.5 -66.5t70.5 -23.5z" />
    <glyph glyph-name="afii10094" unicode="&#x44c;" horiz-adv-x="523" 
d="M241 -10q-85 0 -132 38t-47 117q0 20 3 45.5t8 47.5l63 298h89l-51 -233q26 5 56 8.5t62 3.5q91 0 130 -40t39 -102q0 -49 -24.5 -90.5t-73.5 -67t-122 -25.5zM249 62q66 0 95.5 31t29.5 73q0 36 -23 56.5t-80 20.5q-31 0 -59 -2.5t-52 -7.5q-6 -29 -8.5 -48t-2.5 -33
q0 -38 20.5 -64t79.5 -26z" />
    <glyph glyph-name="afii10095" unicode="&#x44d;" horiz-adv-x="458" 
d="M135 -10q-40 0 -74 8t-51 16v79q30 -13 60 -21t65 -8q71 0 116.5 46t60.5 128h-230l15 74h224v15q0 76 -30.5 110.5t-88.5 34.5q-32 0 -61.5 -8t-55.5 -20l-26 67q30 13 67 23.5t85 10.5q101 0 150 -57.5t49 -158.5q0 -65 -15 -125.5t-47.5 -108.5t-85 -76.5
t-127.5 -28.5z" />
    <glyph glyph-name="afii10096" unicode="&#x44e;" horiz-adv-x="786" 
d="M480 -8q-94 0 -142.5 58t-48.5 148q0 13 0.5 24.5t0.5 17.5h-123l-51 -240h-88l114 536h87l-46 -223h119q32 115 96.5 172.5t147.5 57.5q95 0 143 -58t48 -149q0 -65 -16.5 -126.5t-49 -110.5t-80.5 -78t-111 -29zM486 65q45 0 81.5 35t58 98t21.5 148q0 56 -26.5 90
t-75.5 34q-42 0 -73.5 -24.5t-52.5 -64.5t-31 -88.5t-10 -97.5q0 -58 26 -94t82 -36z" />
    <glyph glyph-name="afii10097" unicode="&#x44f;" horiz-adv-x="532" 
d="M21 -6q-13 0 -23.5 2t-17.5 4v70q10 -3 25 -3q26 0 42.5 17.5t39.5 63.5q15 32 36 57t55 38q-48 14 -70.5 47t-22.5 76q0 73 53 121.5t159 48.5h204l-113 -536h-87l45 211h-65q-47 0 -69 -23t-45 -69q-19 -40 -37.5 -68t-44 -42.5t-64.5 -14.5zM274 286h88l37 175h-116
q-53 0 -82 -25.5t-29 -69.5q0 -45 29 -62.5t73 -17.5z" />
    <glyph glyph-name="afii10071" unicode="&#x451;" horiz-adv-x="499" 
d="M242 -10q-93 0 -143.5 54.5t-50.5 147.5q0 64 18.5 126.5t53.5 114t84.5 82.5t111.5 31q76 0 114.5 -33t38.5 -92q0 -53 -32.5 -95.5t-101.5 -68t-179 -25.5h-17q-1 -9 -1.5 -19t-0.5 -18q0 -61 29.5 -96.5t91.5 -35.5q38 0 72 10.5t74 30.5v-75q-38 -17 -74.5 -28
t-87.5 -11zM152 303h7q60 0 111 10.5t82 35t31 65.5q0 26 -17.5 42.5t-54.5 16.5q-48 0 -92.5 -44.5t-66.5 -125.5zM425 631q-18 0 -30 11t-12 31q0 23 14 40t39 17q20 0 30 -11t10 -29q0 -28 -16 -43.5t-35 -15.5zM246 631q-19 0 -31 11t-12 31q0 23 14 40t39 17
q21 0 30.5 -11t9.5 -29q0 -28 -15.5 -43.5t-34.5 -15.5z" />
    <glyph glyph-name="afii10099" unicode="&#x452;" horiz-adv-x="579" 
d="M262 -240q-35 0 -62 10v75q27 -11 58 -11q60 0 81 99l82 383q5 22 7.5 38t2.5 28q0 33 -17 51.5t-54 18.5q-34 0 -73 -23.5t-73 -76.5t-53 -141l-45 -211h-88l128 604h-74l15 66h73l19 90h88l-20 -90h169l-15 -66h-166l-11 -50q-8 -35 -15.5 -66.5t-19.5 -69.5h5
q28 41 71.5 74.5t108.5 33.5q63 0 99 -35t36 -103q0 -20 -3.5 -40t-7.5 -42l-82 -383q-16 -75 -52.5 -119t-111.5 -44z" />
    <glyph glyph-name="afii10100" unicode="&#x453;" horiz-adv-x="459" 
d="M198 -10q-46 0 -85.5 14t-63.5 44t-24 78q0 52 27 86t68 56t84 37q60 23 98.5 46.5t38.5 64.5q0 25 -16 40.5t-57 15.5q-39 0 -77.5 -11t-69.5 -24l-24 70q35 13 80 25.5t100 12.5q67 0 110 -28.5t43 -95.5q0 -47 -24.5 -78.5t-63 -53t-80.5 -36.5q-46 -17 -79 -32.5
t-51 -35.5t-18 -52t23.5 -51t73.5 -19q41 0 79 12t74 29v-77q-35 -17 -75 -27t-91 -10zM294 606v13q17 19 38 45t40 53t34 49h100v-10q-14 -18 -41.5 -46.5t-58.5 -57t-57 -46.5h-55z" />
    <glyph glyph-name="afii10101" unicode="&#x454;" horiz-adv-x="453" 
d="M247 -10q-89 0 -144 50t-55 150q0 61 16.5 123.5t50.5 115.5t87 85t126 32q35 0 69.5 -7t63.5 -19l-25 -73q-20 9 -47.5 17t-59.5 8q-56 0 -103 -39.5t-71 -120.5h225l-17 -74h-224q-1 -12 -1.5 -23t-0.5 -24q0 -54 29 -91t90 -37q39 0 68.5 9.5t60.5 23.5v-74
q-28 -14 -62.5 -23t-75.5 -9z" />
    <glyph glyph-name="afii10102" unicode="&#x455;" horiz-adv-x="432" 
d="M155 -10q-49 0 -85.5 9.5t-64.5 24.5v81q25 -16 65 -29.5t82 -13.5q59 0 90 23t31 61q0 29 -19 48.5t-71 48.5q-57 32 -86 66t-29 85q0 68 49.5 110t132.5 42q49 0 90.5 -11.5t71.5 -25.5l-28 -70q-26 12 -58 22.5t-76 10.5t-69 -20.5t-25 -52.5q0 -26 17.5 -45.5
t70.5 -48.5q34 -20 61 -40t42.5 -46.5t15.5 -63.5q0 -81 -56.5 -123t-151.5 -42z" />
    <glyph glyph-name="afii10103" unicode="&#x456;" horiz-adv-x="258" 
d="M213 625q-21 0 -34.5 12.5t-13.5 34.5q0 26 15.5 45t43.5 19q46 0 46 -45q0 -31 -18 -48.5t-39 -17.5zM28 0l114 536h88l-114 -536h-88z" />
    <glyph glyph-name="afii10104" unicode="&#x457;" horiz-adv-x="258" 
d="M28 0l114 536h88l-114 -536h-88zM297 631q-18 0 -30 11t-12 31q0 23 14 40t39 17q20 0 30 -11t10 -29q0 -28 -16 -43.5t-35 -15.5zM118 631q-19 0 -31 11t-12 31q0 23 14 40t39 17q21 0 30.5 -11t9.5 -29q0 -28 -15.5 -43.5t-34.5 -15.5z" />
    <glyph glyph-name="afii10105" unicode="&#x458;" horiz-adv-x="258" 
d="M212 625q-20 0 -33.5 12.5t-13.5 34.5q0 26 15.5 45t43.5 19q45 0 45 -45q0 -31 -18 -48.5t-39 -17.5zM-64 -240q-37 0 -62 10v74q12 -4 27 -7.5t31 -3.5q61 0 82 98l128 605h87l-130 -613q-16 -75 -52.5 -119t-110.5 -44z" />
    <glyph glyph-name="afii10106" unicode="&#x459;" horiz-adv-x="772" 
d="M498 -10q-80 0 -127 37.5t-47 116.5q0 20 3 46t8 48l47 225q-5 1 -13.5 2.5t-16.5 1.5q-31 0 -52 -19t-41 -66.5t-49 -132.5q-28 -83 -54.5 -140t-63 -86.5t-94.5 -29.5q-14 0 -25 2.5t-17 4.5v76q12 -6 33 -6q32 0 55 21t43.5 67t46.5 121q21 63 40.5 111.5t43.5 82
t60 51t91 17.5q31 0 62 -5.5t52 -12.5l-47 -220q25 5 52.5 8.5t55.5 3.5q83 0 124 -37.5t41 -104.5q0 -49 -22.5 -90.5t-69 -67t-119.5 -25.5zM505 62q61 0 89 32t28 72q0 43 -25.5 60t-76.5 17q-25 0 -50 -2.5t-48 -7.5q-6 -29 -8.5 -48t-2.5 -33q0 -41 21 -65.5t73 -24.5z
" />
    <glyph glyph-name="afii10107" unicode="&#x45a;" horiz-adv-x="818" 
d="M544 -10q-80 0 -127.5 37.5t-47.5 116.5q0 21 3.5 47t8.5 49h-214l-50 -240h-89l115 536h87l-47 -223h214l48 223h88l-50 -233q23 5 51 8.5t56 3.5q82 0 123.5 -37.5t41.5 -104.5q0 -49 -22.5 -90.5t-69.5 -67t-119 -25.5zM550 62q62 0 89.5 32t27.5 72q0 43 -25.5 60
t-75.5 17q-25 0 -50 -2.5t-49 -7.5q-6 -30 -8.5 -48.5t-2.5 -33.5q0 -41 21.5 -65t72.5 -24z" />
    <glyph glyph-name="afii10108" unicode="&#x45b;" horiz-adv-x="579" 
d="M28 0l129 604h-75l15 66h73l19 90h88l-20 -90h169l-15 -66h-167q-14 -57 -25.5 -103.5t-17.5 -72.5h5q18 25 44 50.5t59.5 42.5t76.5 17q63 0 99 -35.5t36 -103.5q0 -19 -3.5 -39t-7.5 -43l-68 -317h-88l70 327q9 43 9 65q0 34 -17 53.5t-54 19.5q-34 0 -73.5 -24
t-74 -77.5t-52.5 -140.5l-46 -223h-88z" />
    <glyph glyph-name="afii10109" unicode="&#x45c;" horiz-adv-x="486" 
d="M28 0l113 536h87l-55 -258l250 258h110l-265 -265l179 -271h-105l-170 267l-56 -267h-88zM280 606v13q17 19 38 45t40 53t34 49h100v-10q-14 -18 -41.5 -46.5t-58.5 -57t-57 -46.5h-55z" />
    <glyph glyph-name="afii10110" unicode="&#x45e;" horiz-adv-x="467" 
d="M-25 -240q-24 0 -39.5 3t-29.5 7v71q14 -4 30 -6.5t34 -2.5q40 0 69 25t55 73l35 62l-81 544h88l35 -265q5 -33 7.5 -71t4 -72.5t1.5 -55.5h3q7 16 20.5 48t29.5 66t28 56l156 294h94l-340 -626q-41 -75 -85 -112.5t-115 -37.5zM285 606q-85 0 -121.5 33.5t-36.5 87.5
q0 19 4 33h77q-3 -16 -3 -28q0 -28 19.5 -45.5t65.5 -17.5t77 18.5t41 72.5h84q-14 -70 -62 -112t-145 -42z" />
    <glyph glyph-name="afii10193" unicode="&#x45f;" horiz-adv-x="579" 
d="M189 -10q-61 0 -97.5 34t-36.5 99q0 23 3.5 43t7.5 43l70 327h89l-72 -337q-9 -43 -9 -67q0 -32 16 -50.5t54 -18.5q34 0 73 24t73.5 77t53.5 141l49 231h87l-114 -536h-72l11 99h-5q-19 -25 -44.5 -50t-59.5 -42t-77 -17zM150 -240l40 182l73 24h20l-45 -206h-88z" />
    <glyph glyph-name="afii10050" unicode="&#x490;" horiz-adv-x="478" 
d="M41 0l151 714h274l31 146h85l-49 -226h-269l-134 -634h-89z" />
    <glyph glyph-name="afii10098" unicode="&#x491;" horiz-adv-x="390" 
d="M28 0l114 536h196l34 155h89l-48 -221h-198l-99 -470h-88z" />
    <glyph glyph-name="Wgrave" unicode="&#x1e80;" horiz-adv-x="856" 
d="M137 0l-30 714h88l14 -435q1 -41 -0.5 -85t-3.5 -84h3q14 39 34 89.5t41 94.5l196 420h91l20 -418q3 -47 4 -98t0 -88h3q13 38 29 83t35 89l187 432h95l-324 -714h-91l-22 460q-2 33 -3 70.5t-1 68.5h-3q-10 -30 -23.5 -61.5t-35.5 -80.5l-211 -457h-92zM541 784
q-19 19 -40.5 46t-40.5 55t-29 49v10h94q11 -37 30.5 -75.5t39.5 -72.5v-12h-54z" />
    <glyph glyph-name="wgrave" unicode="&#x1e81;" horiz-adv-x="723" 
d="M79 0l-22 536h86l8 -286q1 -55 -0.5 -99.5t-3.5 -73.5h4q7 21 18.5 49.5t24 57t22.5 49.5l141 303h95l17 -287q1 -37 2 -85.5t-1 -86.5h4q13 38 33 89.5t44 106.5l117 263h93l-248 -536h-106l-15 290q-2 40 -1.5 77t0.5 84h-4q-13 -37 -26.5 -68.5t-37.5 -82.5l-140 -300
h-104zM427 606q-19 19 -40.5 46t-40.5 55t-29 49v10h94q11 -37 30.5 -75.5t39.5 -72.5v-12h-54z" />
    <glyph glyph-name="Wacute" unicode="&#x1e82;" horiz-adv-x="856" 
d="M137 0l-30 714h88l14 -435q1 -41 -0.5 -85t-3.5 -84h3q14 39 34 89.5t41 94.5l196 420h91l20 -418q3 -47 4 -98t0 -88h3q13 38 29 83t35 89l187 432h95l-324 -714h-91l-22 460q-2 33 -3 70.5t-1 68.5h-3q-10 -30 -23.5 -61.5t-35.5 -80.5l-211 -457h-92zM485 784v13
q17 19 38 45t40 53t34 49h100v-10q-14 -18 -41.5 -46.5t-58.5 -57t-57 -46.5h-55z" />
    <glyph glyph-name="wacute" unicode="&#x1e83;" horiz-adv-x="723" 
d="M79 0l-22 536h86l8 -286q1 -55 -0.5 -99.5t-3.5 -73.5h4q7 21 18.5 49.5t24 57t22.5 49.5l141 303h95l17 -287q1 -37 2 -85.5t-1 -86.5h4q13 38 33 89.5t44 106.5l117 263h93l-248 -536h-106l-15 290q-2 40 -1.5 77t0.5 84h-4q-13 -37 -26.5 -68.5t-37.5 -82.5l-140 -300
h-104zM371 606v13q17 19 38 45t40 53t34 49h100v-10q-14 -18 -41.5 -46.5t-58.5 -57t-57 -46.5h-55z" />
    <glyph glyph-name="Wdieresis" unicode="&#x1e84;" horiz-adv-x="856" 
d="M137 0l-30 714h88l14 -435q1 -41 -0.5 -85t-3.5 -84h3q14 39 34 89.5t41 94.5l196 420h91l20 -418q3 -47 4 -98t0 -88h3q13 38 29 83t35 89l187 432h95l-324 -714h-91l-22 460q-2 33 -3 70.5t-1 68.5h-3q-10 -30 -23.5 -61.5t-35.5 -80.5l-211 -457h-92zM634 809
q-18 0 -30 11t-12 31q0 23 14 40t39 17q20 0 30 -11t10 -29q0 -28 -16 -43.5t-35 -15.5zM455 809q-19 0 -31 11t-12 31q0 23 14 40t39 17q21 0 30.5 -11t9.5 -29q0 -28 -15.5 -43.5t-34.5 -15.5z" />
    <glyph glyph-name="wdieresis" unicode="&#x1e85;" horiz-adv-x="723" 
d="M79 0l-22 536h86l8 -286q1 -55 -0.5 -99.5t-3.5 -73.5h4q7 21 18.5 49.5t24 57t22.5 49.5l141 303h95l17 -287q1 -37 2 -85.5t-1 -86.5h4q13 38 33 89.5t44 106.5l117 263h93l-248 -536h-106l-15 290q-2 40 -1.5 77t0.5 84h-4q-13 -37 -26.5 -68.5t-37.5 -82.5l-140 -300
h-104zM520 631q-18 0 -30 11t-12 31q0 23 14 40t39 17q20 0 30 -11t10 -29q0 -28 -16 -43.5t-35 -15.5zM341 631q-19 0 -31 11t-12 31q0 23 14 40t39 17q21 0 30.5 -11t9.5 -29q0 -28 -15.5 -43.5t-34.5 -15.5z" />
    <glyph glyph-name="Ygrave" unicode="&#x1ef2;" horiz-adv-x="509" 
d="M150 0l58 268l-116 446h89l85 -358l234 358h101l-306 -449l-55 -265h-90zM368 784q-19 19 -40.5 46t-40.5 55t-29 49v10h94q11 -37 30.5 -75.5t39.5 -72.5v-12h-54z" />
    <glyph glyph-name="ygrave" unicode="&#x1ef3;" horiz-adv-x="467" 
d="M-25 -240q-24 0 -39.5 3t-29.5 7v71q14 -4 30 -6.5t34 -2.5q40 0 69 25t55 73l35 62l-81 544h88l35 -265q5 -33 7.5 -71t4 -72.5t1.5 -55.5h3q7 16 20.5 48t29.5 66t28 56l156 294h94l-340 -626q-41 -75 -85 -112.5t-115 -37.5zM290 606q-19 19 -40.5 46t-40.5 55t-29 49
v10h94q11 -37 30.5 -75.5t39.5 -72.5v-12h-54z" />
    <glyph glyph-name="endash" unicode="&#x2013;" horiz-adv-x="480" 
d="M26 228l18 81h403l-17 -81h-404z" />
    <glyph glyph-name="emdash" unicode="&#x2014;" horiz-adv-x="960" 
d="M26 228l18 81h883l-17 -81h-884z" />
    <glyph glyph-name="afii00208" unicode="&#x2015;" horiz-adv-x="960" 
d="M26 228l18 81h883l-17 -81h-884z" />
    <glyph glyph-name="underscoredbl" unicode="&#x2017;" horiz-adv-x="395" 
d="M-75 -90l14 64h397l-14 -64h-397zM-101 -222l14 64h397l-14 -64h-397z" />
    <glyph glyph-name="quoteleft" unicode="&#x2018;" horiz-adv-x="174" 
d="M63 469l-3 11q24 53 60 116t71 118h67q-26 -59 -53 -126t-46 -119h-96z" />
    <glyph glyph-name="quoteright" unicode="&#x2019;" horiz-adv-x="174" 
d="M60 469q26 59 54 126t45 119h96l4 -11q-24 -53 -60 -116t-72 -118h-67z" />
    <glyph glyph-name="quotesinglbase" unicode="&#x201a;" horiz-adv-x="243" 
d="M-49 -129q26 59 53 126t46 119h96l4 -11q-25 -53 -61 -116t-71 -118h-67z" />
    <glyph glyph-name="quotereversed" unicode="&#x201b;" horiz-adv-x="174" 
d="M151 469q-15 54 -25 117.5t-14 116.5l8 11h85q0 -59 2 -123.5t6 -121.5h-62z" />
    <glyph glyph-name="quotedblleft" unicode="&#x201c;" horiz-adv-x="358" 
d="M247 469l-4 11q24 53 61 116t72 118h66q-26 -59 -53.5 -126t-45.5 -119h-96zM63 469l-3 11q24 53 60 116t71 118h67q-26 -59 -53 -126t-46 -119h-96z" />
    <glyph glyph-name="quotedblright" unicode="&#x201d;" horiz-adv-x="358" 
d="M244 469q26 59 53 126t45 119h97l4 -11q-23 -53 -60 -116t-73 -118h-66zM60 469q26 59 54 126t45 119h96l4 -11q-24 -53 -60 -116t-72 -118h-67z" />
    <glyph glyph-name="quotedblbase" unicode="&#x201e;" horiz-adv-x="426" 
d="M134 -129q26 59 53.5 126t45.5 119h96l4 -11q-24 -53 -60.5 -116t-70.5 -118h-68zM-49 -129q26 59 53 126t46 119h96l4 -11q-25 -53 -61 -116t-71 -118h-67z" />
    <glyph glyph-name="dagger" unicode="&#x2020;" horiz-adv-x="470" 
d="M122 0l132 499l-149 -16l18 88l143 -16l18 205h104l-70 -205l159 16l-18 -88l-153 15l-80 -498h-104z" />
    <glyph glyph-name="daggerdbl" unicode="&#x2021;" horiz-adv-x="470" 
d="M125 0l65 184l-158 -15l19 87l152 -15l8 143l50 135l-158 -16l19 88l152 -16l13 185h105l-65 -185l159 16l-19 -88l-153 16l-6 -135l-52 -143l159 15l-19 -87l-153 15l-13 -184h-105z" />
    <glyph glyph-name="bullet" unicode="&#x2022;" horiz-adv-x="376" 
d="M208 241q-47 0 -79 29t-32 95q0 67 32 95.5t79 28.5q46 0 78.5 -28.5t32.5 -95.5q0 -66 -32.5 -95t-78.5 -29z" />
    <glyph glyph-name="ellipsis" unicode="&#x2026;" horiz-adv-x="769" 
d="M72 -14q-52 0 -52 52q0 33 18.5 58t58.5 25q22 0 35.5 -13.5t13.5 -39.5q0 -31 -18 -56.5t-56 -25.5zM329 -14q-52 0 -52 52q0 33 18.5 58t58.5 25q22 0 35.5 -13.5t13.5 -39.5q0 -31 -18 -56.5t-56 -25.5zM585 -14q-52 0 -52 52q0 33 18.5 58t58.5 25q22 0 35.5 -13.5
t13.5 -39.5q0 -31 -18 -56.5t-56 -25.5z" />
    <glyph glyph-name="perthousand" unicode="&#x2030;" horiz-adv-x="1126" 
d="M195 276q-55 0 -85 37t-30 108q0 29 5 68t17.5 80t34 76.5t54.5 57t79 21.5q57 0 87 -35.5t30 -101.5q0 -27 -5.5 -66.5t-18.5 -82t-35.5 -79.5t-55 -60t-77.5 -23zM113 0l530 714h78l-530 -714h-78zM202 342q26 0 45.5 19.5t32.5 50t20.5 63.5t11 62t3.5 44
q0 41 -13 59.5t-38 18.5q-26 0 -45 -18t-32 -46t-20.5 -60.5t-11 -62.5t-3.5 -50q0 -80 50 -80zM562 -10q-55 0 -85 37t-30 107q0 30 5 69.5t17.5 80.5t34.5 76t54.5 56.5t78.5 21.5q58 0 88 -35.5t30 -100.5q0 -27 -6 -66.5t-19 -82t-35 -80t-55 -60.5t-78 -23zM890 -10
q-55 0 -85.5 37t-30.5 107q0 30 5 69.5t17.5 80.5t34.5 76t55 56.5t79 21.5q57 0 87 -35.5t30 -100.5q0 -27 -6 -66.5t-19 -82t-35 -80t-54.5 -60.5t-77.5 -23zM569 56q26 0 45.5 19.5t32.5 50t20.5 64t11 62t3.5 43.5q0 41 -13 59.5t-38 18.5q-26 0 -45 -18t-31.5 -46
t-20 -60.5t-11 -62.5t-3.5 -50q0 -80 49 -80zM897 56q26 0 45.5 19.5t32 50t20 64t11 62t3.5 43.5q0 41 -13 59.5t-37 18.5q-26 0 -45 -18t-32 -46t-20.5 -60.5t-11 -62.5t-3.5 -50q0 -80 50 -80z" />
    <glyph glyph-name="minute" unicode="&#x2032;" horiz-adv-x="220" 
d="M68 456l127 258h96l-167 -258h-56z" />
    <glyph glyph-name="second" unicode="&#x2033;" horiz-adv-x="389" 
d="M237 456l127 258h96l-167 -258h-56zM68 456l127 258h96l-167 -258h-56z" />
    <glyph glyph-name="guilsinglleft" unicode="&#x2039;" horiz-adv-x="287" 
d="M154 54l-112 214v14l192 189l43 -43l-144 -163l82 -185z" />
    <glyph glyph-name="guilsinglright" unicode="&#x203a;" horiz-adv-x="287" 
d="M53 54l-43 43l144 163l-82 185l61 26l111 -214v-13z" />
    <glyph glyph-name="exclamdbl" unicode="&#x203c;" horiz-adv-x="494" 
d="M310 201l91 513h107l-127 -513h-71zM306 -14q-53 0 -53 54q0 32 18 56.5t57 24.5q23 0 37 -14t14 -40q0 -29 -18 -55t-55 -26zM77 201l91 513h107l-127 -513h-71zM73 -14q-53 0 -53 54q0 32 18 56.5t57 24.5q23 0 37 -14t14 -40q0 -29 -18 -55t-55 -26z" />
    <glyph glyph-name="fraction" unicode="&#x2044;" horiz-adv-x="130" 
d="M-240 0l530 714h79l-530 -714h-79z" />
    <glyph glyph-name="nsuperior" unicode="&#x207f;" horiz-adv-x="376" 
d="M50.0518 170.393l74.7529 325.188h50.7021l-7.15039 -59.3975q12.3506 14.3994 29.251 29.6982q16.9004 15.2998 38.6768 25.499q21.7754 10.2002 50.377 10.2002q41.6016 0 65.6523 -21.2998q24.0508 -21.2988 24.0508 -59.6973q0 -13.7998 -2.27539 -28.1992
q-2.27441 -14.3994 -4.875 -25.1982l-46.1514 -196.793h-61.1025l46.8018 203.992q2.59961 13.7998 4.5498 23.0986q1.9502 9.2998 1.9502 17.7002q0 38.3984 -44.2012 38.3984q-22.1016 0 -47.127 -14.0996q-25.0264 -14.0996 -46.8018 -45.2988
q-21.7764 -31.1982 -33.4766 -83.9961l-32.501 -139.795h-61.1025z" />
    <glyph glyph-name="franc" unicode="&#x20a3;" horiz-adv-x="551" 
d="M77 0l27 128h-84l14 66h84l110 520h355l-17 -79h-269l-54 -254h252l-17 -79h-251l-24 -108h137l-13 -66h-137l-28 -128h-85z" />
    <glyph glyph-name="afii08941" unicode="&#x20a4;" horiz-adv-x="551" 
d="M-11 0l14 74q53 12 83 48t44 101h-93l15 67h94l15 77h-97l16 67h96l24 115q18 82 68.5 128t143.5 46q50 0 94 -12.5t72 -29.5l-34 -69q-24 14 -61.5 26t-72.5 12q-55 0 -84.5 -30t-40.5 -83l-22 -103h178l-15 -67h-177l-17 -77h178l-14 -67h-178q-13 -54 -34.5 -87.5
t-61.5 -55.5h351l-17 -80h-467z" />
    <glyph glyph-name="peseta" unicode="&#x20a7;" horiz-adv-x="737" 
d="M27 0l152 714h105q109 0 159.5 -49.5t50.5 -132.5q0 -74 -31.5 -131.5t-97 -89.5t-167.5 -32h-25l-60 -279h-86zM190 354h16q78 0 121 25.5t60 64t17 77.5q0 116 -131 116h-25zM574 -10q-54 0 -77.5 27t-23.5 67q0 26 13 84l38 178h-73l8 40l81 38l50 91h54l-23 -102h98
l-13 -67h-98l-41 -184q-5 -22 -6.5 -36.5t-1.5 -24.5q0 -39 39 -39q16 0 32 4t29 8v-67q-17 -7 -38.5 -12t-46.5 -5z" />
    <glyph glyph-name="Euro" unicode="&#x20ac;" horiz-adv-x="551" 
d="M329 -10q-97 0 -157 62t-60 193h-82l13 66h74q2 19 6.5 41.5t8.5 36.5h-73l14 67h77q44 122 121.5 194.5t184.5 72.5q50 0 84.5 -12.5t64.5 -32.5l-41 -71q-22 15 -49.5 26.5t-62.5 11.5q-66 0 -121 -47.5t-89 -141.5h204l-13 -67h-212q-5 -17 -9.5 -37.5t-6.5 -40.5h183
l-15 -66h-172q0 -93 36.5 -134.5t103.5 -41.5q35 0 66.5 7.5t60.5 19.5v-77q-27 -12 -63 -20.5t-76 -8.5z" />
    <glyph glyph-name="afii61248" unicode="&#x2105;" horiz-adv-x="777" 
d="M248 385q-56 0 -90.5 32t-34.5 98q0 49 20 96t62 77t108 30q24 0 43.5 -5t39.5 -12l-19 -51q-16 7 -33.5 11.5t-36.5 4.5q-37 0 -62.5 -21t-39 -55t-13.5 -72q0 -79 65 -79q23 0 41 5.5t33 10.5v-52q-15 -7 -38 -12.5t-45 -5.5zM95 0l535 714h78l-533 -714h-80zM529 -4
q-57 0 -89.5 33t-32.5 92q0 52 18 100t55 78.5t95 30.5q59 0 91.5 -35.5t32.5 -96.5q0 -58 -19.5 -103.5t-57.5 -72t-93 -26.5zM536 48q34 0 55 25t30 59.5t9 63.5q0 38 -15 59t-45 21q-34 0 -55 -24t-30.5 -59t-9.5 -67q0 -78 61 -78z" />
    <glyph glyph-name="afii61289" unicode="&#x2113;" horiz-adv-x="520" 
d="M302 -10q-41 0 -76 16.5t-56.5 54.5t-21.5 103v113q-22 -8 -46 -15t-48 -13v59q26 7 49 14.5t45 14.5v239q0 40 14.5 74t46 54t83.5 20q58 0 92.5 -38.5t34.5 -108.5q0 -65 -24.5 -119t-67.5 -93.5t-97 -62.5v-135q0 -50 19.5 -79.5t61.5 -29.5q35 0 61 22.5t31 80.5h51
q-4 -82 -41.5 -126.5t-110.5 -44.5zM230 366q122 64 122 208q0 92 -60 92q-38 0 -50 -25.5t-12 -66.5v-208z" />
    <glyph glyph-name="afii61352" unicode="&#x2116;" horiz-adv-x="953" 
d="M27 0l151 714h100l169 -587q7 41 17 94.5t20 99.5l84 393h80l-151 -714h-97l-172 597q-6 -44 -16 -100.5t-21 -107.5l-83 -389h-81zM750 134q-58 0 -90.5 35t-32.5 97q0 52 19 99.5t56.5 77.5t92.5 30q57 0 90.5 -36.5t33.5 -97.5q0 -28 -8 -63t-27 -67.5t-51.5 -53.5
t-82.5 -21zM755 192q33 0 54 21.5t31.5 55t10.5 67.5q0 77 -61 77q-32 0 -53 -21.5t-31.5 -54.5t-10.5 -68q0 -37 15 -57t45 -20zM597 0l15 71h235l-16 -71h-234z" />
    <glyph glyph-name="trademark" unicode="&#x2122;" horiz-adv-x="773" 
d="M325 362v352h94l94 -271l97 271h91v-352h-64v204q0 8 1 31.5t2 35.5h-4l-101 -271h-53l-96 271h-4q1 -16 2 -36t1 -26v-209h-60zM118 362v298h-101v54h266v-54h-102v-298h-63z" />
    <glyph glyph-name="uni03A9" unicode="&#x3a9;" horiz-adv-x="732" 
d="M-10 0l16 79h171q-37 37 -67.5 99t-30.5 158q0 78 23.5 148t68.5 124.5t110.5 85.5t148.5 31q90 0 149 -36.5t87.5 -98.5t28.5 -140q0 -84 -28 -153.5t-75.5 -124t-107.5 -93.5h177l-16 -79h-296l14 70q67 40 121 95.5t85 126.5t31 159q0 55 -18 99.5t-57 70t-102 25.5
q-81 0 -136.5 -43.5t-84 -115t-28.5 -155.5q0 -93 27.5 -154t74.5 -108l-14 -70h-272z" />
    <glyph glyph-name="estimated" unicode="&#x212e;" horiz-adv-x="619" 
d="M320 -17q-84 0 -142 39t-87.5 102t-29.5 135t23 124t60.5 86t83.5 50t92 16q74 0 132.5 -33.5t92.5 -95.5t34 -147h-404v-174q22 -23 61 -41.5t84 -18.5q73 0 116 30t77 84l35 -20q-24 -37 -53 -68t-71 -49.5t-104 -18.5zM175 301h291v135q-19 20 -57 39t-90 19
q-49 0 -85 -17t-59 -40v-136z" />
    <glyph glyph-name="oneeighth" unicode="&#x215b;" horiz-adv-x="802" 
d="M85 0l530 714h79l-530 -714h-79zM159 285l53 251q5 25 13.5 56.5t14.5 52.5q-8 -7 -19.5 -17.5t-23.5 -19.5l-52 -34l-28 47l142 92h62l-91 -428h-71zM574 -9q-56 0 -91.5 28.5t-35.5 78.5q0 88 110 129q-24 18 -38.5 38.5t-14.5 55.5q0 49 37.5 81.5t105.5 32.5
q58 0 87 -29t29 -69t-26.5 -69t-72.5 -45q30 -19 48 -43t18 -61q0 -55 -42.5 -91.5t-113.5 -36.5zM618 251q27 10 52 27t25 53q0 23 -15.5 36t-39.5 13q-33 0 -51 -17t-18 -43t14 -41.5t33 -27.5zM580 46q37 -1 58.5 19.5t21.5 51.5q0 25 -17.5 45.5t-40.5 32.5
q-37 -13 -62.5 -34t-25.5 -56q0 -27 18.5 -42.5t47.5 -16.5z" />
    <glyph glyph-name="threeeighths" unicode="&#x215c;" horiz-adv-x="841" 
d="M170 278q-33 0 -62.5 7.5t-52.5 19.5v65q26 -15 57 -25t60 -10q50 0 74.5 22t24.5 59q0 64 -84 64h-46l12 55h46q46 0 74 19t28 54q0 59 -64 57q-26 -1 -48.5 -9.5t-43.5 -23.5l-28 48q23 18 57 30.5t76 12.5q60 0 90 -29t30 -72q0 -45 -27 -72.5t-75 -40.5v-4
q34 -8 53 -32.5t19 -58.5q0 -58 -41.5 -97t-128.5 -39zM134 0l530 714h79l-530 -714h-79zM613 -10q-56 0 -91.5 28.5t-35.5 78.5q0 88 110 129q-24 18 -38.5 38.5t-14.5 55.5q0 49 37.5 81.5t105.5 32.5q58 0 87 -29t29 -69t-26.5 -69t-72.5 -45q30 -19 48 -43t18 -61
q0 -55 -42.5 -91.5t-113.5 -36.5zM657 250q27 10 52 27t25 53q0 23 -15.5 36t-39.5 13q-33 0 -51 -17t-18 -43t14 -41.5t33 -27.5zM619 45q37 -1 58.5 19.5t21.5 51.5q0 25 -17.5 45.5t-40.5 32.5q-37 -13 -62.5 -34t-25.5 -56q0 -27 18.5 -42.5t47.5 -16.5z" />
    <glyph glyph-name="fiveeighths" unicode="&#x215d;" horiz-adv-x="847" 
d="M138 0l530 714h79l-530 -714h-79zM171 277q-59 0 -103 25v67q25 -16 52.5 -25t55.5 -9q50 0 77 25.5t27 67.5q0 34 -23 51t-56 17q-16 0 -32 -2.5t-33 -8.5l-27 23l60 205h212l-12 -62h-155l-31 -105q9 2 20.5 4t24.5 2q55 0 87 -31t32 -86q0 -37 -17 -73.5t-55.5 -60.5
t-103.5 -24zM619 -11q-56 0 -91.5 28.5t-35.5 78.5q0 88 110 129q-24 18 -38.5 38.5t-14.5 55.5q0 49 37.5 81.5t105.5 32.5q58 0 87 -29t29 -69t-26.5 -69t-72.5 -45q30 -19 48 -43t18 -61q0 -55 -42.5 -91.5t-113.5 -36.5zM663 249q27 10 52 27t25 53q0 23 -15.5 36
t-39.5 13q-33 0 -51 -17t-18 -43t14 -41.5t33 -27.5zM625 44q37 -1 58.5 19.5t21.5 51.5q0 25 -17.5 45.5t-40.5 32.5q-37 -13 -62.5 -34t-25.5 -56q0 -27 18.5 -42.5t47.5 -16.5z" />
    <glyph glyph-name="seveneighths" unicode="&#x215e;" horiz-adv-x="788" 
d="M72 0l530 714h79l-530 -714h-79zM560 -10q-56 0 -91.5 28.5t-35.5 78.5q0 88 110 129q-24 18 -38.5 38.5t-14.5 55.5q0 49 37.5 81.5t105.5 32.5q58 0 87 -29t29 -69t-26.5 -69t-72.5 -45q30 -19 48 -43t18 -61q0 -55 -42.5 -91.5t-113.5 -36.5zM604 250q27 10 52 27
t25 53q0 23 -15.5 36t-39.5 13q-33 0 -51 -17t-18 -43t14 -41.5t33 -27.5zM566 45q37 -1 58.5 19.5t21.5 51.5q0 25 -17.5 45.5t-40.5 32.5q-37 -13 -62.5 -34t-25.5 -56q0 -27 18.5 -42.5t47.5 -16.5zM90 286l228 369h-192l13 59h268l-10 -48l-228 -380h-79z" />
    <glyph glyph-name="uni0394" unicode="&#x394;" horiz-adv-x="562" 
d="M-27 0l11 54l348 659h92l73 -660l-11 -53h-513zM89 79h319l-38 370q-9 96 -9 169q-16 -40 -34 -80t-43 -87z" />
    <glyph glyph-name="cyrillicbreve" horiz-adv-x="562" 
d="M347 606q-85 0 -121.5 33.5t-36.5 87.5q0 19 4 33h77q-3 -16 -3 -28q0 -28 19.5 -45.5t65.5 -17.5t77 18.5t41 72.5h84q-14 -70 -62 -112t-145 -42z" />
    <glyph glyph-name="caroncommaaccent" horiz-adv-x="479" 
d="M252 600v13q11 17 24.5 43t26.5 54t21 50h83v-10q-7 -16 -24 -43t-39 -56t-43 -51h-49z" />
    <glyph glyph-name="commaaccentrotate" horiz-adv-x="479" 
d="M244 606v10q6 16 23 43t39 56t44 51h49v-13q-11 -17 -24.5 -43t-26 -54t-20.5 -50h-84z" />
    <glyph glyph-name="uni2074" unicode="&#x2074;" horiz-adv-x="353" 
d="M233 416l20 97h-178l11 52l235 282h71l-59 -275h61l-11 -59h-63l-20 -97h-67zM158 572h108l20 92q6 26 11 49.5t12 47.5q-4 -7 -13.5 -20.5t-20.5 -27.5t-19 -23z" />
    <glyph glyph-name="uni2075" unicode="&#x2075;" horiz-adv-x="353" 
d="M198 409q-59 0 -103 25v67q25 -16 52.5 -25t55.5 -9q50 0 77 25.5t27 67.5q0 34 -23 51t-56 17q-16 0 -32 -2.5t-33 -8.5l-27 23l60 205h212l-12 -62h-155l-31 -105q9 2 20.5 4t24.5 2q55 0 87 -31t32 -86q0 -37 -17 -73.5t-55.5 -60.5t-103.5 -24z" />
    <glyph glyph-name="uni2077" unicode="&#x2077;" horiz-adv-x="353" 
d="M113 417l228 369h-192l13 59h268l-10 -48l-228 -380h-79z" />
    <glyph glyph-name="uni2078" unicode="&#x2078;" horiz-adv-x="353" 
d="M215 409q-56 0 -91.5 28.5t-35.5 78.5q0 88 110 129q-24 18 -38.5 38.5t-14.5 55.5q0 49 37.5 81.5t105.5 32.5q58 0 87 -29t29 -69t-26.5 -69t-72.5 -45q30 -19 48 -43t18 -61q0 -55 -42.5 -91.5t-113.5 -36.5zM259 669q27 10 52 27t25 53q0 23 -15.5 36t-39.5 13
q-33 0 -51 -17t-18 -43t14 -41.5t33 -27.5zM221 464q37 -1 58.5 19.5t21.5 51.5q0 25 -17.5 45.5t-40.5 32.5q-37 -13 -62.5 -34t-25.5 -56q0 -27 18.5 -42.5t47.5 -16.5z" />
    <glyph glyph-name="uni2000" unicode="&#x2000;" horiz-adv-x="500" 
 />
    <glyph glyph-name="uni2001" unicode="&#x2001;" horiz-adv-x="1000" 
 />
    <glyph glyph-name="uni2002" unicode="&#x2002;" horiz-adv-x="500" 
 />
    <glyph glyph-name="uni2003" unicode="&#x2003;" horiz-adv-x="1000" 
 />
    <glyph glyph-name="uni2004" unicode="&#x2004;" horiz-adv-x="333" 
 />
    <glyph glyph-name="uni2005" unicode="&#x2005;" horiz-adv-x="250" 
 />
    <glyph glyph-name="uni2006" unicode="&#x2006;" horiz-adv-x="167" 
 />
    <glyph glyph-name="uni2007" unicode="&#x2007;" horiz-adv-x="551" 
 />
    <glyph glyph-name="uni2008" unicode="&#x2008;" horiz-adv-x="256" 
 />
    <glyph glyph-name="uni2009" unicode="&#x2009;" horiz-adv-x="200" 
 />
    <glyph glyph-name="uni200A" unicode="&#x200a;" horiz-adv-x="100" 
 />
    <glyph glyph-name="uni200B" unicode="&#x200b;" 
 />
    <glyph glyph-name="uniFEFF" unicode="&#xfeff;" 
 />
    <glyph glyph-name="uniFFFC" unicode="&#xfffc;" horiz-adv-x="1000" 
d="M916 593v94h-95v54h148v-148h-53zM630 687v54h133v-54h-133zM439 687v54h133v-54h-133zM41 593v148h148v-54h-94v-94h-54zM248 687v54h132v-54h-132zM916 402v132h53v-132h-53zM41 402v132h54v-132h-54zM294 160q-66 0 -97 40.5t-31 106.5q0 67 31 107t97 40t97 -40
t31 -107q0 -66 -31 -106.5t-97 -40.5zM728 161q-24 0 -39 5v50q7 -2 15 -3t18 -1q18 0 30 8.5t12 33.5v196h61v-194q0 -50 -27 -72.5t-70 -22.5zM463 164v286h84q53 0 80.5 -16t27.5 -57q0 -24 -11.5 -40t-32.5 -20v-4q22 -5 37 -18.5t15 -47.5q0 -39 -26.5 -61t-72.5 -22
h-101zM294 211q34 0 50 25.5t16 70.5t-16 70.5t-50 25.5t-50 -25.5t-16 -70.5t16 -70.5t50 -25.5zM523 337h32q23 0 31.5 8t8.5 24q0 31 -43 31h-29v-63zM41 210v133h54v-133h-54zM916 210v133h53v-133h-53zM523 214h36q24 0 33 10.5t9 28.5q0 16 -9.5 26t-34.5 10h-34v-75z
M916 19v132h53v-132h-53zM41 19v132h54v-132h-54zM821 -187v53h95v95h53v-148h-148zM41 -187v148h54v-95h94v-53h-148zM630 -187v53h133v-53h-133zM439 -187v53h133v-53h-133zM248 -187v53h132v-53h-132z" />
    <glyph glyph-name="uniFFFD" unicode="&#xfffd;" horiz-adv-x="1000" 
d="M499 -156l-458 458l458 458l459 -458zM428 179h103v23q0 25 10 39.5t43 40.5q43 34 64.5 65t21.5 80q0 67 -46 104t-126 37q-42 0 -86 -14t-78 -34l40 -87q33 17 64 28t58 11q31 0 46 -14t15 -37q0 -29 -13 -46t-46 -43q-38 -30 -54 -57.5t-16 -66.5v-29zM484 -21
q27 0 47.5 15.5t20.5 50.5q0 37 -20.5 52t-47.5 15q-29 0 -49 -15t-20 -52q0 -35 20 -50.5t49 -15.5z" />
    <glyph glyph-name="uni01F0" unicode="&#x1f0;" horiz-adv-x="258" 
d="M-64 -240q-37 0 -62 10v74q12 -4 27 -7.5t31 -3.5q61 0 82 98l128 605h87l-130 -613q-16 -75 -52.5 -119t-110.5 -44zM154 606q-14 38 -38.5 78t-43.5 69v13h53q19 -16 39 -40t40 -51q31 27 62 50.5t58 40.5h57v-13q-17 -15 -45 -41.5t-55 -55t-41 -50.5h-86z" />
    <glyph glyph-name="uni02BC" unicode="&#x2bc;" horiz-adv-x="174" 
d="M60 469q26 59 54 126t45 119h96l4 -11q-24 -53 -60 -116t-72 -118h-67z" />
    <glyph glyph-name="uni03D1" unicode="&#x3d1;" horiz-adv-x="581" 
d="M205 -10q-83 0 -120 40t-37 97q0 35 9.5 66.5t22.5 62.5q7 19 13.5 36.5t6.5 34.5q0 13 -7.5 20.5t-18.5 7.5q-10 0 -24 -4.5t-24 -9.5l5 67q17 7 35 12t41 5q40 0 60 -22.5t20 -56.5q0 -28 -8 -55t-18 -53t-17.5 -51.5t-7.5 -52.5q0 -32 18 -52.5t60 -20.5q45 0 79 25.5
t59 66t42 88t27.5 92.5t15.5 78q-128 2 -192 48t-64 131q0 79 48.5 127t127.5 48q91 0 135 -65t44 -174q0 -12 -0.5 -26t-1.5 -23h70l-15 -67h-64q-7 -48 -21 -104.5t-38.5 -112t-60.5 -101.5t-85.5 -74t-114.5 -28zM444 477q2 7 2.5 21.5t0.5 29.5q0 83 -24 124.5t-68 41.5
t-65.5 -29t-21.5 -73q0 -64 45.5 -89.5t130.5 -25.5z" />
    <glyph glyph-name="uni03D2" unicode="&#x3d2;" horiz-adv-x="516" 
d="M150 0l58 268l-116 446h89l85 -358q27 50 58.5 105.5t60.5 103.5t50 76q30 40 57.5 59.5t67.5 19.5q14 0 28.5 -2.5t25.5 -5.5l-19 -71q-7 1 -13 3t-14 2q-16 0 -32 -11t-38 -41q-16 -22 -47.5 -72t-72 -117.5t-84.5 -144.5l-54 -260h-90z" />
    <glyph glyph-name="uni03D6" unicode="&#x3d6;" horiz-adv-x="805" 
d="M220 -10q-68 0 -106 44t-38 130q0 70 28 148t78 149h-130l7 36l96 39h675l-16 -75h-115q7 -30 10 -60t3 -60q0 -57 -13 -118.5t-40.5 -114.5t-71.5 -85.5t-106 -32.5q-49 0 -79 24.5t-40 67.5q-25 -44 -60 -68t-82 -24zM232 63q44 0 69.5 37.5t38.5 93.5l18 86h85
l-15 -73q-3 -14 -5.5 -32.5t-2.5 -32.5q0 -79 61 -79q32 0 58.5 24t45 64.5t28.5 91t10 103.5q0 28 -2.5 58t-6.5 57h-342q-44 -67 -75 -142t-31 -154q0 -50 18 -76t48 -26z" />
    <glyph glyph-name="uni1E3E" unicode="&#x1e3e;" horiz-adv-x="841" 
d="M40 0l151 714h126l69 -583h4l317 583h137l-148 -714h-90l90 424q14 65 26.5 118t21.5 85h-2l-344 -627h-71l-76 626h-4q-2 -20 -7 -53.5t-11.5 -71t-13.5 -72.5l-91 -429h-84zM464 784v13q17 19 38 45t40 53t34 49h100v-10q-14 -18 -41.5 -46.5t-58.5 -57t-57 -46.5h-55z
" />
    <glyph glyph-name="uni1E3F" unicode="&#x1e3f;" horiz-adv-x="875" 
d="M28 0l114 536h72l-11 -99h5q18 25 42.5 50t56.5 42t73 17q55 0 85 -32t36 -87h4q20 29 47.5 56.5t61.5 45t75 17.5q62 0 96 -34t34 -98q0 -24 -3 -45t-8 -43l-69 -326h-89l72 336q4 22 6.5 38.5t2.5 31.5q0 30 -16.5 48t-51.5 18q-33 0 -69 -24t-67.5 -75t-48.5 -131
l-51 -242h-88l71 336q9 45 9 66q0 33 -15 51.5t-50 18.5q-32 0 -69 -23.5t-69 -76.5t-51 -141l-49 -231h-88zM468 606v13q17 19 38 45t40 53t34 49h100v-10q-14 -18 -41.5 -46.5t-58.5 -57t-57 -46.5h-55z" />
    <glyph glyph-name="uni1E00" unicode="&#x1e00;" horiz-adv-x="562" 
d="M-57 0l388 714h94l88 -714h-88l-27 222h-241l-116 -222h-98zM200 302h189l-16 150q-4 38 -7.5 84t-4.5 81h-3q-16 -38 -37 -81.5t-44 -87.5zM213 -270q-49 0 -78.5 27t-29.5 77t29.5 77.5t78.5 27.5q47 0 79.5 -27.5t32.5 -76.5q0 -50 -32.5 -77.5t-79.5 -27.5zM213 -221
q24 0 39.5 14.5t15.5 40.5t-15.5 40.5t-39.5 14.5q-25 0 -40 -14.5t-15 -40.5t13.5 -40.5t41.5 -14.5z" />
    <glyph glyph-name="uni1E01" unicode="&#x1e01;" horiz-adv-x="568" 
d="M193 -10q-65 0 -105 46.5t-40 136.5q0 75 19.5 142.5t54.5 119t83 81.5t106 30q53 0 86 -28t49 -65h5l32 83h67l-114 -536h-70l13 99h-4q-35 -44 -80.5 -76.5t-101.5 -32.5zM222 63q36 0 72 27t64.5 72.5t44.5 103.5q7 28 10 53t3 46q0 47 -26 77t-70 30q-39 0 -72 -24.5
t-58 -67t-38.5 -96.5t-13.5 -113q0 -54 22 -81t62 -27zM222 -270q-49 0 -78.5 27t-29.5 77t29.5 77.5t78.5 27.5q47 0 79.5 -27.5t32.5 -76.5q0 -50 -32.5 -77.5t-79.5 -27.5zM222 -221q24 0 39.5 14.5t15.5 40.5t-15.5 40.5t-39.5 14.5q-25 0 -40 -14.5t-15 -40.5
t13.5 -40.5t41.5 -14.5z" />
    <glyph glyph-name="uni02F3" unicode="&#x2f3;" horiz-adv-x="333" 
d="M73 -270q-49 0 -78.5 27t-29.5 77t29.5 77.5t78.5 27.5q47 0 79.5 -27.5t32.5 -76.5q0 -50 -32.5 -77.5t-79.5 -27.5zM73 -221q24 0 39.5 14.5t15.5 40.5t-15.5 40.5t-39.5 14.5q-25 0 -40 -14.5t-15 -40.5t13.5 -40.5t41.5 -14.5z" />
    <glyph glyph-name="Ohorn" unicode="&#x1a0;" horiz-adv-x="719" 
d="M337 -10q-128 0 -196.5 74.5t-68.5 202.5q0 92 24.5 175t71.5 146.5t114 100t151 36.5q73 0 127 -27.5t86 -78.5q44 18 62.5 53t26.5 88h96l4 -11q-17 -67 -56 -110t-110 -71q10 -27 15.5 -58t5.5 -66q0 -93 -22.5 -175t-67 -144.5t-110.5 -98.5t-153 -36zM340 69
q60 0 107 30t80 82.5t50.5 120.5t17.5 144q0 95 -45 147.5t-123 52.5q-60 0 -108 -29.5t-82 -81t-52 -120t-18 -146.5q0 -95 46 -147.5t127 -52.5z" />
    <glyph glyph-name="ohorn" unicode="&#x1a1;" horiz-adv-x="568" 
d="M248 -8q-93 0 -146.5 55.5t-53.5 150.5q0 62 17 123t50.5 111t84 80.5t116.5 30.5q106 0 159 -70q47 19 65.5 57t26.5 88h95l4 -11q-16 -66 -54.5 -109.5t-111.5 -70.5q16 -39 16 -91q0 -61 -17 -122t-50.5 -111t-83.5 -80.5t-117 -30.5zM253 65q47 0 86.5 33.5t63 96.5
t23.5 151q0 30 -10.5 58.5t-34.5 47t-64 18.5q-55 0 -95.5 -37.5t-62.5 -100t-22 -137.5q0 -62 30.5 -96t85.5 -34z" />
    <glyph glyph-name="Uhorn" unicode="&#x1af;" horiz-adv-x="727" 
d="M303 -10q-113 0 -168.5 52.5t-55.5 147.5q0 18 3.5 43.5t8.5 49.5l92 431h89l-93 -437q-11 -52 -11 -82q0 -57 32 -91.5t105 -34.5q85 0 130 45.5t65 136.5l99 463h89l-21 -96q38 8 64.5 41t36.5 101h95l4 -11q-17 -79 -74 -128t-138 -64l-67 -314q-16 -78 -50 -135
t-91 -87.5t-144 -30.5z" />
    <glyph glyph-name="uhorn" unicode="&#x1b0;" horiz-adv-x="626" 
d="M189 -10q-61 0 -97.5 34t-36.5 102q0 20 3.5 40t7.5 43l70 327h89l-72 -337q-9 -43 -9 -65q0 -34 16 -52.5t54 -18.5q34 0 73 24t73.5 77t53.5 141l49 231h87l-13 -61q40 8 65.5 41.5t36.5 101.5h95l4 -11q-18 -80 -75 -128.5t-139 -64.5l-88 -414h-72l11 99h-5
q-19 -25 -44.5 -50t-59.5 -42t-77 -17z" />
    <glyph glyph-name="hook" 
d="M-281 590l10 88q43 8 66.5 20.5t23.5 35.5q0 20 -15 26t-40 6q-14 0 -27 -1.5t-20 -2.5v51q12 4 27 5.5t31 1.5q51 0 82.5 -20t31.5 -60t-27.5 -63.5t-74.5 -34.5l-13 -52h-55z" />
    <glyph glyph-name="uni0400" unicode="&#x400;" horiz-adv-x="514" 
d="M41 0l151 714h362l-17 -79h-273l-47 -223h255l-15 -78h-256l-55 -255h274l-17 -79h-362zM388 784q-19 19 -40.5 46t-40.5 55t-29 49v10h94q11 -37 30.5 -75.5t39.5 -72.5v-12h-54z" />
    <glyph glyph-name="uni040D" unicode="&#x40d;" horiz-adv-x="702" 
d="M41 0l151 714h85l-84 -393q-7 -30 -15.5 -68t-16 -72.5t-12.5 -51.5h2l452 585h104l-151 -714h-84l84 397q8 34 16 71.5t15.5 71t13.5 55.5h-2l-454 -595h-104zM464 784q-19 19 -40.5 46t-40.5 55t-29 49v10h94q11 -37 30.5 -75.5t39.5 -72.5v-12h-54z" />
    <glyph glyph-name="uni0450" unicode="&#x450;" horiz-adv-x="499" 
d="M242 -10q-93 0 -143.5 54.5t-50.5 147.5q0 64 18.5 126.5t53.5 114t84.5 82.5t111.5 31q76 0 114.5 -33t38.5 -92q0 -53 -32.5 -95.5t-101.5 -68t-179 -25.5h-17q-1 -9 -1.5 -19t-0.5 -18q0 -61 29.5 -96.5t91.5 -35.5q38 0 72 10.5t74 30.5v-75q-38 -17 -74.5 -28
t-87.5 -11zM152 303h7q60 0 111 10.5t82 35t31 65.5q0 26 -17.5 42.5t-54.5 16.5q-48 0 -92.5 -44.5t-66.5 -125.5zM332 606q-19 19 -40.5 46t-40.5 55t-29 49v10h94q11 -37 30.5 -75.5t39.5 -72.5v-12h-54z" />
    <glyph glyph-name="uni045D" unicode="&#x45d;" horiz-adv-x="579" 
d="M189 -10q-61 0 -97.5 34t-36.5 99q0 23 3.5 43t7.5 43l70 327h89l-72 -337q-9 -43 -9 -67q0 -32 16 -50.5t54 -18.5q34 0 73 24t73.5 77t53.5 141l49 231h87l-114 -536h-72l11 99h-5q-19 -25 -44.5 -50t-59.5 -42t-77 -17zM365 606q-19 19 -40.5 46t-40.5 55t-29 49v10
h94q11 -37 30.5 -75.5t39.5 -72.5v-12h-54z" />
    <glyph glyph-name="uni0460" unicode="&#x460;" horiz-adv-x="919" 
d="M180 -5q-34 95 -55.5 213t-24 247t19.5 259h93q-20 -122 -18.5 -237.5t15 -213t30.5 -166.5h5q13 29 33 67t43 79l153 263q2 52 7 106t14 102h93q-15 -84 -17.5 -170.5t4.5 -168.5t20 -154.5t29 -128.5h4q86 119 155 275.5t112 346.5h94q-47 -205 -135.5 -389.5
t-210.5 -329.5h-80q-21 52 -38 118.5t-28.5 135t-15.5 127.5l-216 -381h-85z" />
    <glyph glyph-name="uni0461" unicode="&#x461;" horiz-adv-x="789" 
d="M136 0q-26 67 -44.5 152.5t-23 183t14.5 201.5h87q-14 -95 -13.5 -181t11.5 -157t26 -121h3q14 26 33.5 52.5t38.5 53.5l106 149q-1 49 3 102t13 102h88q-15 -81 -16 -164.5t8.5 -160t26.5 -136.5h4q72 86 129 204.5t94 256.5h87q-38 -146 -106 -278t-181 -259h-82
q-19 52 -35 117.5t-22 124.5l-170 -242h-80z" />
    <glyph glyph-name="uni0462" unicode="&#x462;" horiz-adv-x="588" 
d="M74 0l114 537h-118l16 76h118l22 101h90l-23 -101h188l-16 -76h-187l-28 -125h67q115 0 164.5 -48.5t49.5 -128.5q0 -114 -80 -174.5t-230 -60.5h-147zM179 77h56q91 0 148 37t57 117q0 54 -34 78t-101 24h-71z" />
    <glyph glyph-name="uni0463" unicode="&#x463;" horiz-adv-x="557" 
d="M274 -10q-86 0 -132 39t-46 116q0 21 3 46t8 47l47 222h-110l15 75h111l23 109h88l-22 -109h140l-16 -75h-140l-35 -157q25 5 57 8.5t61 3.5q86 0 127 -37.5t41 -104.5q0 -52 -25.5 -93.5t-74.5 -65.5t-120 -24zM282 62q61 0 93.5 29t32.5 75q0 40 -25.5 58.5t-77.5 18.5
q-26 0 -56.5 -2.5t-55.5 -7.5q-6 -29 -8.5 -48t-2.5 -33q0 -90 100 -90z" />
    <glyph glyph-name="uni0464" unicode="&#x464;" horiz-adv-x="863" 
d="M601 -10q-121 0 -186.5 72.5t-65.5 199.5q0 35 3 71h-152l-70 -333h-89l151 714h89l-64 -302h151q17 62 48 118t76.5 100t105.5 69t136 25q99 0 175 -40l-37 -74q-26 14 -60 24.5t-78 10.5q-72 0 -125.5 -32t-90 -84.5t-54.5 -116.5h300l-16 -78h-301q-3 -17 -4 -34.5
t-1 -35.5q0 -93 47 -144t128 -51q41 0 80.5 8t78.5 21v-78q-40 -15 -80 -22.5t-95 -7.5z" />
    </font>
</defs>
</svg>
